osu file format v9

[General]
AudioFilename: 101-taylor_swift-mine.mp3
AudioLeadIn: 0
PreviewTime: 49554
Countdown: 1
SampleSet: Normal
StackLeniency: 0.7
Mode: 0
LetterboxInBreaks: 1

[Editor]
Bookmarks: 17689,33557,49424,69260,77193,85127,87483,100995,116863,132731,140664,156532,176367,192235,208102
DistanceSpacing: 1
BeatDivisor: 4
GridSize: 8

[Metadata]
Title:Mine
Artist:Taylor Swift
Creator:Lybydose
Version:Easy
Source:
Tags:country yeahyeahyeahhh yyy Speak Now

[Difficulty]
HPDrainRate:1
CircleSize:3
OverallDifficulty:2
ApproachRate:4
SliderMultiplier:1.12
SliderTickRate:2

[Events]
//Background and Video events
Video,0,"Taylor Swift - Mine.avi"
0,0,"BG.png"
//Break Periods
2,69463,75876
2,132934,139347
2,176372,182984
//Storyboard Layer 0 (Background)
//Storyboard Layer 1 (Fail)
//Storyboard Layer 2 (Pass)
//Storyboard Layer 3 (Foreground)
Sprite,Foreground,Centre,"yyy.png",320,240 F,0,17198,17694,0,1 M,0,17198,221992,478,454
//Storyboard Sound Samples
//Background Colour Transformations
3,100,163,162,255

[TimingPoints]
1825,495.867768595041,4,2,1,71,1,0
18064,-100,4,1,1,51,0,0
18312,-100,4,2,1,71,0,0
19056,-100,4,1,1,50,0,0
19304,-100,4,2,1,70,0,0
20048,-100,4,1,1,50,0,0
20296,-100,4,2,1,70,0,0
21039,-100,4,1,1,51,0,0
21287,-100,4,2,1,70,0,0
22031,-100,4,1,1,51,0,0
22279,-100,4,2,1,70,0,0
23023,-100,4,1,1,50,0,0
23271,-100,4,2,1,71,0,0
24015,-100,4,1,1,51,0,0
24263,-100,4,2,1,70,0,0
25006,-100,4,1,1,51,0,0
25254,-100,4,2,1,71,0,0
25998,-100,4,1,1,50,0,0
26246,-100,4,2,1,71,0,0
26990,-100,4,1,1,49,0,0
27238,-100,4,2,1,70,0,0
27982,-100,4,1,1,50,0,0
28229,-100,4,2,1,71,0,0
28973,-100,4,1,1,51,0,0
29221,-100,4,2,1,70,0,0
29965,-100,4,1,1,51,0,0
30213,-100,4,2,1,70,0,0
30957,-100,4,1,1,50,0,0
31205,-100,4,2,1,70,0,0
32568,-100,4,2,1,40,0,0
33436,-100,4,2,1,80,0,0
36907,-100,4,1,1,61,0,0
37155,-100,4,2,1,80,0,0
40874,-100,4,1,1,61,0,0
41122,-100,4,2,1,81,0,0
44841,-100,4,1,1,60,0,0
45089,-100,4,2,1,81,0,0
46824,-100,4,1,1,60,0,0
47072,-100,4,2,1,80,0,0
49304,-76.9230769230769,4,2,1,80,0,0
49428,-76.9230769230769,4,1,1,80,0,1
65296,-100,4,2,1,80,0,0
65420,-100,4,1,1,80,0,0
65915,-100,4,2,1,80,0,0
66163,-100,4,1,1,80,0,0
66659,-100,4,2,1,80,0,0
66907,-100,4,1,1,80,0,0
69139,-100,4,2,1,79,0,0
77568,-100,4,1,1,61,0,0
77816,-100,4,2,1,79,0,0
78560,-100,4,1,1,61,0,0
78808,-100,4,2,1,79,0,0
79552,-100,4,1,1,61,0,0
79800,-100,4,2,1,79,0,0
80544,-100,4,1,1,60,0,0
80791,-100,4,2,1,80,0,0
81535,-100,4,1,1,60,0,0
81783,-100,4,2,1,80,0,0
82527,-100,4,1,1,60,0,0
82775,-100,4,2,1,80,0,0
85006,-100,4,2,1,80,0,0
85254,-100,4,1,1,79,0,0
88973,-100,4,2,1,100,0,0
89221,-100,4,1,1,79,0,0
92940,-100,4,2,1,100,0,0
93188,-100,4,1,1,79,0,0
96907,-100,4,2,1,100,0,0
97155,-100,4,1,1,79,0,0
97651,-100,4,2,1,100,0,0
97899,-100,4,1,1,79,0,0
100502,-100,4,2,1,100,0,0
100626,-100,4,2,1,100,0,0
100874,-76.9230769230769,4,2,1,100,0,0
100998,-76.9230769230769,4,1,1,81,0,1
116742,-76.9230769230769,4,1,1,80,0,0
116866,-76.9230769230769,4,1,1,80,0,1
132734,-100,4,1,1,80,0,0
172279,-200,4,2,2,80,0,0
172527,-200,4,1,2,80,0,0
174882,-100,4,2,1,0,0,0
184180,-100,4,2,1,80,0,0
187651,-100,4,1,1,60,0,0
187899,-100,4,2,1,79,0,0
188147,-100,4,1,1,49,0,0
188395,-100,4,2,1,80,0,0
188643,-100,4,1,1,51,0,0
188891,-100,4,2,1,79,0,0
189139,-100,4,1,1,50,0,0
189386,-100,4,2,1,80,0,0
189634,-100,4,1,1,51,0,0
190130,-100,4,1,1,59,0,0
190626,-100,4,1,1,71,0,0
191122,-100,4,1,1,80,0,0
192114,-76.9230769230769,4,1,1,80,0,0
192238,-76.9230769230769,4,1,1,90,0,1
207982,-76.9230769230769,4,1,1,90,0,0
208105,-76.9230769230769,4,1,1,90,0,1
221992,-76.9230769230769,4,2,1,0,0,0

[Colours]
Combo1 : 249,227,81
Combo2 : 255,136,196
Combo3 : 152,222,73
Combo4 : 96,215,227

[HitObjects]
80,168,17692,2,0,B|24:216|72:288,1,112
152,336,18684,2,0,B|200:288|160:216,1,112
200,128,19676,1,0
312,128,20172,1,0
400,192,20667,2,0,B|440:152|400:80,1,112
304,24,21659,6,0,B|272:80|312:128,1,112
400,192,22651,1,0
360,296,23147,1,0
248,296,23643,1,0
200,192,24139,1,0
312,216,24634,2,0,B|312:88,1,112
408,72,25626,6,0,B|392:24|352:0|304:0|264:24,2,168
296,112,27610,2,0,B|262:132|214:132|174:108|158:60,2,168
256,8,29593,5,0
144,24,30089,1,0
96,128,30585,1,0
176,208,31081,1,0
176,208,31329,1,0
456,336,32816,5,2
456,336,33064,1,4
368,264,33560,5,2
264,312,34056,1,0
264,312,34304,2,0,B|128:312,1,112,2|2
69,383,35296,2,0,B|6:304|72:232,1,168,2|0
184,208,36535,2,0,B|224:144|176:88,1,112,0|8
104,32,37527,6,0,B|64:88|112:152,1,112,2|0
101,136,38271,1,2
200,80,38767,1,2
264,176,39263,2,0,B|320:264|424:232,1,168,2|0
400,128,40502,1,0
488,200,40998,1,8
464,312,41494,1,2
352,296,41990,5,0
352,296,42238,2,0,B|320:240|352:176,2,112,2|2|2
440,224,43725,1,0
440,224,43973,2,0,B|472:168|432:104,1,112,2|2
328,152,44965,1,8
344,40,45461,6,0,B|208:40,1,112,2|0
176,40,46205,2,0,B|136:88|184:160,2,112,2|2|2
288,80,49428,6,0,B|336:160|280:224,1,145.599997396469,4|8
160,296,50420,2,0,B|160:368,2,72.7999986982346,0|0|8
40,216,51411,6,0,B|-8:144|48:72,1,145.599997396469,0|8
176,144,52403,1,0
176,144,52651,1,0
176,144,52899,1,8
280,240,53395,2,0,B|368:272|448:224,2,145.599997396469,0|8|0
280,240,54634,1,0
280,240,54882,1,8
144,192,55378,5,0
256,96,55874,1,8
368,192,56370,1,0
256,288,56866,1,8
392,336,57362,6,0,B|488:352|504:248,1,145.599997396469,4|8
368,192,58353,1,0
368,192,58601,1,0
368,192,58849,2,0,B|328:104|384:48,2,145.599997396469,8|0|8
496,128,60337,1,0
496,128,60585,1,0
496,128,60833,1,8
440,264,61329,6,0,B|376:320|304:264,1,145.599997396469,0|8
224,144,62320,2,0,B|288:88|360:144,1,145.599997396469,0|8
256,248,63312,5,0
136,328,63808,1,8
32,224,64304,1,0
88,88,64800,1,4
88,88,65296,6,0,B|272:88,1,168,4|4
256,192,66783,12,4,69263
112,72,77196,5,0
224,72,77692,2,0,B|240:136|184:176,1,112,8|0
80,168,78684,1,8
72,280,79180,2,0,B|96:336|160:344,1,112,0|8
240,272,80172,2,0,B|296:272,2,56,0|0|8
312,184,81163,6,0,B|376:184|400:256,1,112,0|8
296,296,82155,2,0,B|316:357|380:357,1,112,0|8
379,357,82899,1,0
379,357,83147,5,4
488,320,83643,1,2
456,216,84139,1,2
456,216,85130,6,0,B|376:272|288:208,1,168,4|0
376,136,86370,2,0,B|376:64,2,56,0|8|0
280,192,87362,5,0
280,192,87610,1,8
184,136,88105,1,0
280,80,88601,1,8
184,16,89097,6,0,B|87:27|64:134,1,168,4|0
72,232,90337,2,0,B|72:304,2,56,0|8|0
160,168,91329,5,0
160,168,91577,1,8
256,224,92072,2,0,B|336:224,1,56
368,224,92568,1,8
448,144,93064,6,0,B|504:224|448:304,1,168,4|0
344,320,94304,2,0,B|272:320,2,56,0|8|0
288,224,95296,5,0
288,224,95544,1,8
184,272,96039,2,0,B|152:216|184:152,1,112,0|8
128,64,97031,6,4,B|168:24|240:24,1,112,4|8
282,24,97775,2,0,B|344:24|384:64,1,112,4|0
384,64,98519,1,8
384,64,98767,1,0
392,192,99263,5,8
336,248,99510,1,0
256,264,99758,1,0
176,248,100006,1,8
120,192,100254,1,8
120,192,100502,1,4
256,40,100998,6,4,B|304:120|248:184,1,145.599997396469,4|8
128,112,101990,2,0,B|56:112,2,72.7999986982346,0|0|8
16,208,102982,6,0,B|-32:280|24:352,1,145.599997396469,0|8
152,280,103973,1,0
152,280,104221,1,0
152,280,104469,1,8
280,208,104965,6,0,B|328:280|272:352,2,145.599997396469,0|8|0
280,208,106205,1,0
280,208,106453,1,8
136,192,106948,5,0
256,104,107444,1,8
376,192,107940,1,0
256,280,108436,1,8
120,336,108932,6,0,B|24:352|8:248,1,145.599997396469,4|8
144,192,109924,1,0
144,192,110172,1,0
144,192,110420,2,0,B|184:104|128:48,2,145.599997396469,8|0|8
32,96,111907,2,0,B|-17:160|30:232,1,145.599997396469,0|8
160,296,112899,6,0,B|241:300|274:220,1,145.599997396469,0|8
304,80,113891,1,0
304,80,114386,1,8
160,120,114882,5,0
160,264,115378,1,8
296,312,115874,1,0
400,216,116370,1,12
480,96,116866,6,0,B|528:176|472:240,1,145.599997396469,4|8
336,256,117858,2,0,B|336:328,2,72.7999986982346,0|0|8
192,224,118849,6,0,B|144:152|200:80,1,145.599997396469,0|8
336,136,119841,1,0
336,136,120089,1,0
336,136,120337,1,8
232,32,120833,2,0,B|144:0|64:48,2,145.599997396469
232,32,122072,1,0
232,32,122320,1,8
240,176,122816,5,0
104,104,123312,1,8
104,248,123808,1,0
104,248,124304,1,8
232,312,124800,6,0,B|328:328|344:224,1,145.599997396469,4|8
208,168,125791,1,0
208,168,126039,1,0
208,168,126287,2,0,B|168:80|224:24,2,145.599997396469,0|0|8
344,112,127775,1,0
344,112,128023,1,0
344,112,128271,1,8
424,232,128767,6,0,B|272:232,1,145.599997396469,4|8
176,336,129758,2,0,B|328:336,1,145.599997396469,0|8
360,192,130750,5,0
256,88,131246,1,8
152,192,131742,1,0
256,296,132238,1,12
256,296,132734,1,4
128,136,140667,6,0,B|88:192|136:248,2,112,0|8|0
224,192,142155,1,8
328,240,142651,2,0,B|369:192|329:137,2,112,0|8|0
224,192,144139,1,12
224,80,144634,5,4
328,40,145130,2,0,B|456:40,1,112,8|0
496,136,146122,1,8
384,136,146618,1,0
384,136,146866,1,0
384,136,147114,2,0,B|264:136,1,112,8|0
176,80,148105,1,12
176,80,148601,6,0,B|136:136|176:192,1,112,4|8
184,296,149593,2,0,B|184:360,2,56,0|0|8
264,216,150585,6,0,B|328:216|376:264,1,112,0|8
480,256,151577,2,0,B|480:144,1,112,0|12
376,96,152568,2,0,B|272:16|160:104,1,224,4|0
272,144,154056,1,8
184,208,154552,6,0,B|64:208,1,112,0|8
104,320,155544,2,0,B|176:320,1,56
216,320,156039,1,8
328,320,156535,6,0,B|432:320|456:200,1,168,4|0
384,136,157775,1,0
384,136,158023,1,8
384,136,158271,2,0,B|280:136|256:256,1,168,0|8
168,296,159510,1,0
56,272,160006,1,8
62,159,160502,6,0,B|80:64|184:64,1,168
248,152,161742,1,0
248,152,161990,1,8
249,152,162238,2,0,B|232:248|128:248,1,168,0|8
208,328,163477,2,0,B|336:328,1,112,8|8
432,328,164469,6,0,B|480:248|424:152,1,168,4|0
336,216,165709,1,0
336,216,165957,1,8
336,216,166205,2,8,B|288:136|344:40,1,168
224,64,167444,1,0
112,64,167940,1,8
79,167,168436,6,0,B|32:248|80:328,1,168,4|4
176,272,169676,1,0
176,272,169924,1,8
176,272,170172,2,0,B|224:192|168:96,1,168,4|8
256,32,171411,1,0
256,32,171659,1,0
256,32,171907,1,8
256,192,172403,12,0,174882
256,48,184304,5,0
152,88,184800,1,0
104,192,185296,1,0
152,296,185791,1,0
256,336,186287,5,0
360,296,186783,1,0
408,192,187278,1,0
360,88,187774,1,8
288,176,188271,6,0,B|176:176,1,112
72,128,189263,2,0,B|32:184|72:232,1,112,0|8
168,288,190254,2,0,B|288:288,1,112,0|8
392,288,191246,1,0
392,288,191742,1,8
392,288,192238,6,0,B|448:192|384:72,2,218.399996094704,4|0|8
320,160,194221,1,0
256,288,194717,1,8
192,160,195213,1,0
120,288,195709,1,8
120,288,196205,6,0,B|64:192|128:72,2,218.399996094704,4|0|8
256,304,198188,1,0
368,192,198684,1,8
256,80,199180,1,0
144,192,199676,1,8
120,336,200172,6,0,B|24:352|8:248,1,145.599997396469,4|8
144,192,201164,1,0
144,192,201660,2,0,B|232:152|288:208,2,145.599997396469,8|0|8
208,328,203147,2,0,B|272:377|344:330,1,145.599997396469,0|8
416,200,204139,6,0,B|420:119|340:86,1,145.599997396469,4|0
264,208,205131,1,0
264,208,205626,1,8
176,88,206122,5,0
72,192,206618,1,8
176,296,207114,1,0
176,296,207610,1,8
304,224,208106,6,0,B|352:304|296:368,1,145.599997396469,4|8
176,296,209098,2,0,B|176:224,2,72.7999986982346,0|0|8
48,360,210089,6,0,B|0:288|56:216,1,145.599997396469,0|8
160,128,211081,1,0
160,128,211329,1,0
160,128,211577,1,8
280,216,212073,2,0,B|352:256|424:216,2,145.599997396469,0|8|0
280,216,213312,1,0
280,216,213560,1,8
368,104,214056,5,0
504,152,214552,1,8
504,296,215048,1,0
376,360,215544,1,8
248,296,216039,6,8,B|80:296,1,145.599997396469,4|8
24,176,217031,1,0
24,176,217279,1,0
24,176,217527,2,0,B|176:176,1,145.599997396469,8|0
312,176,218519,1,8
432,96,219015,1,0
432,96,219263,1,0
432,96,219511,1,8
416,240,220006,6,0,B|312:320|216:240,2,218.399996094704,4|4|8
256,192,221742,12,0,227940
