osu file format v14

[General]
AudioFilename: LoveStory.mp3
AudioLeadIn: 0
PreviewTime: 181516
Countdown: 0
SampleSet: None
StackLeniency: 0.7
Mode: 3
LetterboxInBreaks: 0
SpecialStyle: 0
WidescreenStoryboard: 0

[Editor]
DistanceSpacing: 0.8
BeatDivisor: 4
GridSize: 4
TimelineZoom: 2.6

[Metadata]
Title:Love Story
TitleUnicode:Love Story
Artist:Taylor Swift
ArtistUnicode:Taylor Swift
Creator:Akary
Version:Marry Me, Juliet
Source:
Tags:Zero no Tsukaima
BeatmapID:1079196
BeatmapSetID:507367

[Difficulty]
HPDrainRate:8
CircleSize:7
OverallDifficulty:0
ApproachRate:5
SliderMultiplier:1.4
SliderTickRate:1

[Events]
//Background and Video events
0,0,"bg.jpg",0,0
//Break Periods
//Storyboard Layer 0 (Background)
//Storyboard Layer 1 (Fail)
//Storyboard Layer 2 (Pass)
//Storyboard Layer 3 (Foreground)
//Storyboard Sound Samples

[TimingPoints]
130,504.201680672269,4,1,0,5,1,0
197020,-200,4,1,0,5,0,0
197272,-66.6666666666667,4,1,0,5,0,0
197651,-200,4,1,0,5,0,0
197777,-100,4,1,0,5,0,0

[HitObjects]
182,192,130,128,0,2146:0:0:0:0:
329,192,130,1,0,0:0:0:0:
475,192,382,1,0,0:0:0:0:
36,192,634,128,0,2146:0:0:0:0:
329,192,634,1,0,0:0:0:0:
109,192,634,1,0,0:0:0:0:
475,192,886,1,0,0:0:0:0:
256,192,886,1,0,0:0:0:0:
329,192,1138,1,0,0:0:0:0:
109,192,1138,1,0,0:0:0:0:
256,192,1390,1,0,0:0:0:0:
475,192,1390,1,0,0:0:0:0:
109,192,1642,1,0,0:0:0:0:
402,192,1642,1,0,0:0:0:0:
256,192,1894,128,0,4163:0:0:0:0:
329,192,1894,1,0,0:0:0:0:
475,192,2146,1,0,0:0:0:0:
109,192,2146,1,0,0:0:0:0:
182,192,2398,1,0,0:0:0:0:
109,192,2651,1,0,0:0:0:0:
402,192,2903,128,0,4163:0:0:0:0:
36,192,2903,1,0,0:0:0:0:
109,192,3155,1,0,0:0:0:0:
182,192,3407,1,0,0:0:0:0:
475,192,3407,1,0,0:0:0:0:
109,192,3659,1,0,0:0:0:0:
36,192,3911,1,0,0:0:0:0:
329,192,3911,1,0,0:0:0:0:
109,192,4163,128,0,6180:0:0:0:0:
182,192,4163,1,0,0:0:0:0:
329,192,4415,1,0,0:0:0:0:
36,192,4415,1,0,0:0:0:0:
256,192,4667,128,0,6180:0:0:0:0:
475,192,4667,1,0,0:0:0:0:
182,192,4667,1,0,0:0:0:0:
402,192,4919,1,0,0:0:0:0:
329,192,5172,1,0,0:0:0:0:
182,192,5172,1,0,0:0:0:0:
402,192,5424,1,0,0:0:0:0:
36,192,5424,1,0,0:0:0:0:
475,192,5676,1,0,0:0:0:0:
402,192,5928,1,0,0:0:0:0:
36,192,5928,1,0,0:0:0:0:
329,192,6180,128,0,8197:0:0:0:0:
182,192,6180,1,0,0:0:0:0:
36,192,6432,1,0,0:0:0:0:
475,192,6684,128,0,8197:0:0:0:0:
109,192,6684,1,0,0:0:0:0:
182,192,6936,1,0,0:0:0:0:
109,192,7188,1,0,0:0:0:0:
36,192,7440,1,0,0:0:0:0:
402,192,7440,1,0,0:0:0:0:
109,192,7693,1,0,0:0:0:0:
182,192,7945,1,0,0:0:0:0:
402,192,7945,1,0,0:0:0:0:
109,192,8197,128,0,10214:0:0:0:0:
256,192,8197,1,0,0:0:0:0:
36,192,8197,1,0,0:0:0:0:
329,192,8449,1,0,0:0:0:0:
475,192,8449,1,0,0:0:0:0:
402,192,8701,128,0,10214:0:0:0:0:
256,192,8701,1,0,0:0:0:0:
36,192,8701,1,0,0:0:0:0:
182,192,8953,1,0,0:0:0:0:
256,192,9205,1,0,0:0:0:0:
475,192,9205,1,0,0:0:0:0:
329,192,9457,1,0,0:0:0:0:
36,192,9457,1,0,0:0:0:0:
256,192,9709,1,0,0:0:0:0:
182,192,9961,1,0,0:0:0:0:
329,192,9961,1,0,0:0:0:0:
475,192,10214,128,0,12230:0:0:0:0:
256,192,10214,1,0,0:0:0:0:
36,192,10214,1,0,0:0:0:0:
182,192,10466,1,0,0:0:0:0:
329,192,10718,128,0,12230:0:0:0:0:
36,192,10718,1,0,0:0:0:0:
182,192,10970,1,0,0:0:0:0:
36,192,11222,1,0,0:0:0:0:
182,192,11474,1,0,0:0:0:0:
402,192,11474,1,0,0:0:0:0:
36,192,11726,1,0,0:0:0:0:
109,192,11978,1,0,0:0:0:0:
402,192,11978,1,0,0:0:0:0:
36,192,12230,128,0,16264:0:0:0:0:
182,192,12230,128,0,14247:0:0:0:0:
256,192,12230,1,0,0:0:0:0:
402,192,12230,1,0,0:0:0:0:
329,192,12482,1,0,0:0:0:0:
109,192,12482,1,0,0:0:0:0:
475,192,12735,1,0,0:0:0:0:
256,192,12735,1,0,0:0:0:0:
329,192,12987,1,0,0:0:0:0:
109,192,12987,1,0,0:0:0:0:
475,192,13239,1,0,0:0:0:0:
256,192,13239,1,0,0:0:0:0:
329,192,13491,1,0,0:0:0:0:
109,192,13491,1,0,0:0:0:0:
475,192,13743,1,0,0:0:0:0:
329,192,13995,1,0,0:0:0:0:
109,192,13995,1,0,0:0:0:0:
402,192,14247,128,0,16264:0:0:0:0:
256,192,14247,1,0,0:0:0:0:
475,192,14247,1,0,0:0:0:0:
182,192,14499,1,0,0:0:0:0:
109,192,14751,1,0,0:0:0:0:
182,192,15003,1,0,0:0:0:0:
256,192,15256,1,0,0:0:0:0:
329,192,15508,1,0,0:0:0:0:
109,192,15508,1,0,0:0:0:0:
256,192,15760,1,0,0:0:0:0:
182,192,16012,1,0,0:0:0:0:
329,192,16012,1,0,0:0:0:0:
475,192,16264,1,0,0:0:0:0:
109,192,16264,1,0,0:0:0:0:
475,192,16516,1,0,0:0:0:0:
182,192,16516,1,0,0:0:0:0:
475,192,16768,1,0,0:0:0:0:
256,192,16768,1,0,0:0:0:0:
36,192,16768,1,0,0:0:0:0:
475,192,17020,1,0,0:0:0:0:
329,192,17020,1,0,0:0:0:0:
475,192,17272,1,0,0:0:0:0:
256,192,17272,1,0,0:0:0:0:
475,192,17524,1,0,0:0:0:0:
182,192,17524,1,0,0:0:0:0:
329,192,17524,1,0,0:0:0:0:
475,192,17777,1,0,0:0:0:0:
109,192,17777,1,0,0:0:0:0:
36,192,18029,1,0,0:0:0:0:
475,192,18029,1,0,0:0:0:0:
329,192,18281,1,0,0:0:0:0:
109,192,18281,1,0,0:0:0:0:
475,192,18281,1,0,0:0:0:0:
182,192,18533,1,0,0:0:0:0:
329,192,18533,1,0,0:0:0:0:
329,192,18785,1,0,0:0:0:0:
109,192,18785,1,0,0:0:0:0:
402,192,18785,1,0,0:0:0:0:
329,192,19037,1,0,0:0:0:0:
36,192,19037,1,0,0:0:0:0:
329,192,19289,1,0,0:0:0:0:
109,192,19289,1,0,0:0:0:0:
475,192,19289,1,0,0:0:0:0:
329,192,19541,1,0,0:0:0:0:
182,192,19541,1,0,0:0:0:0:
256,192,19793,1,0,0:0:0:0:
329,192,19793,1,0,0:0:0:0:
109,192,20045,1,0,0:0:0:0:
402,192,20045,1,0,0:0:0:0:
182,192,20298,1,0,0:0:0:0:
475,192,20298,1,0,0:0:0:0:
329,192,20298,1,0,0:0:0:0:
109,192,20550,1,0,0:0:0:0:
402,192,20550,1,0,0:0:0:0:
36,192,20802,1,0,0:0:0:0:
475,192,20802,1,0,0:0:0:0:
256,192,20802,1,0,0:0:0:0:
182,192,21054,1,0,0:0:0:0:
329,192,21054,1,0,0:0:0:0:
109,192,21306,1,0,0:0:0:0:
256,192,21306,1,0,0:0:0:0:
402,192,21306,1,0,0:0:0:0:
36,192,21558,1,0,0:0:0:0:
182,192,21558,1,0,0:0:0:0:
329,192,21810,1,0,0:0:0:0:
475,192,21810,1,0,0:0:0:0:
109,192,21810,1,0,0:0:0:0:
402,192,22062,1,0,0:0:0:0:
256,192,22062,1,0,0:0:0:0:
475,192,22314,1,0,0:0:0:0:
329,192,22314,1,0,0:0:0:0:
36,192,22314,1,0,0:0:0:0:
109,192,22566,1,0,0:0:0:0:
256,192,22566,1,0,0:0:0:0:
182,192,22819,1,0,0:0:0:0:
402,192,22819,1,0,0:0:0:0:
36,192,22819,1,0,0:0:0:0:
109,192,23071,1,0,0:0:0:0:
329,192,23071,1,0,0:0:0:0:
475,192,23071,1,0,0:0:0:0:
182,192,23323,1,0,0:0:0:0:
402,192,23323,1,0,0:0:0:0:
36,192,23323,1,0,0:0:0:0:
256,192,23575,1,0,0:0:0:0:
475,192,23575,1,0,0:0:0:0:
109,192,23827,1,0,0:0:0:0:
329,192,23827,1,0,0:0:0:0:
402,192,23827,1,0,0:0:0:0:
182,192,24079,1,0,0:0:0:0:
256,192,24079,1,0,0:0:0:0:
36,192,24331,128,0,27356:0:0:0:0:
109,192,24331,1,0,0:0:0:0:
475,192,24331,1,0,0:0:0:0:
402,192,24583,1,0,0:0:0:0:
182,192,24583,1,0,0:0:0:0:
329,192,24835,1,0,0:0:0:0:
256,192,24835,1,0,0:0:0:0:
182,192,25087,1,0,0:0:0:0:
402,192,25087,1,0,0:0:0:0:
475,192,25340,1,0,0:0:0:0:
109,192,25340,1,0,0:0:0:0:
402,192,25592,1,0,0:0:0:0:
182,192,25592,1,0,0:0:0:0:
256,192,25844,1,0,0:0:0:0:
329,192,25844,1,0,0:0:0:0:
402,192,26096,1,0,0:0:0:0:
182,192,26096,1,0,0:0:0:0:
329,192,26348,1,0,0:0:0:0:
109,192,26348,1,0,0:0:0:0:
182,192,26600,1,0,0:0:0:0:
402,192,26600,1,0,0:0:0:0:
256,192,26852,1,0,0:0:0:0:
475,192,26852,1,0,0:0:0:0:
402,192,27104,1,0,0:0:0:0:
182,192,27104,1,0,0:0:0:0:
109,192,27356,1,0,0:0:0:0:
329,192,27356,1,0,0:0:0:0:
36,192,27608,1,0,0:0:0:0:
256,192,27608,1,0,0:0:0:0:
109,192,27861,1,0,0:0:0:0:
475,192,27861,1,0,0:0:0:0:
329,192,27861,1,0,0:0:0:0:
402,192,28113,1,0,0:0:0:0:
36,192,28113,1,0,0:0:0:0:
182,192,28365,128,0,30382:0:0:0:0:
109,192,28365,1,0,0:0:0:0:
329,192,28365,1,0,0:0:0:0:
36,192,28617,1,0,0:0:0:0:
402,192,28617,1,0,0:0:0:0:
109,192,28869,1,0,0:0:0:0:
475,192,28869,1,0,0:0:0:0:
256,192,28869,1,0,0:0:0:0:
36,192,29121,1,0,0:0:0:0:
402,192,29121,1,0,0:0:0:0:
329,192,29373,128,0,30382:0:0:0:0:
109,192,29373,1,0,0:0:0:0:
256,192,29373,1,0,0:0:0:0:
475,192,29373,1,0,0:0:0:0:
36,192,29625,1,0,0:0:0:0:
402,192,29625,1,0,0:0:0:0:
109,192,29877,1,0,0:0:0:0:
256,192,29877,1,0,0:0:0:0:
475,192,29877,1,0,0:0:0:0:
36,192,30130,1,0,0:0:0:0:
402,192,30130,1,0,0:0:0:0:
109,192,30382,1,0,0:0:0:0:
475,192,30382,1,0,0:0:0:0:
256,192,30382,1,0,0:0:0:0:
402,192,30634,1,0,0:0:0:0:
182,192,30634,1,0,0:0:0:0:
36,192,30634,1,0,0:0:0:0:
109,192,30886,1,0,0:0:0:0:
256,192,30886,1,0,0:0:0:0:
329,192,30886,1,0,0:0:0:0:
402,192,31138,1,0,0:0:0:0:
182,192,31138,1,0,0:0:0:0:
475,192,31390,1,0,0:0:0:0:
329,192,31390,1,0,0:0:0:0:
109,192,31390,1,0,0:0:0:0:
36,192,31642,1,0,0:0:0:0:
182,192,31642,1,0,0:0:0:0:
256,192,31642,1,0,0:0:0:0:
402,192,31642,1,0,0:0:0:0:
329,192,31894,1,0,0:0:0:0:
109,192,32146,1,0,0:0:0:0:
256,192,32146,1,0,0:0:0:0:
36,192,32146,1,0,0:0:0:0:
475,192,32146,1,0,0:0:0:0:
402,192,32398,128,0,34415:0:0:0:0:
182,192,32398,1,0,0:0:0:0:
329,192,32398,1,0,0:0:0:0:
36,192,32398,1,0,0:0:0:0:
109,192,32651,1,0,0:0:0:0:
256,192,32651,1,0,0:0:0:0:
36,192,32903,1,0,0:0:0:0:
329,192,32903,1,0,0:0:0:0:
182,192,33155,128,0,34415:0:0:0:0:
109,192,33155,1,0,0:0:0:0:
475,192,33155,1,0,0:0:0:0:
256,192,33407,1,0,0:0:0:0:
36,192,33407,1,0,0:0:0:0:
109,192,33659,1,0,0:0:0:0:
329,192,33659,1,0,0:0:0:0:
36,192,33911,128,0,34415:0:0:0:0:
475,192,33911,1,0,0:0:0:0:
256,192,33911,1,0,0:0:0:0:
329,192,34163,1,0,0:0:0:0:
109,192,34163,1,0,0:0:0:0:
109,192,34415,128,0,34667:0:0:0:0:
475,192,34415,1,0,0:0:0:0:
256,192,34415,1,0,0:0:0:0:
256,192,34667,128,0,34919:0:0:0:0:
329,192,34667,1,0,0:0:0:0:
36,192,34667,1,0,0:0:0:0:
402,192,34919,128,0,35172:0:0:0:0:
475,192,34919,1,0,0:0:0:0:
109,192,34919,1,0,0:0:0:0:
182,192,35172,1,0,0:0:0:0:
329,192,35172,1,0,0:0:0:0:
402,192,35424,1,0,0:0:0:0:
109,192,35424,1,0,0:0:0:0:
329,192,35676,128,0,36054:0:0:0:0:
256,192,35676,128,0,36432:0:0:0:0:
475,192,35676,1,0,0:0:0:0:
36,192,35676,1,0,0:0:0:0:
109,192,35928,128,0,36432:0:0:0:0:
475,192,35928,128,0,36306:0:0:0:0:
402,192,35928,1,0,0:0:0:0:
182,192,35928,1,0,0:0:0:0:
329,192,36180,1,0,0:0:0:0:
36,192,36432,128,0,38449:0:0:0:0:
182,192,36432,1,0,0:0:0:0:
475,192,36432,1,0,0:0:0:0:
402,192,36432,1,0,0:0:0:0:
329,192,36684,1,0,0:0:0:0:
109,192,36684,1,0,0:0:0:0:
256,192,36936,1,0,0:0:0:0:
475,192,36936,1,0,0:0:0:0:
182,192,37188,128,0,38449:0:0:0:0:
402,192,37188,1,0,0:0:0:0:
109,192,37188,1,0,0:0:0:0:
329,192,37440,1,0,0:0:0:0:
475,192,37440,1,0,0:0:0:0:
256,192,37693,1,0,0:0:0:0:
109,192,37693,1,0,0:0:0:0:
402,192,37945,128,0,38449:0:0:0:0:
329,192,37945,1,0,0:0:0:0:
475,192,37945,1,0,0:0:0:0:
256,192,38197,1,0,0:0:0:0:
109,192,38197,1,0,0:0:0:0:
329,192,38449,1,0,0:0:0:0:
475,192,38449,1,0,0:0:0:0:
109,192,38449,1,0,0:0:0:0:
182,192,38701,1,0,0:0:0:0:
36,192,38701,1,0,0:0:0:0:
256,192,38953,1,0,0:0:0:0:
402,192,38953,1,0,0:0:0:0:
329,192,39205,1,0,0:0:0:0:
475,192,39205,1,0,0:0:0:0:
109,192,39457,1,0,0:0:0:0:
402,192,39457,1,0,0:0:0:0:
256,192,39709,128,0,40466:0:0:0:0:
36,192,39709,128,0,39961:0:0:0:0:
182,192,39709,1,0,0:0:0:0:
475,192,39709,1,0,0:0:0:0:
402,192,39961,1,0,0:0:0:0:
109,192,39961,1,0,0:0:0:0:
182,192,40214,128,0,40466:0:0:0:0:
402,192,40214,128,0,40466:0:0:0:0:
329,192,40214,1,0,0:0:0:0:
36,192,40214,1,0,0:0:0:0:
329,192,40466,128,0,43491:0:0:0:0:
475,192,40466,128,0,43491:0:0:0:0:
109,192,40466,1,0,0:0:0:0:
36,192,40466,1,0,0:0:0:0:
256,192,40718,1,0,0:0:0:0:
109,192,40718,1,0,0:0:0:0:
182,192,40970,1,0,0:0:0:0:
36,192,40970,1,0,0:0:0:0:
256,192,41222,1,0,0:0:0:0:
109,192,41222,1,0,0:0:0:0:
402,192,41474,1,0,0:0:0:0:
36,192,41474,1,0,0:0:0:0:
402,192,41726,1,0,0:0:0:0:
109,192,41726,1,0,0:0:0:0:
182,192,41978,1,0,0:0:0:0:
36,192,41978,1,0,0:0:0:0:
402,192,41978,1,0,0:0:0:0:
256,192,42230,1,0,0:0:0:0:
109,192,42230,1,0,0:0:0:0:
182,192,42482,1,0,0:0:0:0:
36,192,42482,1,0,0:0:0:0:
256,192,42735,1,0,0:0:0:0:
109,192,42735,1,0,0:0:0:0:
402,192,42987,1,0,0:0:0:0:
182,192,42987,1,0,0:0:0:0:
402,192,43239,1,0,0:0:0:0:
109,192,43239,1,0,0:0:0:0:
402,192,43491,1,0,0:0:0:0:
36,192,43491,1,0,0:0:0:0:
182,192,43491,128,0,43743:0:0:0:0:
329,192,43743,128,0,43995:0:0:0:0:
475,192,43743,1,0,0:0:0:0:
109,192,43743,1,0,0:0:0:0:
475,192,43995,128,0,44247:0:0:0:0:
182,192,43995,1,0,0:0:0:0:
36,192,43995,1,0,0:0:0:0:
256,192,43995,1,0,0:0:0:0:
109,192,44247,1,0,0:0:0:0:
329,192,44247,1,0,0:0:0:0:
36,192,44499,128,0,46516:0:0:0:0:
182,192,44499,1,0,0:0:0:0:
402,192,44499,1,0,0:0:0:0:
256,192,44499,1,0,0:0:0:0:
329,192,44751,1,0,0:0:0:0:
475,192,44751,1,0,0:0:0:0:
402,192,45003,1,0,0:0:0:0:
256,192,45003,1,0,0:0:0:0:
182,192,45256,128,0,47524:0:0:0:0:
109,192,45256,1,0,0:0:0:0:
475,192,45256,1,0,0:0:0:0:
402,192,45508,1,0,0:0:0:0:
256,192,45508,1,0,0:0:0:0:
329,192,45760,1,0,0:0:0:0:
475,192,45760,1,0,0:0:0:0:
109,192,45760,1,0,0:0:0:0:
329,192,46012,128,0,48407:0:0:0:0:
402,192,46012,1,0,0:0:0:0:
256,192,46012,1,0,0:0:0:0:
109,192,46012,1,0,0:0:0:0:
475,192,46264,1,0,0:0:0:0:
109,192,46516,1,0,0:0:0:0:
402,192,46516,1,0,0:0:0:0:
256,192,46516,1,0,0:0:0:0:
36,192,46768,1,0,0:0:0:0:
475,192,46768,1,0,0:0:0:0:
109,192,47020,1,0,0:0:0:0:
402,192,47020,1,0,0:0:0:0:
36,192,47272,1,0,0:0:0:0:
475,192,47272,1,0,0:0:0:0:
256,192,47272,1,0,0:0:0:0:
402,192,47524,1,0,0:0:0:0:
256,192,47524,1,0,0:0:0:0:
109,192,47524,1,0,0:0:0:0:
182,192,47777,1,0,0:0:0:0:
475,192,48029,128,0,48407:0:0:0:0:
402,192,48029,128,0,48407:0:0:0:0:
36,192,48029,1,0,0:0:0:0:
256,192,48029,1,0,0:0:0:0:
109,192,48281,1,0,0:0:0:0:
182,192,48281,1,0,0:0:0:0:
36,192,48533,128,0,49289:0:0:0:0:
256,192,48533,128,0,48785:0:0:0:0:
329,192,48533,1,0,0:0:0:0:
475,192,48533,1,0,0:0:0:0:
402,192,48533,1,0,0:0:0:0:
109,192,48785,128,0,49037:0:0:0:0:
182,192,48785,1,0,0:0:0:0:
475,192,48785,1,0,0:0:0:0:
329,192,49037,128,0,49289:0:0:0:0:
402,192,49037,1,0,0:0:0:0:
256,192,49037,1,0,0:0:0:0:
182,192,49289,128,0,49541:0:0:0:0:
109,192,49289,1,0,0:0:0:0:
475,192,49289,1,0,0:0:0:0:
402,192,49541,128,0,50550:0:0:0:0:
36,192,49541,1,0,0:0:0:0:
329,192,49541,1,0,0:0:0:0:
256,192,49793,128,0,50045:0:0:0:0:
109,192,49793,1,0,0:0:0:0:
182,192,49793,1,0,0:0:0:0:
475,192,50045,128,0,50298:0:0:0:0:
36,192,50045,1,0,0:0:0:0:
329,192,50045,1,0,0:0:0:0:
182,192,50045,1,0,0:0:0:0:
329,192,50298,128,0,50550:0:0:0:0:
109,192,50298,1,0,0:0:0:0:
256,192,50298,1,0,0:0:0:0:
36,192,50550,128,0,51054:0:0:0:0:
182,192,50550,128,0,51054:0:0:0:0:
475,192,50550,1,0,0:0:0:0:
256,192,50550,1,0,0:0:0:0:
402,192,50802,1,0,0:0:0:0:
109,192,50802,1,0,0:0:0:0:
256,192,51054,1,0,0:0:0:0:
475,192,51054,1,0,0:0:0:0:
36,192,51306,128,0,51936:0:0:0:0:
402,192,51306,1,0,0:0:0:0:
182,192,51306,1,0,0:0:0:0:
182,192,51558,128,0,51936:0:0:0:0:
329,192,51558,1,0,0:0:0:0:
475,192,51558,1,0,0:0:0:0:
402,192,51810,1,0,0:0:0:0:
109,192,51810,1,0,0:0:0:0:
36,192,52062,1,0,0:0:0:0:
182,192,52062,1,0,0:0:0:0:
256,192,52062,1,0,0:0:0:0:
475,192,52062,1,0,0:0:0:0:
329,192,52062,1,0,0:0:0:0:
109,192,52314,1,0,0:0:0:0:
402,192,52314,1,0,0:0:0:0:
182,192,52566,128,0,52693:0:0:0:0:
329,192,52566,1,0,0:0:0:0:
475,192,52566,1,0,0:0:0:0:
256,192,52819,128,0,52945:0:0:0:0:
402,192,52819,1,0,0:0:0:0:
109,192,52819,1,0,0:0:0:0:
36,192,53071,128,0,53197:0:0:0:0:
256,192,53071,1,0,0:0:0:0:
475,192,53071,1,0,0:0:0:0:
109,192,53323,128,0,53449:0:0:0:0:
402,192,53323,1,0,0:0:0:0:
182,192,53323,1,0,0:0:0:0:
475,192,53575,128,0,53701:0:0:0:0:
329,192,53575,1,0,0:0:0:0:
109,192,53575,1,0,0:0:0:0:
402,192,53827,128,0,53953:0:0:0:0:
256,192,53827,1,0,0:0:0:0:
36,192,53827,1,0,0:0:0:0:
109,192,54079,128,0,54205:0:0:0:0:
329,192,54079,1,0,0:0:0:0:
475,192,54079,1,0,0:0:0:0:
182,192,54331,128,0,54457:0:0:0:0:
402,192,54331,1,0,0:0:0:0:
36,192,54331,1,0,0:0:0:0:
256,192,54583,1,0,0:0:0:0:
475,192,54583,1,0,0:0:0:0:
109,192,54583,1,0,0:0:0:0:
329,192,54583,1,0,0:0:0:0:
182,192,54835,1,0,0:0:0:0:
36,192,54835,1,0,0:0:0:0:
402,192,54835,1,0,0:0:0:0:
329,192,55087,1,0,0:0:0:0:
475,192,55087,1,0,0:0:0:0:
109,192,55087,1,0,0:0:0:0:
109,192,55340,1,0,0:0:0:0:
256,192,55340,1,0,0:0:0:0:
402,192,55340,1,0,0:0:0:0:
402,192,55592,1,0,0:0:0:0:
256,192,55592,1,0,0:0:0:0:
109,192,55592,1,0,0:0:0:0:
36,192,55844,1,0,0:0:0:0:
182,192,55844,1,0,0:0:0:0:
329,192,55844,1,0,0:0:0:0:
475,192,55844,1,0,0:0:0:0:
402,192,56096,1,0,0:0:0:0:
109,192,56096,1,0,0:0:0:0:
475,192,56096,1,0,0:0:0:0:
36,192,56096,1,0,0:0:0:0:
256,192,56096,1,0,0:0:0:0:
329,192,56348,128,0,56600:0:0:0:0:
182,192,56348,128,0,56600:0:0:0:0:
256,192,56348,1,0,0:0:0:0:
36,192,56348,1,0,0:0:0:0:
475,192,56348,1,0,0:0:0:0:
36,192,56600,1,0,0:0:0:0:
475,192,56600,1,0,0:0:0:0:
402,192,56600,1,0,0:0:0:0:
109,192,56600,1,0,0:0:0:0:
182,192,56852,128,0,57104:0:0:0:0:
329,192,56852,128,0,57104:0:0:0:0:
402,192,56852,1,0,0:0:0:0:
109,192,56852,1,0,0:0:0:0:
256,192,56852,1,0,0:0:0:0:
109,192,57104,1,0,0:0:0:0:
256,192,57104,1,0,0:0:0:0:
475,192,57104,1,0,0:0:0:0:
36,192,57104,1,0,0:0:0:0:
182,192,57356,128,0,57608:0:0:0:0:
329,192,57356,128,0,57608:0:0:0:0:
109,192,57356,1,0,0:0:0:0:
402,192,57356,1,0,0:0:0:0:
256,192,57356,1,0,0:0:0:0:
402,192,57608,1,0,0:0:0:0:
256,192,57608,1,0,0:0:0:0:
36,192,57608,1,0,0:0:0:0:
475,192,57608,1,0,0:0:0:0:
402,192,57861,128,0,58113:0:0:0:0:
109,192,57861,128,0,58113:0:0:0:0:
475,192,57861,1,0,0:0:0:0:
182,192,57861,1,0,0:0:0:0:
329,192,57861,1,0,0:0:0:0:
182,192,58113,1,0,0:0:0:0:
256,192,58113,1,0,0:0:0:0:
329,192,58113,1,0,0:0:0:0:
36,192,58113,1,0,0:0:0:0:
402,192,58365,128,0,58617:0:0:0:0:
109,192,58365,128,0,58617:0:0:0:0:
36,192,58365,1,0,0:0:0:0:
475,192,58365,1,0,0:0:0:0:
256,192,58365,1,0,0:0:0:0:
182,192,58617,1,0,0:0:0:0:
256,192,58617,1,0,0:0:0:0:
329,192,58617,1,0,0:0:0:0:
475,192,58617,1,0,0:0:0:0:
402,192,58869,128,0,59121:0:0:0:0:
109,192,58869,128,0,59121:0:0:0:0:
256,192,58869,1,0,0:0:0:0:
36,192,58869,1,0,0:0:0:0:
475,192,58869,1,0,0:0:0:0:
329,192,59121,1,0,0:0:0:0:
182,192,59121,1,0,0:0:0:0:
36,192,59121,1,0,0:0:0:0:
475,192,59121,1,0,0:0:0:0:
475,192,59373,128,0,59625:0:0:0:0:
36,192,59373,128,0,59625:0:0:0:0:
256,192,59373,1,0,0:0:0:0:
402,192,59373,1,0,0:0:0:0:
109,192,59373,1,0,0:0:0:0:
329,192,59625,1,0,0:0:0:0:
182,192,59625,1,0,0:0:0:0:
402,192,59625,1,0,0:0:0:0:
109,192,59625,1,0,0:0:0:0:
475,192,59877,128,0,60130:0:0:0:0:
36,192,59877,128,0,60130:0:0:0:0:
182,192,59877,1,0,0:0:0:0:
256,192,59877,1,0,0:0:0:0:
329,192,59877,1,0,0:0:0:0:
182,192,60130,1,0,0:0:0:0:
256,192,60130,1,0,0:0:0:0:
329,192,60130,1,0,0:0:0:0:
402,192,60130,1,0,0:0:0:0:
109,192,60130,1,0,0:0:0:0:
475,192,60382,128,0,60634:0:0:0:0:
36,192,60382,128,0,60634:0:0:0:0:
402,192,60382,1,0,0:0:0:0:
109,192,60382,1,0,0:0:0:0:
256,192,60382,1,0,0:0:0:0:
329,192,60634,1,0,0:0:0:0:
256,192,60634,1,0,0:0:0:0:
182,192,60634,1,0,0:0:0:0:
109,192,60634,1,0,0:0:0:0:
402,192,60886,128,0,60949:0:0:0:0:
256,192,60886,1,0,0:0:0:0:
182,192,60886,1,0,0:0:0:0:
329,192,61138,128,0,61201:0:0:0:0:
182,192,61138,1,0,0:0:0:0:
109,192,61138,1,0,0:0:0:0:
256,192,61390,128,0,61453:0:0:0:0:
109,192,61390,1,0,0:0:0:0:
36,192,61390,1,0,0:0:0:0:
475,192,61390,1,0,0:0:0:0:
182,192,61642,128,0,61705:0:0:0:0:
475,192,61642,1,0,0:0:0:0:
402,192,61642,1,0,0:0:0:0:
36,192,61642,1,0,0:0:0:0:
109,192,61894,128,0,61957:0:0:0:0:
329,192,61894,1,0,0:0:0:0:
402,192,61894,1,0,0:0:0:0:
182,192,62146,1,0,0:0:0:0:
256,192,62146,1,0,0:0:0:0:
329,192,62146,1,0,0:0:0:0:
475,192,62146,128,0,62651:0:0:0:0:
36,192,62146,128,0,62651:0:0:0:0:
402,192,62398,1,0,0:0:0:0:
109,192,62398,1,0,0:0:0:0:
182,192,62651,128,0,62903:0:0:0:0:
329,192,62651,1,0,0:0:0:0:
256,192,62651,1,0,0:0:0:0:
329,192,62903,128,0,63029:0:0:0:0:
475,192,62903,128,0,63029:0:0:0:0:
109,192,62903,1,0,0:0:0:0:
36,192,63155,128,0,64667:0:0:0:0:
402,192,63155,128,0,63281:0:0:0:0:
256,192,63155,128,0,63281:0:0:0:0:
182,192,63155,1,0,0:0:0:0:
475,192,63155,1,0,0:0:0:0:
182,192,63407,128,0,63911:0:0:0:0:
402,192,63407,1,0,0:0:0:0:
256,192,63407,1,0,0:0:0:0:
329,192,63659,128,0,64163:0:0:0:0:
475,192,63659,1,0,0:0:0:0:
109,192,63659,1,0,0:0:0:0:
475,192,63911,128,0,64415:0:0:0:0:
402,192,63911,1,0,0:0:0:0:
256,192,63911,1,0,0:0:0:0:
109,192,63911,1,0,0:0:0:0:
109,192,64163,128,0,64415:0:0:0:0:
182,192,64163,1,0,0:0:0:0:
256,192,64163,1,0,0:0:0:0:
402,192,64163,1,0,0:0:0:0:
402,192,64415,128,0,64667:0:0:0:0:
329,192,64415,1,0,0:0:0:0:
475,192,64667,128,0,68701:0:0:0:0:
109,192,64667,1,0,0:0:0:0:
182,192,64667,1,0,0:0:0:0:
256,192,64667,1,0,0:0:0:0:
329,192,64667,1,0,0:0:0:0:
256,192,64919,128,0,65172:0:0:0:0:
402,192,64919,1,0,0:0:0:0:
36,192,64919,1,0,0:0:0:0:
109,192,65172,128,0,65424:0:0:0:0:
329,192,65172,1,0,0:0:0:0:
182,192,65172,1,0,0:0:0:0:
402,192,65172,1,0,0:0:0:0:
256,192,65424,1,0,0:0:0:0:
36,192,65424,1,0,0:0:0:0:
36,192,65676,128,0,66180:0:0:0:0:
182,192,65676,1,0,0:0:0:0:
329,192,65676,1,0,0:0:0:0:
402,192,65676,1,0,0:0:0:0:
256,192,65928,128,0,66180:0:0:0:0:
109,192,65928,1,0,0:0:0:0:
329,192,65928,1,0,0:0:0:0:
402,192,66180,128,0,66432:0:0:0:0:
329,192,66180,1,0,0:0:0:0:
182,192,66180,1,0,0:0:0:0:
109,192,66180,1,0,0:0:0:0:
256,192,66432,1,0,0:0:0:0:
36,192,66432,1,0,0:0:0:0:
182,192,66684,128,0,66936:0:0:0:0:
109,192,66684,1,0,0:0:0:0:
329,192,66684,1,0,0:0:0:0:
402,192,66684,1,0,0:0:0:0:
402,192,66936,128,0,67188:0:0:0:0:
329,192,66936,1,0,0:0:0:0:
256,192,66936,1,0,0:0:0:0:
36,192,66936,1,0,0:0:0:0:
109,192,67188,128,0,67440:0:0:0:0:
36,192,67188,1,0,0:0:0:0:
182,192,67188,1,0,0:0:0:0:
256,192,67188,1,0,0:0:0:0:
329,192,67440,128,0,67693:0:0:0:0:
402,192,67440,1,0,0:0:0:0:
36,192,67440,1,0,0:0:0:0:
182,192,67440,1,0,0:0:0:0:
36,192,67693,128,0,67945:0:0:0:0:
109,192,67693,1,0,0:0:0:0:
256,192,67693,1,0,0:0:0:0:
402,192,67693,1,0,0:0:0:0:
256,192,67945,128,0,68449:0:0:0:0:
182,192,67945,1,0,0:0:0:0:
329,192,67945,1,0,0:0:0:0:
109,192,67945,1,0,0:0:0:0:
402,192,68197,128,0,68449:0:0:0:0:
109,192,68197,128,0,68701:0:0:0:0:
329,192,68197,1,0,0:0:0:0:
36,192,68197,1,0,0:0:0:0:
182,192,68197,1,0,0:0:0:0:
182,192,68449,1,0,0:0:0:0:
329,192,68449,1,0,0:0:0:0:
36,192,68701,128,0,72735:0:0:0:0:
182,192,68701,1,0,0:0:0:0:
256,192,68701,128,0,69205:0:0:0:0:
402,192,68701,1,0,0:0:0:0:
109,192,68953,1,0,0:0:0:0:
475,192,68953,1,0,0:0:0:0:
402,192,69205,128,0,69709:0:0:0:0:
329,192,69205,1,0,0:0:0:0:
182,192,69205,1,0,0:0:0:0:
475,192,69205,1,0,0:0:0:0:
256,192,69457,1,0,0:0:0:0:
109,192,69457,1,0,0:0:0:0:
182,192,69709,128,0,70214:0:0:0:0:
329,192,69709,1,0,0:0:0:0:
475,192,69709,1,0,0:0:0:0:
109,192,69709,1,0,0:0:0:0:
402,192,69961,1,0,0:0:0:0:
256,192,69961,1,0,0:0:0:0:
329,192,70214,128,0,70718:0:0:0:0:
475,192,70214,1,0,0:0:0:0:
256,192,70214,1,0,0:0:0:0:
109,192,70214,1,0,0:0:0:0:
182,192,70466,1,0,0:0:0:0:
402,192,70466,1,0,0:0:0:0:
256,192,70718,128,0,70970:0:0:0:0:
475,192,70718,1,0,0:0:0:0:
109,192,70718,1,0,0:0:0:0:
182,192,70718,1,0,0:0:0:0:
109,192,70970,128,0,71222:0:0:0:0:
182,192,70970,1,0,0:0:0:0:
475,192,70970,1,0,0:0:0:0:
402,192,70970,1,0,0:0:0:0:
329,192,71222,128,0,71474:0:0:0:0:
182,192,71222,1,0,0:0:0:0:
256,192,71222,1,0,0:0:0:0:
402,192,71222,1,0,0:0:0:0:
182,192,71474,128,0,71726:0:0:0:0:
475,192,71474,1,0,0:0:0:0:
402,192,71474,1,0,0:0:0:0:
109,192,71474,1,0,0:0:0:0:
402,192,71726,128,0,71978:0:0:0:0:
329,192,71726,1,0,0:0:0:0:
256,192,71726,1,0,0:0:0:0:
475,192,71726,1,0,0:0:0:0:
256,192,71978,128,0,72482:0:0:0:0:
109,192,71978,1,0,0:0:0:0:
182,192,71978,1,0,0:0:0:0:
329,192,71978,1,0,0:0:0:0:
475,192,72230,128,0,72482:0:0:0:0:
402,192,72230,1,0,0:0:0:0:
109,192,72230,1,0,0:0:0:0:
182,192,72230,1,0,0:0:0:0:
329,192,72482,128,0,72735:0:0:0:0:
402,192,72482,1,0,0:0:0:0:
109,192,72482,1,0,0:0:0:0:
182,192,72735,128,0,76768:0:0:0:0:
475,192,72735,128,0,72987:0:0:0:0:
256,192,72735,1,0,0:0:0:0:
109,192,72735,1,0,0:0:0:0:
402,192,72735,128,0,73239:0:0:0:0:
329,192,72987,1,0,0:0:0:0:
36,192,72987,1,0,0:0:0:0:
475,192,73239,128,0,73680:0:0:0:0:
256,192,73239,1,0,0:0:0:0:
109,192,73239,1,0,0:0:0:0:
36,192,73239,1,0,0:0:0:0:
402,192,73491,128,0,73680:0:0:0:0:
329,192,73491,1,0,0:0:0:0:
109,192,73491,1,0,0:0:0:0:
329,192,73743,128,0,73995:0:0:0:0:
402,192,73743,1,0,0:0:0:0:
475,192,73743,1,0,0:0:0:0:
36,192,73743,1,0,0:0:0:0:
109,192,73995,1,0,0:0:0:0:
256,192,73995,1,0,0:0:0:0:
402,192,74247,128,0,74499:0:0:0:0:
36,192,74247,1,0,0:0:0:0:
329,192,74247,1,0,0:0:0:0:
475,192,74247,1,0,0:0:0:0:
109,192,74499,1,0,0:0:0:0:
256,192,74499,1,0,0:0:0:0:
36,192,74751,128,0,75256:0:0:0:0:
475,192,74751,1,0,0:0:0:0:
402,192,74751,1,0,0:0:0:0:
329,192,74751,1,0,0:0:0:0:
256,192,75003,1,0,0:0:0:0:
109,192,75003,1,0,0:0:0:0:
256,192,75256,128,0,75508:0:0:0:0:
475,192,75256,1,0,0:0:0:0:
402,192,75256,1,0,0:0:0:0:
109,192,75256,1,0,0:0:0:0:
402,192,75508,128,0,75760:0:0:0:0:
36,192,75508,1,0,0:0:0:0:
329,192,75508,1,0,0:0:0:0:
475,192,75508,1,0,0:0:0:0:
36,192,75760,128,0,76012:0:0:0:0:
109,192,75760,1,0,0:0:0:0:
256,192,75760,1,0,0:0:0:0:
329,192,75760,1,0,0:0:0:0:
329,192,76012,128,0,76264:0:0:0:0:
475,192,76012,1,0,0:0:0:0:
402,192,76012,1,0,0:0:0:0:
109,192,76012,1,0,0:0:0:0:
475,192,76264,128,0,76516:0:0:0:0:
36,192,76264,1,0,0:0:0:0:
256,192,76264,1,0,0:0:0:0:
402,192,76264,1,0,0:0:0:0:
109,192,76516,128,0,76768:0:0:0:0:
329,192,76516,1,0,0:0:0:0:
256,192,76516,1,0,0:0:0:0:
36,192,76516,1,0,0:0:0:0:
402,192,76768,128,0,78785:0:0:0:0:
256,192,76768,128,0,77020:0:0:0:0:
475,192,76768,1,0,0:0:0:0:
329,192,76768,1,0,0:0:0:0:
36,192,76768,1,0,0:0:0:0:
36,192,77020,128,0,77524:0:0:0:0:
109,192,77020,1,0,0:0:0:0:
475,192,77020,1,0,0:0:0:0:
182,192,77272,128,0,77524:0:0:0:0:
329,192,77272,1,0,0:0:0:0:
256,192,77272,1,0,0:0:0:0:
329,192,77524,128,0,78029:0:0:0:0:
109,192,77524,1,0,0:0:0:0:
475,192,77524,1,0,0:0:0:0:
182,192,77777,128,0,78029:0:0:0:0:
256,192,77777,1,0,0:0:0:0:
36,192,77777,1,0,0:0:0:0:
109,192,78029,128,0,78533:0:0:0:0:
256,192,78029,1,0,0:0:0:0:
475,192,78029,1,0,0:0:0:0:
256,192,78281,128,0,78533:0:0:0:0:
329,192,78281,1,0,0:0:0:0:
182,192,78281,1,0,0:0:0:0:
36,192,78533,1,0,0:0:0:0:
475,192,78533,1,0,0:0:0:0:
109,192,78785,128,0,78911:0:0:0:0:
256,192,78785,128,0,78911:0:0:0:0:
36,192,78785,1,0,0:0:0:0:
329,192,78785,1,0,0:0:0:0:
182,192,79037,128,0,79163:0:0:0:0:
329,192,79037,128,0,79163:0:0:0:0:
109,192,79037,1,0,0:0:0:0:
402,192,79037,1,0,0:0:0:0:
256,192,79289,128,0,79415:0:0:0:0:
402,192,79289,128,0,79415:0:0:0:0:
182,192,79289,1,0,0:0:0:0:
475,192,79289,1,0,0:0:0:0:
36,192,79289,1,0,0:0:0:0:
329,192,79541,128,0,79667:0:0:0:0:
475,192,79541,128,0,79667:0:0:0:0:
256,192,79541,1,0,0:0:0:0:
109,192,79541,1,0,0:0:0:0:
36,192,79793,128,0,80802:0:0:0:0:
256,192,79793,128,0,79919:0:0:0:0:
182,192,79793,1,0,0:0:0:0:
402,192,79793,1,0,0:0:0:0:
475,192,79793,1,0,0:0:0:0:
329,192,80298,128,0,80802:0:0:0:0:
109,192,80676,1,0,0:0:0:0:
182,192,80739,1,0,0:0:0:0:
256,192,80802,1,0,0:0:0:0:
475,192,80802,128,0,82819:0:0:0:0:
182,192,81054,1,0,0:0:0:0:
329,192,81306,128,0,81810:0:0:0:0:
109,192,81306,1,0,0:0:0:0:
402,192,81306,1,0,0:0:0:0:
36,192,81558,1,0,0:0:0:0:
109,192,81810,1,0,0:0:0:0:
182,192,82062,1,0,0:0:0:0:
109,192,82314,1,0,0:0:0:0:
36,192,82566,1,0,0:0:0:0:
329,192,82566,1,0,0:0:0:0:
109,192,82819,1,0,0:0:0:0:
256,192,82819,1,0,0:0:0:0:
402,192,82819,1,0,0:0:0:0:
182,192,83071,1,0,0:0:0:0:
109,192,83323,1,0,0:0:0:0:
36,192,83575,1,0,0:0:0:0:
109,192,83827,1,0,0:0:0:0:
256,192,83827,1,0,0:0:0:0:
402,192,83827,1,0,0:0:0:0:
182,192,84079,1,0,0:0:0:0:
36,192,84079,1,0,0:0:0:0:
475,192,84079,1,0,0:0:0:0:
329,192,84079,1,0,0:0:0:0:
475,192,84331,1,0,0:0:0:0:
402,192,84331,1,0,0:0:0:0:
256,192,84331,1,0,0:0:0:0:
109,192,84331,1,0,0:0:0:0:
36,192,84331,1,0,0:0:0:0:
36,192,84583,1,0,0:0:0:0:
182,192,84583,1,0,0:0:0:0:
329,192,84583,1,0,0:0:0:0:
475,192,84583,1,0,0:0:0:0:
109,192,84835,128,0,85718:0:0:0:0:
402,192,84835,128,0,84961:0:0:0:0:
256,192,84835,1,0,0:0:0:0:
256,192,85087,128,0,85214:0:0:0:0:
475,192,85087,1,0,0:0:0:0:
475,192,85340,128,0,85466:0:0:0:0:
182,192,85340,1,0,0:0:0:0:
402,192,85340,1,0,0:0:0:0:
36,192,85340,1,0,0:0:0:0:
329,192,85592,128,0,85718:0:0:0:0:
256,192,85592,1,0,0:0:0:0:
109,192,85844,128,0,86726:0:0:0:0:
182,192,85844,128,0,85970:0:0:0:0:
475,192,85844,1,0,0:0:0:0:
329,192,85844,1,0,0:0:0:0:
475,192,86096,128,0,86222:0:0:0:0:
402,192,86096,1,0,0:0:0:0:
256,192,86348,128,0,86474:0:0:0:0:
329,192,86348,1,0,0:0:0:0:
182,192,86348,1,0,0:0:0:0:
36,192,86348,1,0,0:0:0:0:
402,192,86600,128,0,86726:0:0:0:0:
475,192,86600,1,0,0:0:0:0:
109,192,86852,128,0,87735:0:0:0:0:
182,192,86852,128,0,86978:0:0:0:0:
256,192,86852,1,0,0:0:0:0:
402,192,86852,1,0,0:0:0:0:
329,192,87104,128,0,87230:0:0:0:0:
475,192,87104,1,0,0:0:0:0:
475,192,87356,128,0,88869:0:0:0:0:
36,192,87356,128,0,87482:0:0:0:0:
402,192,87356,1,0,0:0:0:0:
256,192,87356,1,0,0:0:0:0:
182,192,87356,1,0,0:0:0:0:
182,192,87608,128,0,87735:0:0:0:0:
329,192,87608,1,0,0:0:0:0:
109,192,87861,128,0,88743:0:0:0:0:
329,192,87861,128,0,87987:0:0:0:0:
256,192,87861,1,0,0:0:0:0:
36,192,87861,1,0,0:0:0:0:
402,192,87861,1,0,0:0:0:0:
182,192,88113,128,0,88239:0:0:0:0:
329,192,88113,1,0,0:0:0:0:
402,192,88365,128,0,88491:0:0:0:0:
256,192,88365,1,0,0:0:0:0:
182,192,88365,1,0,0:0:0:0:
36,192,88365,1,0,0:0:0:0:
256,192,88617,128,0,88743:0:0:0:0:
329,192,88617,1,0,0:0:0:0:
329,192,88869,128,0,89751:0:0:0:0:
182,192,88869,128,0,88995:0:0:0:0:
36,192,88869,1,0,0:0:0:0:
402,192,88869,1,0,0:0:0:0:
36,192,89121,128,0,89247:0:0:0:0:
475,192,89121,1,0,0:0:0:0:
256,192,89373,128,0,89499:0:0:0:0:
109,192,89373,1,0,0:0:0:0:
182,192,89373,1,0,0:0:0:0:
402,192,89373,1,0,0:0:0:0:
109,192,89625,128,0,89751:0:0:0:0:
475,192,89625,1,0,0:0:0:0:
329,192,89877,128,0,90760:0:0:0:0:
402,192,89877,128,0,90003:0:0:0:0:
256,192,89877,1,0,0:0:0:0:
36,192,89877,1,0,0:0:0:0:
475,192,90130,128,0,90256:0:0:0:0:
109,192,90130,1,0,0:0:0:0:
402,192,90382,128,0,90508:0:0:0:0:
182,192,90382,1,0,0:0:0:0:
256,192,90382,1,0,0:0:0:0:
36,192,90382,1,0,0:0:0:0:
475,192,90634,128,0,90760:0:0:0:0:
109,192,90634,1,0,0:0:0:0:
329,192,90886,128,0,91768:0:0:0:0:
109,192,90886,128,0,91012:0:0:0:0:
256,192,90886,1,0,0:0:0:0:
402,192,90886,1,0,0:0:0:0:
256,192,91138,128,0,91264:0:0:0:0:
182,192,91138,1,0,0:0:0:0:
36,192,91390,128,0,91516:0:0:0:0:
109,192,91390,1,0,0:0:0:0:
256,192,91390,1,0,0:0:0:0:
475,192,91390,1,0,0:0:0:0:
182,192,91642,128,0,91768:0:0:0:0:
402,192,91642,1,0,0:0:0:0:
36,192,91642,1,0,0:0:0:0:
329,192,91894,128,0,92777:0:0:0:0:
36,192,91894,1,0,0:0:0:0:
182,192,91894,1,0,0:0:0:0:
402,192,91894,1,0,0:0:0:0:
256,192,91894,128,0,92272:0:0:0:0:
475,192,92146,128,0,92272:0:0:0:0:
109,192,92146,1,0,0:0:0:0:
36,192,92398,128,0,92524:0:0:0:0:
182,192,92398,1,0,0:0:0:0:
256,192,92398,1,0,0:0:0:0:
402,192,92398,1,0,0:0:0:0:
109,192,92651,128,0,92777:0:0:0:0:
475,192,92651,1,0,0:0:0:0:
182,192,92903,128,0,93785:0:0:0:0:
329,192,92903,1,0,0:0:0:0:
36,192,92903,1,0,0:0:0:0:
256,192,92903,1,0,0:0:0:0:
475,192,93155,128,0,94667:0:0:0:0:
329,192,93155,128,0,93281:0:0:0:0:
109,192,93155,1,0,0:0:0:0:
36,192,93407,128,0,93533:0:0:0:0:
256,192,93407,1,0,0:0:0:0:
402,192,93407,1,0,0:0:0:0:
329,192,93407,1,0,0:0:0:0:
402,192,93659,128,0,93785:0:0:0:0:
109,192,93659,1,0,0:0:0:0:
182,192,93911,128,0,94793:0:0:0:0:
109,192,93911,128,0,94037:0:0:0:0:
36,192,93911,1,0,0:0:0:0:
256,192,93911,1,0,0:0:0:0:
329,192,94163,128,0,94289:0:0:0:0:
402,192,94163,1,0,0:0:0:0:
36,192,94415,128,0,94541:0:0:0:0:
109,192,94415,1,0,0:0:0:0:
256,192,94415,1,0,0:0:0:0:
402,192,94415,1,0,0:0:0:0:
329,192,94667,128,0,96180:0:0:0:0:
402,192,94667,128,0,94793:0:0:0:0:
36,192,94667,1,0,0:0:0:0:
182,192,94919,128,0,95802:0:0:0:0:
109,192,94919,128,0,95045:0:0:0:0:
256,192,94919,1,0,0:0:0:0:
475,192,94919,1,0,0:0:0:0:
475,192,95172,128,0,95298:0:0:0:0:
109,192,95172,1,0,0:0:0:0:
36,192,95424,128,0,95550:0:0:0:0:
475,192,95424,1,0,0:0:0:0:
256,192,95424,1,0,0:0:0:0:
402,192,95424,1,0,0:0:0:0:
402,192,95676,128,0,95802:0:0:0:0:
109,192,95676,1,0,0:0:0:0:
182,192,95928,128,0,96810:0:0:0:0:
256,192,95928,128,0,96180:0:0:0:0:
36,192,95928,1,0,0:0:0:0:
475,192,95928,1,0,0:0:0:0:
109,192,96180,128,0,96306:0:0:0:0:
402,192,96180,1,0,0:0:0:0:
475,192,96432,128,0,96558:0:0:0:0:
329,192,96432,1,0,0:0:0:0:
36,192,96432,1,0,0:0:0:0:
256,192,96432,1,0,0:0:0:0:
329,192,96684,128,0,96810:0:0:0:0:
109,192,96684,1,0,0:0:0:0:
36,192,96936,128,0,97819:0:0:0:0:
182,192,96936,128,0,97062:0:0:0:0:
256,192,96936,1,0,0:0:0:0:
402,192,96936,1,0,0:0:0:0:
256,192,97188,128,0,97314:0:0:0:0:
475,192,97188,1,0,0:0:0:0:
329,192,97440,128,0,98701:0:0:0:0:
182,192,97440,128,0,97566:0:0:0:0:
402,192,97440,1,0,0:0:0:0:
109,192,97440,1,0,0:0:0:0:
256,192,97440,1,0,0:0:0:0:
109,192,97693,128,0,97819:0:0:0:0:
475,192,97693,1,0,0:0:0:0:
36,192,97945,128,0,98827:0:0:0:0:
182,192,97945,128,0,98071:0:0:0:0:
402,192,97945,1,0,0:0:0:0:
109,192,97945,1,0,0:0:0:0:
256,192,98197,128,0,98323:0:0:0:0:
475,192,98197,1,0,0:0:0:0:
182,192,98449,128,0,98575:0:0:0:0:
402,192,98449,1,0,0:0:0:0:
475,192,98449,1,0,0:0:0:0:
256,192,98449,1,0,0:0:0:0:
475,192,98701,128,0,99709:0:0:0:0:
109,192,98701,128,0,98827:0:0:0:0:
402,192,98701,1,0,0:0:0:0:
36,192,98953,128,0,99835:0:0:0:0:
182,192,98953,128,0,99079:0:0:0:0:
329,192,98953,1,0,0:0:0:0:
109,192,98953,1,0,0:0:0:0:
402,192,99205,128,0,99583:0:0:0:0:
329,192,99205,128,0,99331:0:0:0:0:
256,192,99205,1,0,0:0:0:0:
329,192,99457,128,0,99835:0:0:0:0:
256,192,99457,128,0,99583:0:0:0:0:
182,192,99457,1,0,0:0:0:0:
256,192,99709,128,0,100087:0:0:0:0:
182,192,99709,128,0,99835:0:0:0:0:
109,192,99709,1,0,0:0:0:0:
36,192,99961,128,0,100970:0:0:0:0:
182,192,99961,128,0,100087:0:0:0:0:
109,192,99961,128,0,100087:0:0:0:0:
475,192,99961,1,0,0:0:0:0:
475,192,100214,128,0,100592:0:0:0:0:
402,192,100214,128,0,100340:0:0:0:0:
329,192,100214,128,0,100340:0:0:0:0:
402,192,100466,128,0,100844:0:0:0:0:
329,192,100466,128,0,100592:0:0:0:0:
256,192,100466,128,0,100592:0:0:0:0:
329,192,100718,128,0,101096:0:0:0:0:
256,192,100718,128,0,100844:0:0:0:0:
182,192,100718,128,0,100844:0:0:0:0:
256,192,100970,128,0,101096:0:0:0:0:
182,192,100970,128,0,101096:0:0:0:0:
109,192,100970,128,0,101096:0:0:0:0:
475,192,100970,128,0,101222:0:0:0:0:
329,192,101222,128,0,101474:0:0:0:0:
36,192,101222,128,0,101348:0:0:0:0:
182,192,101222,1,0,0:0:0:0:
256,192,101222,1,0,0:0:0:0:
182,192,101474,128,0,101726:0:0:0:0:
475,192,101474,128,0,101600:0:0:0:0:
36,192,101474,1,0,0:0:0:0:
402,192,101474,1,0,0:0:0:0:
256,192,101726,128,0,101978:0:0:0:0:
36,192,101726,128,0,102104:0:0:0:0:
109,192,101726,1,0,0:0:0:0:
329,192,101726,1,0,0:0:0:0:
109,192,101978,128,0,102356:0:0:0:0:
329,192,101978,128,0,102230:0:0:0:0:
182,192,101978,1,0,0:0:0:0:
402,192,101978,1,0,0:0:0:0:
402,192,102230,128,0,102482:0:0:0:0:
182,192,102230,128,0,102608:0:0:0:0:
475,192,102230,1,0,0:0:0:0:
256,192,102230,1,0,0:0:0:0:
475,192,102482,128,0,102735:0:0:0:0:
256,192,102482,128,0,102861:0:0:0:0:
329,192,102482,1,0,0:0:0:0:
36,192,102482,1,0,0:0:0:0:
182,192,102735,128,0,103113:0:0:0:0:
402,192,102735,128,0,102987:0:0:0:0:
109,192,102735,1,0,0:0:0:0:
329,192,102735,1,0,0:0:0:0:
109,192,102987,128,0,103365:0:0:0:0:
329,192,102987,128,0,103239:0:0:0:0:
36,192,102987,1,0,0:0:0:0:
475,192,102987,1,0,0:0:0:0:
36,192,103239,128,0,103617:0:0:0:0:
256,192,103239,128,0,103491:0:0:0:0:
475,192,103239,1,0,0:0:0:0:
402,192,103239,1,0,0:0:0:0:
182,192,103491,128,0,103743:0:0:0:0:
475,192,103491,128,0,103869:0:0:0:0:
329,192,103491,1,0,0:0:0:0:
402,192,103491,1,0,0:0:0:0:
109,192,103743,128,0,103995:0:0:0:0:
402,192,103743,128,0,104121:0:0:0:0:
256,192,103743,1,0,0:0:0:0:
329,192,103743,1,0,0:0:0:0:
36,192,103995,128,0,104247:0:0:0:0:
329,192,103995,128,0,104373:0:0:0:0:
182,192,103995,1,0,0:0:0:0:
256,192,103995,1,0,0:0:0:0:
109,192,104247,128,0,104499:0:0:0:0:
475,192,104247,1,0,0:0:0:0:
182,192,104247,1,0,0:0:0:0:
256,192,104247,1,0,0:0:0:0:
182,192,104499,128,0,105256:0:0:0:0:
256,192,104499,1,0,0:0:0:0:
329,192,104499,1,0,0:0:0:0:
475,192,104499,1,0,0:0:0:0:
36,192,104499,1,0,0:0:0:0:
329,192,104751,128,0,105003:0:0:0:0:
402,192,104751,1,0,0:0:0:0:
256,192,104751,1,0,0:0:0:0:
109,192,104751,1,0,0:0:0:0:
475,192,105003,128,0,105256:0:0:0:0:
402,192,105003,1,0,0:0:0:0:
36,192,105003,1,0,0:0:0:0:
109,192,105003,1,0,0:0:0:0:
109,192,105256,128,0,105382:0:0:0:0:
329,192,105256,1,0,0:0:0:0:
36,192,105508,128,0,105760:0:0:0:0:
256,192,105508,128,0,105634:0:0:0:0:
402,192,105508,128,0,106012:0:0:0:0:
475,192,105508,1,0,0:0:0:0:
109,192,105508,1,0,0:0:0:0:
109,192,105760,128,0,106012:0:0:0:0:
182,192,105760,1,0,0:0:0:0:
475,192,105760,1,0,0:0:0:0:
329,192,105760,1,0,0:0:0:0:
475,192,106012,128,0,106516:0:0:0:0:
329,192,106012,128,0,106138:0:0:0:0:
182,192,106012,128,0,106264:0:0:0:0:
36,192,106012,1,0,0:0:0:0:
36,192,106264,128,0,106516:0:0:0:0:
329,192,106264,1,0,0:0:0:0:
109,192,106264,1,0,0:0:0:0:
256,192,106516,128,0,106768:0:0:0:0:
402,192,106516,1,0,0:0:0:0:
329,192,106516,1,0,0:0:0:0:
182,192,106516,1,0,0:0:0:0:
109,192,106516,1,0,0:0:0:0:
109,192,106768,128,0,107020:0:0:0:0:
475,192,106768,1,0,0:0:0:0:
36,192,106768,1,0,0:0:0:0:
329,192,107020,128,0,107272:0:0:0:0:
402,192,107020,128,0,108029:0:0:0:0:
182,192,107020,1,0,0:0:0:0:
36,192,107020,1,0,0:0:0:0:
182,192,107272,128,0,107524:0:0:0:0:
109,192,107272,1,0,0:0:0:0:
475,192,107272,1,0,0:0:0:0:
36,192,107524,128,0,108029:0:0:0:0:
329,192,107524,1,0,0:0:0:0:
256,192,107524,1,0,0:0:0:0:
109,192,107524,1,0,0:0:0:0:
475,192,107524,1,0,0:0:0:0:
256,192,107777,128,0,108029:0:0:0:0:
109,192,107777,1,0,0:0:0:0:
329,192,107777,1,0,0:0:0:0:
109,192,108029,128,0,108533:0:0:0:0:
475,192,108029,128,0,108281:0:0:0:0:
329,192,108029,1,0,0:0:0:0:
182,192,108029,1,0,0:0:0:0:
329,192,108281,128,0,108533:0:0:0:0:
402,192,108281,1,0,0:0:0:0:
36,192,108281,1,0,0:0:0:0:
256,192,108281,1,0,0:0:0:0:
475,192,108533,128,0,109037:0:0:0:0:
182,192,108533,128,0,108785:0:0:0:0:
402,192,108533,1,0,0:0:0:0:
256,192,108533,1,0,0:0:0:0:
36,192,108533,1,0,0:0:0:0:
36,192,108785,128,0,109037:0:0:0:0:
109,192,108785,1,0,0:0:0:0:
256,192,108785,1,0,0:0:0:0:
402,192,108785,1,0,0:0:0:0:
109,192,109037,128,0,109289:0:0:0:0:
256,192,109037,128,0,109541:0:0:0:0:
402,192,109037,1,0,0:0:0:0:
329,192,109037,1,0,0:0:0:0:
182,192,109037,1,0,0:0:0:0:
402,192,109289,128,0,109541:0:0:0:0:
475,192,109289,1,0,0:0:0:0:
36,192,109289,1,0,0:0:0:0:
36,192,109541,128,0,109793:0:0:0:0:
182,192,109541,128,0,110045:0:0:0:0:
329,192,109541,1,0,0:0:0:0:
109,192,109541,1,0,0:0:0:0:
475,192,109541,1,0,0:0:0:0:
329,192,109793,128,0,110045:0:0:0:0:
402,192,109793,1,0,0:0:0:0:
256,192,109793,1,0,0:0:0:0:
475,192,110045,128,0,110550:0:0:0:0:
109,192,110045,128,0,110298:0:0:0:0:
402,192,110045,1,0,0:0:0:0:
36,192,110045,1,0,0:0:0:0:
256,192,110298,128,0,110550:0:0:0:0:
182,192,110298,1,0,0:0:0:0:
329,192,110298,1,0,0:0:0:0:
36,192,110550,128,0,111054:0:0:0:0:
402,192,110550,1,0,0:0:0:0:
329,192,110550,1,0,0:0:0:0:
182,192,110550,1,0,0:0:0:0:
109,192,110550,1,0,0:0:0:0:
182,192,110802,128,0,111054:0:0:0:0:
329,192,110802,128,0,111054:0:0:0:0:
475,192,110802,1,0,0:0:0:0:
256,192,110802,1,0,0:0:0:0:
475,192,111054,128,0,111558:0:0:0:0:
109,192,111054,128,0,111306:0:0:0:0:
402,192,111054,1,0,0:0:0:0:
256,192,111054,1,0,0:0:0:0:
256,192,111306,128,0,111558:0:0:0:0:
329,192,111306,1,0,0:0:0:0:
36,192,111306,1,0,0:0:0:0:
402,192,111558,128,0,111810:0:0:0:0:
36,192,111558,128,0,112062:0:0:0:0:
109,192,111558,1,0,0:0:0:0:
329,192,111558,1,0,0:0:0:0:
182,192,111558,1,0,0:0:0:0:
182,192,111810,128,0,112062:0:0:0:0:
256,192,111810,1,0,0:0:0:0:
475,192,111810,1,0,0:0:0:0:
109,192,111810,1,0,0:0:0:0:
329,192,112062,128,0,112314:0:0:0:0:
475,192,112062,128,0,112566:0:0:0:0:
109,192,112062,1,0,0:0:0:0:
256,192,112062,1,0,0:0:0:0:
402,192,112062,1,0,0:0:0:0:
36,192,112314,128,0,112440:0:0:0:0:
182,192,112314,128,0,112440:0:0:0:0:
109,192,112314,1,0,0:0:0:0:
256,192,112314,1,0,0:0:0:0:
109,192,112566,128,0,112693:0:0:0:0:
256,192,112566,128,0,112693:0:0:0:0:
402,192,112566,128,0,113071:0:0:0:0:
182,192,112566,1,0,0:0:0:0:
329,192,112566,1,0,0:0:0:0:
36,192,112819,128,0,114961:0:0:0:0:
109,192,112819,1,0,0:0:0:0:
256,192,112819,1,0,0:0:0:0:
475,192,112819,1,0,0:0:0:0:
182,192,113071,128,0,113323:0:0:0:0:
329,192,113071,128,0,113323:0:0:0:0:
109,192,113071,1,0,0:0:0:0:
475,192,113071,1,0,0:0:0:0:
256,192,113323,128,0,113575:0:0:0:0:
402,192,113323,128,0,113575:0:0:0:0:
475,192,113323,1,0,0:0:0:0:
329,192,113575,128,0,113827:0:0:0:0:
475,192,113575,128,0,113827:0:0:0:0:
182,192,113575,1,0,0:0:0:0:
109,192,113575,1,0,0:0:0:0:
109,192,113827,128,0,114079:0:0:0:0:
256,192,113827,128,0,114079:0:0:0:0:
402,192,113827,1,0,0:0:0:0:
182,192,114079,128,0,114331:0:0:0:0:
329,192,114079,128,0,114331:0:0:0:0:
475,192,114079,1,0,0:0:0:0:
256,192,114331,128,0,114583:0:0:0:0:
402,192,114331,128,0,114583:0:0:0:0:
109,192,114331,1,0,0:0:0:0:
182,192,114583,128,0,114835:0:0:0:0:
329,192,114583,128,0,114835:0:0:0:0:
475,192,114583,1,0,0:0:0:0:
109,192,114583,1,0,0:0:0:0:
109,192,114835,128,0,115087:0:0:0:0:
256,192,114835,128,0,115087:0:0:0:0:
475,192,114835,1,0,0:0:0:0:
402,192,114961,1,0,0:0:0:0:
329,192,115087,1,0,0:0:0:0:
475,192,115087,1,0,0:0:0:0:
182,192,115087,1,0,0:0:0:0:
36,192,115087,128,0,115970:0:0:0:0:
402,192,115087,1,0,0:0:0:0:
256,192,115214,1,0,0:0:0:0:
402,192,115340,1,0,0:0:0:0:
182,192,115340,1,0,0:0:0:0:
475,192,115340,1,0,0:0:0:0:
256,192,115466,128,0,115592:0:0:0:0:
329,192,115466,128,0,115592:0:0:0:0:
475,192,115592,1,0,0:0:0:0:
109,192,115592,1,0,0:0:0:0:
182,192,115592,1,0,0:0:0:0:
402,192,115718,128,0,115844:0:0:0:0:
182,192,115718,128,0,115844:0:0:0:0:
256,192,115844,1,0,0:0:0:0:
329,192,115844,1,0,0:0:0:0:
109,192,115844,1,0,0:0:0:0:
475,192,115844,1,0,0:0:0:0:
475,192,115970,128,0,116096:0:0:0:0:
109,192,115970,128,0,116096:0:0:0:0:
256,192,116096,1,0,0:0:0:0:
36,192,116096,1,0,0:0:0:0:
329,192,116096,128,0,116600:0:0:0:0:
402,192,116096,1,0,0:0:0:0:
182,192,116096,1,0,0:0:0:0:
182,192,116222,1,0,0:0:0:0:
256,192,116348,1,0,0:0:0:0:
36,192,116348,1,0,0:0:0:0:
109,192,116348,1,0,0:0:0:0:
402,192,116474,1,0,0:0:0:0:
475,192,116474,1,0,0:0:0:0:
182,192,116474,1,0,0:0:0:0:
256,192,116600,1,0,0:0:0:0:
109,192,116600,128,0,116726:0:0:0:0:
36,192,116600,128,0,116726:0:0:0:0:
475,192,116726,128,0,116852:0:0:0:0:
402,192,116726,128,0,116852:0:0:0:0:
329,192,116726,1,0,0:0:0:0:
256,192,116852,1,0,0:0:0:0:
109,192,116852,1,0,0:0:0:0:
36,192,116852,1,0,0:0:0:0:
329,192,116978,1,0,0:0:0:0:
475,192,116978,1,0,0:0:0:0:
182,192,116978,1,0,0:0:0:0:
36,192,117104,128,0,119121:0:0:0:0:
256,192,117104,1,0,0:0:0:0:
109,192,117104,1,0,0:0:0:0:
402,192,117104,1,0,0:0:0:0:
475,192,117104,1,0,0:0:0:0:
329,192,117230,1,0,0:0:0:0:
256,192,117356,128,0,117608:0:0:0:0:
402,192,117356,1,0,0:0:0:0:
182,192,117356,1,0,0:0:0:0:
475,192,117482,1,0,0:0:0:0:
402,192,117608,128,0,117861:0:0:0:0:
109,192,117608,1,0,0:0:0:0:
329,192,117608,1,0,0:0:0:0:
182,192,117608,1,0,0:0:0:0:
256,192,117735,1,0,0:0:0:0:
182,192,117861,1,0,0:0:0:0:
475,192,117861,1,0,0:0:0:0:
256,192,117987,1,0,0:0:0:0:
109,192,118113,128,0,118617:0:0:0:0:
329,192,118113,128,0,118239:0:0:0:0:
402,192,118113,1,0,0:0:0:0:
182,192,118113,1,0,0:0:0:0:
256,192,118239,1,0,0:0:0:0:
329,192,118365,1,0,0:0:0:0:
182,192,118365,1,0,0:0:0:0:
475,192,118365,128,0,118491:0:0:0:0:
402,192,118491,1,0,0:0:0:0:
329,192,118617,128,0,119121:0:0:0:0:
256,192,118617,128,0,118743:0:0:0:0:
475,192,118617,1,0,0:0:0:0:
182,192,118617,1,0,0:0:0:0:
402,192,118743,1,0,0:0:0:0:
109,192,118869,128,0,118995:0:0:0:0:
256,192,118869,1,0,0:0:0:0:
475,192,118869,1,0,0:0:0:0:
182,192,118995,1,0,0:0:0:0:
109,192,119121,1,0,0:0:0:0:
475,192,119121,128,0,121138:0:0:0:0:
402,192,119121,128,0,119247:0:0:0:0:
256,192,119121,128,0,119247:0:0:0:0:
182,192,119121,1,0,0:0:0:0:
36,192,119247,1,0,0:0:0:0:
329,192,119373,128,0,119499:0:0:0:0:
182,192,119373,128,0,119499:0:0:0:0:
109,192,119373,1,0,0:0:0:0:
256,192,119373,1,0,0:0:0:0:
402,192,119499,1,0,0:0:0:0:
109,192,119625,128,0,119751:0:0:0:0:
256,192,119625,128,0,119751:0:0:0:0:
329,192,119625,1,0,0:0:0:0:
36,192,119625,1,0,0:0:0:0:
402,192,119751,1,0,0:0:0:0:
36,192,119877,128,0,120003:0:0:0:0:
182,192,119877,128,0,120003:0:0:0:0:
109,192,119877,1,0,0:0:0:0:
329,192,119877,1,0,0:0:0:0:
256,192,120003,1,0,0:0:0:0:
402,192,120130,128,0,120382:0:0:0:0:
329,192,120130,128,0,120256:0:0:0:0:
109,192,120130,128,0,120256:0:0:0:0:
182,192,120130,1,0,0:0:0:0:
36,192,120130,1,0,0:0:0:0:
256,192,120256,1,0,0:0:0:0:
256,192,120382,128,0,120634:0:0:0:0:
182,192,120382,128,0,120508:0:0:0:0:
36,192,120382,128,0,120508:0:0:0:0:
109,192,120382,1,0,0:0:0:0:
329,192,120382,1,0,0:0:0:0:
402,192,120508,1,0,0:0:0:0:
109,192,120634,128,0,120886:0:0:0:0:
402,192,120634,128,0,120760:0:0:0:0:
182,192,120634,128,0,120760:0:0:0:0:
329,192,120634,1,0,0:0:0:0:
36,192,120634,1,0,0:0:0:0:
256,192,120760,1,0,0:0:0:0:
329,192,120886,128,0,121138:0:0:0:0:
182,192,120886,1,0,0:0:0:0:
402,192,120886,1,0,0:0:0:0:
109,192,121012,1,0,0:0:0:0:
182,192,121138,128,0,123155:0:0:0:0:
36,192,121138,128,0,121516:0:0:0:0:
256,192,121138,1,0,0:0:0:0:
402,192,121138,1,0,0:0:0:0:
109,192,121138,1,0,0:0:0:0:
475,192,121264,1,0,0:0:0:0:
329,192,121390,128,0,121516:0:0:0:0:
402,192,121390,1,0,0:0:0:0:
109,192,121390,1,0,0:0:0:0:
475,192,121516,1,0,0:0:0:0:
109,192,121642,128,0,122020:0:0:0:0:
475,192,121642,128,0,121768:0:0:0:0:
36,192,121642,1,0,0:0:0:0:
256,192,121642,1,0,0:0:0:0:
402,192,121642,1,0,0:0:0:0:
329,192,121768,1,0,0:0:0:0:
256,192,121894,128,0,122020:0:0:0:0:
402,192,121894,1,0,0:0:0:0:
36,192,121894,1,0,0:0:0:0:
329,192,122020,1,0,0:0:0:0:
36,192,122146,128,0,122524:0:0:0:0:
402,192,122146,128,0,122272:0:0:0:0:
475,192,122146,1,0,0:0:0:0:
256,192,122146,1,0,0:0:0:0:
109,192,122146,1,0,0:0:0:0:
329,192,122272,1,0,0:0:0:0:
256,192,122398,128,0,122524:0:0:0:0:
402,192,122398,1,0,0:0:0:0:
109,192,122398,1,0,0:0:0:0:
329,192,122524,1,0,0:0:0:0:
109,192,122651,128,0,123029:0:0:0:0:
475,192,122651,128,0,122777:0:0:0:0:
402,192,122651,1,0,0:0:0:0:
256,192,122651,1,0,0:0:0:0:
36,192,122651,1,0,0:0:0:0:
329,192,122777,1,0,0:0:0:0:
329,192,122903,128,0,123029:0:0:0:0:
402,192,122903,1,0,0:0:0:0:
36,192,122903,1,0,0:0:0:0:
475,192,123029,1,0,0:0:0:0:
402,192,123155,128,0,123281:0:0:0:0:
329,192,123155,1,0,0:0:0:0:
475,192,123155,128,0,125108:0:0:0:0:
36,192,123155,128,0,123281:0:0:0:0:
109,192,123155,128,0,123281:0:0:0:0:
256,192,123155,1,0,0:0:0:0:
182,192,123281,1,0,0:0:0:0:
182,192,123407,128,0,123533:0:0:0:0:
109,192,123407,128,0,123533:0:0:0:0:
256,192,123407,1,0,0:0:0:0:
36,192,123407,1,0,0:0:0:0:
329,192,123533,1,0,0:0:0:0:
182,192,123659,128,0,123785:0:0:0:0:
256,192,123659,128,0,123785:0:0:0:0:
402,192,123659,1,0,0:0:0:0:
36,192,123659,1,0,0:0:0:0:
109,192,123785,1,0,0:0:0:0:
256,192,123911,128,0,124037:0:0:0:0:
329,192,123911,128,0,124037:0:0:0:0:
36,192,123911,128,0,124100:0:0:0:0:
182,192,123911,1,0,0:0:0:0:
402,192,123911,1,0,0:0:0:0:
109,192,124037,1,0,0:0:0:0:
256,192,124163,128,0,124289:0:0:0:0:
182,192,124163,128,0,124289:0:0:0:0:
402,192,124163,128,0,124352:0:0:0:0:
329,192,124163,1,0,0:0:0:0:
36,192,124163,1,0,0:0:0:0:
109,192,124289,1,0,0:0:0:0:
182,192,124415,128,0,124541:0:0:0:0:
109,192,124415,128,0,124541:0:0:0:0:
329,192,124415,128,0,124604:0:0:0:0:
256,192,124415,1,0,0:0:0:0:
36,192,124415,1,0,0:0:0:0:
402,192,124541,1,0,0:0:0:0:
109,192,124667,128,0,124793:0:0:0:0:
36,192,124667,128,0,124793:0:0:0:0:
256,192,124667,128,0,124856:0:0:0:0:
182,192,124667,1,0,0:0:0:0:
329,192,124667,1,0,0:0:0:0:
402,192,124793,1,0,0:0:0:0:
182,192,124919,128,0,125172:0:0:0:0:
329,192,124919,1,0,0:0:0:0:
36,192,124919,1,0,0:0:0:0:
109,192,125045,128,0,125172:0:0:0:0:
329,192,125172,128,0,126180:0:0:0:0:
256,192,125172,1,0,0:0:0:0:
36,192,125172,1,0,0:0:0:0:
475,192,125172,1,0,0:0:0:0:
402,192,125172,128,0,125298:0:0:0:0:
109,192,125298,1,0,0:0:0:0:
256,192,125424,1,0,0:0:0:0:
475,192,125424,128,0,125550:0:0:0:0:
36,192,125424,1,0,0:0:0:0:
182,192,125550,1,0,0:0:0:0:
36,192,125676,128,0,125928:0:0:0:0:
109,192,125676,1,0,0:0:0:0:
256,192,125676,1,0,0:0:0:0:
402,192,125676,128,0,125802:0:0:0:0:
182,192,125802,1,0,0:0:0:0:
475,192,125928,128,0,126180:0:0:0:0:
402,192,125928,1,0,0:0:0:0:
109,192,125928,1,0,0:0:0:0:
182,192,126054,1,0,0:0:0:0:
182,192,126180,128,0,127188:0:0:0:0:
109,192,126180,128,0,126432:0:0:0:0:
256,192,126180,1,0,0:0:0:0:
402,192,126180,1,0,0:0:0:0:
36,192,126180,1,0,0:0:0:0:
475,192,126306,1,0,0:0:0:0:
329,192,126432,128,0,126558:0:0:0:0:
402,192,126432,1,0,0:0:0:0:
36,192,126432,1,0,0:0:0:0:
256,192,126558,1,0,0:0:0:0:
402,192,126684,128,0,126936:0:0:0:0:
36,192,126684,128,0,126810:0:0:0:0:
329,192,126684,1,0,0:0:0:0:
109,192,126684,1,0,0:0:0:0:
475,192,126684,1,0,0:0:0:0:
256,192,126810,1,0,0:0:0:0:
475,192,126936,128,0,127062:0:0:0:0:
329,192,126936,1,0,0:0:0:0:
36,192,126936,1,0,0:0:0:0:
109,192,127062,1,0,0:0:0:0:
36,192,127188,128,0,128134:0:0:0:0:
256,192,127188,128,0,127440:0:0:0:0:
329,192,127188,128,0,127314:0:0:0:0:
475,192,127188,1,0,0:0:0:0:
402,192,127188,1,0,0:0:0:0:
182,192,127314,1,0,0:0:0:0:
329,192,127440,1,0,0:0:0:0:
109,192,127440,1,0,0:0:0:0:
256,192,127566,1,0,0:0:0:0:
182,192,127693,128,0,127945:0:0:0:0:
475,192,127693,128,0,127819:0:0:0:0:
402,192,127693,1,0,0:0:0:0:
109,192,127693,1,0,0:0:0:0:
329,192,127693,1,0,0:0:0:0:
329,192,127819,128,0,127945:0:0:0:0:
256,192,127819,1,0,0:0:0:0:
475,192,127945,128,0,128197:0:0:0:0:
109,192,127945,1,0,0:0:0:0:
402,192,127945,1,0,0:0:0:0:
402,192,128071,128,0,128197:0:0:0:0:
182,192,128071,1,0,0:0:0:0:
109,192,128197,128,0,128449:0:0:0:0:
256,192,128197,128,0,128323:0:0:0:0:
329,192,128197,1,0,0:0:0:0:
36,192,128197,1,0,0:0:0:0:
475,192,128323,128,0,128449:0:0:0:0:
402,192,128323,1,0,0:0:0:0:
329,192,128449,128,0,128701:0:0:0:0:
182,192,128449,128,0,128575:0:0:0:0:
256,192,128449,1,0,0:0:0:0:
36,192,128449,1,0,0:0:0:0:
402,192,128575,128,0,128701:0:0:0:0:
109,192,128575,1,0,0:0:0:0:
36,192,128701,128,0,128953:0:0:0:0:
182,192,128701,1,0,0:0:0:0:
475,192,128701,1,0,0:0:0:0:
256,192,128701,1,0,0:0:0:0:
182,192,128827,128,0,128953:0:0:0:0:
329,192,128827,1,0,0:0:0:0:
109,192,128953,128,0,129205:0:0:0:0:
402,192,128953,128,0,129079:0:0:0:0:
256,192,128953,1,0,0:0:0:0:
475,192,128953,1,0,0:0:0:0:
256,192,129079,128,0,129205:0:0:0:0:
329,192,129079,1,0,0:0:0:0:
475,192,129205,128,0,129331:0:0:0:0:
36,192,129205,128,0,129457:0:0:0:0:
182,192,129205,1,0,0:0:0:0:
402,192,129205,1,0,0:0:0:0:
329,192,129331,1,0,0:0:0:0:
402,192,129457,128,0,129583:0:0:0:0:
109,192,129457,128,0,129709:0:0:0:0:
256,192,129457,1,0,0:0:0:0:
475,192,129583,1,0,0:0:0:0:
329,192,129709,128,0,129835:0:0:0:0:
36,192,129709,128,0,129961:0:0:0:0:
182,192,129709,1,0,0:0:0:0:
256,192,129709,1,0,0:0:0:0:
402,192,129709,1,0,0:0:0:0:
475,192,129835,1,0,0:0:0:0:
256,192,129961,128,0,130087:0:0:0:0:
109,192,129961,128,0,130214:0:0:0:0:
402,192,129961,1,0,0:0:0:0:
182,192,129961,1,0,0:0:0:0:
329,192,130087,1,0,0:0:0:0:
182,192,130214,128,0,130340:0:0:0:0:
475,192,130214,128,0,130466:0:0:0:0:
256,192,130214,1,0,0:0:0:0:
36,192,130214,1,0,0:0:0:0:
402,192,130214,1,0,0:0:0:0:
329,192,130340,1,0,0:0:0:0:
109,192,130466,128,0,130592:0:0:0:0:
402,192,130466,128,0,130718:0:0:0:0:
256,192,130466,1,0,0:0:0:0:
36,192,130466,1,0,0:0:0:0:
182,192,130592,1,0,0:0:0:0:
36,192,130718,128,0,130844:0:0:0:0:
475,192,130718,128,0,130970:0:0:0:0:
109,192,130718,1,0,0:0:0:0:
329,192,130718,1,0,0:0:0:0:
256,192,130718,1,0,0:0:0:0:
182,192,130844,1,0,0:0:0:0:
109,192,130970,128,0,131096:0:0:0:0:
402,192,130970,128,0,131222:0:0:0:0:
256,192,130970,1,0,0:0:0:0:
36,192,130970,1,0,0:0:0:0:
329,192,131096,1,0,0:0:0:0:
36,192,131222,128,0,131600:0:0:0:0:
475,192,131222,1,0,0:0:0:0:
109,192,131222,1,0,0:0:0:0:
182,192,131222,128,0,131348:0:0:0:0:
256,192,131222,128,0,131348:0:0:0:0:
402,192,131348,1,0,0:0:0:0:
256,192,131474,128,0,131600:0:0:0:0:
329,192,131474,128,0,131600:0:0:0:0:
109,192,131474,1,0,0:0:0:0:
475,192,131474,1,0,0:0:0:0:
182,192,131600,1,0,0:0:0:0:
109,192,131726,128,0,132104:0:0:0:0:
36,192,131726,128,0,132608:0:0:0:0:
329,192,131726,128,0,132230:0:0:0:0:
402,192,131726,128,0,131852:0:0:0:0:
256,192,131726,1,0,0:0:0:0:
475,192,131726,1,0,0:0:0:0:
182,192,131978,1,0,0:0:0:0:
402,192,131978,1,0,0:0:0:0:
182,192,132230,128,0,132608:0:0:0:0:
109,192,132230,128,0,133113:0:0:0:0:
402,192,132230,128,0,132735:0:0:0:0:
475,192,132230,128,0,132356:0:0:0:0:
256,192,132230,1,0,0:0:0:0:
256,192,132482,1,0,0:0:0:0:
329,192,132482,1,0,0:0:0:0:
182,192,132735,128,0,133113:0:0:0:0:
475,192,132735,128,0,133239:0:0:0:0:
256,192,132735,128,0,132861:0:0:0:0:
329,192,132735,1,0,0:0:0:0:
36,192,132735,128,0,133113:0:0:0:0:
256,192,132987,1,0,0:0:0:0:
402,192,132987,1,0,0:0:0:0:
329,192,133113,1,0,0:0:0:0:
36,192,133239,128,0,135256:0:0:0:0:
182,192,133239,128,0,133491:0:0:0:0:
109,192,133239,1,0,0:0:0:0:
256,192,133239,1,0,0:0:0:0:
402,192,133239,1,0,0:0:0:0:
329,192,133365,1,0,0:0:0:0:
402,192,133491,128,0,133743:0:0:0:0:
109,192,133491,1,0,0:0:0:0:
475,192,133491,1,0,0:0:0:0:
329,192,133617,1,0,0:0:0:0:
475,192,133743,128,0,133995:0:0:0:0:
256,192,133743,1,0,0:0:0:0:
109,192,133743,1,0,0:0:0:0:
182,192,133743,1,0,0:0:0:0:
329,192,133869,1,0,0:0:0:0:
256,192,133995,1,0,0:0:0:0:
402,192,133995,1,0,0:0:0:0:
182,192,134121,1,0,0:0:0:0:
402,192,134247,128,0,134373:0:0:0:0:
109,192,134247,1,0,0:0:0:0:
329,192,134247,1,0,0:0:0:0:
475,192,134247,1,0,0:0:0:0:
182,192,134373,1,0,0:0:0:0:
256,192,134499,128,0,134625:0:0:0:0:
402,192,134499,1,0,0:0:0:0:
109,192,134499,1,0,0:0:0:0:
182,192,134625,1,0,0:0:0:0:
109,192,134751,128,0,134877:0:0:0:0:
256,192,134751,1,0,0:0:0:0:
475,192,134751,1,0,0:0:0:0:
329,192,134751,1,0,0:0:0:0:
182,192,134877,1,0,0:0:0:0:
329,192,135003,128,0,135382:0:0:0:0:
475,192,135003,128,0,135130:0:0:0:0:
256,192,135003,1,0,0:0:0:0:
109,192,135003,1,0,0:0:0:0:
182,192,135130,1,0,0:0:0:0:
475,192,135256,1,0,0:0:0:0:
109,192,135256,1,0,0:0:0:0:
256,192,135256,128,0,135634:0:0:0:0:
402,192,135256,128,0,135382:0:0:0:0:
36,192,135382,1,0,0:0:0:0:
475,192,135508,1,0,0:0:0:0:
182,192,135508,128,0,135886:0:0:0:0:
329,192,135508,128,0,135634:0:0:0:0:
109,192,135508,1,0,0:0:0:0:
402,192,135634,1,0,0:0:0:0:
36,192,135760,1,0,0:0:0:0:
475,192,135760,1,0,0:0:0:0:
109,192,135760,128,0,136138:0:0:0:0:
256,192,135760,128,0,135886:0:0:0:0:
402,192,135760,128,0,136012:0:0:0:0:
329,192,135886,1,0,0:0:0:0:
256,192,136012,1,0,0:0:0:0:
36,192,136012,128,0,136138:0:0:0:0:
182,192,136012,128,0,136138:0:0:0:0:
475,192,136012,128,0,136264:0:0:0:0:
402,192,136138,1,0,0:0:0:0:
109,192,136264,1,0,0:0:0:0:
182,192,136264,128,0,136390:0:0:0:0:
256,192,136264,128,0,136390:0:0:0:0:
329,192,136264,1,0,0:0:0:0:
36,192,136264,128,0,136516:0:0:0:0:
475,192,136390,1,0,0:0:0:0:
256,192,136516,128,0,136642:0:0:0:0:
329,192,136516,128,0,136642:0:0:0:0:
182,192,136516,1,0,0:0:0:0:
402,192,136516,1,0,0:0:0:0:
109,192,136516,128,0,136768:0:0:0:0:
475,192,136642,1,0,0:0:0:0:
329,192,136768,128,0,136894:0:0:0:0:
402,192,136768,128,0,136894:0:0:0:0:
256,192,136768,1,0,0:0:0:0:
36,192,136768,1,0,0:0:0:0:
182,192,136768,128,0,137020:0:0:0:0:
475,192,136894,1,0,0:0:0:0:
256,192,137020,128,0,137777:0:0:0:0:
402,192,137020,1,0,0:0:0:0:
109,192,137020,1,0,0:0:0:0:
329,192,137146,1,0,0:0:0:0:
182,192,137272,1,0,0:0:0:0:
475,192,137272,1,0,0:0:0:0:
402,192,137272,1,0,0:0:0:0:
36,192,137272,1,0,0:0:0:0:
109,192,137272,128,0,137903:0:0:0:0:
329,192,137398,1,0,0:0:0:0:
182,192,137524,128,0,137651:0:0:0:0:
36,192,137524,128,0,137651:0:0:0:0:
475,192,137524,1,0,0:0:0:0:
402,192,137651,1,0,0:0:0:0:
402,192,137777,128,0,138281:0:0:0:0:
329,192,137777,1,0,0:0:0:0:
475,192,137777,1,0,0:0:0:0:
182,192,137777,128,0,137903:0:0:0:0:
36,192,137777,128,0,137903:0:0:0:0:
256,192,137903,1,0,0:0:0:0:
109,192,138029,128,0,138155:0:0:0:0:
329,192,138029,128,0,138155:0:0:0:0:
182,192,138029,1,0,0:0:0:0:
475,192,138155,1,0,0:0:0:0:
36,192,138281,128,0,138659:0:0:0:0:
109,192,138281,128,0,138407:0:0:0:0:
256,192,138281,128,0,138659:0:0:0:0:
329,192,138281,1,0,0:0:0:0:
402,192,138407,1,0,0:0:0:0:
109,192,138533,128,0,139289:0:0:0:0:
182,192,138533,128,0,138659:0:0:0:0:
329,192,138533,128,0,138911:0:0:0:0:
475,192,138533,1,0,0:0:0:0:
402,192,138659,1,0,0:0:0:0:
182,192,138785,128,0,138911:0:0:0:0:
256,192,138785,128,0,138911:0:0:0:0:
402,192,138785,128,0,138911:0:0:0:0:
475,192,138785,1,0,0:0:0:0:
36,192,138785,128,0,138911:0:0:0:0:
329,192,139037,1,0,0:0:0:0:
475,192,139037,1,0,0:0:0:0:
256,192,139037,128,0,139289:0:0:0:0:
182,192,139163,1,0,0:0:0:0:
329,192,139289,1,0,0:0:0:0:
182,192,139289,1,0,0:0:0:0:
36,192,139289,1,0,0:0:0:0:
475,192,139289,128,0,140424:0:0:0:0:
402,192,139289,128,0,139541:0:0:0:0:
109,192,139415,1,0,0:0:0:0:
256,192,139541,128,0,139667:0:0:0:0:
182,192,139541,128,0,139667:0:0:0:0:
329,192,139541,1,0,0:0:0:0:
36,192,139541,1,0,0:0:0:0:
109,192,139667,1,0,0:0:0:0:
329,192,139793,128,0,140424:0:0:0:0:
182,192,139793,128,0,139919:0:0:0:0:
109,192,139793,128,0,139919:0:0:0:0:
402,192,139793,1,0,0:0:0:0:
36,192,139793,1,0,0:0:0:0:
256,192,139919,1,0,0:0:0:0:
36,192,140045,128,0,140172:0:0:0:0:
109,192,140045,128,0,140172:0:0:0:0:
182,192,140045,1,0,0:0:0:0:
402,192,140045,1,0,0:0:0:0:
256,192,140172,1,0,0:0:0:0:
36,192,140298,128,0,140676:0:0:0:0:
109,192,140298,128,0,140550:0:0:0:0:
182,192,140298,1,0,0:0:0:0:
402,192,140298,1,0,0:0:0:0:
256,192,140424,1,0,0:0:0:0:
182,192,140550,1,0,0:0:0:0:
475,192,140550,128,0,140676:0:0:0:0:
402,192,140550,1,0,0:0:0:0:
329,192,140550,128,0,141180:0:0:0:0:
109,192,140676,1,0,0:0:0:0:
402,192,140802,128,0,141180:0:0:0:0:
475,192,140802,128,0,141180:0:0:0:0:
182,192,140802,1,0,0:0:0:0:
36,192,140802,1,0,0:0:0:0:
256,192,140802,1,0,0:0:0:0:
109,192,140928,1,0,0:0:0:0:
256,192,141054,1,0,0:0:0:0:
36,192,141054,1,0,0:0:0:0:
182,192,141054,1,0,0:0:0:0:
109,192,141180,1,0,0:0:0:0:
36,192,141306,128,0,145214:0:0:0:0:
329,192,141306,1,0,0:0:0:0:
402,192,141306,1,0,0:0:0:0:
182,192,141306,1,0,0:0:0:0:
475,192,141306,128,0,141432:0:0:0:0:
256,192,141432,1,0,0:0:0:0:
402,192,141558,128,0,141684:0:0:0:0:
109,192,141558,1,0,0:0:0:0:
329,192,141558,1,0,0:0:0:0:
182,192,141684,1,0,0:0:0:0:
329,192,141810,128,0,141999:0:0:0:0:
256,192,141810,1,0,0:0:0:0:
109,192,141810,1,0,0:0:0:0:
402,192,141810,1,0,0:0:0:0:
475,192,141936,1,0,0:0:0:0:
402,192,142062,128,0,142188:0:0:0:0:
182,192,142062,128,0,142251:0:0:0:0:
256,192,142062,1,0,0:0:0:0:
109,192,142062,1,0,0:0:0:0:
329,192,142188,1,0,0:0:0:0:
256,192,142314,128,0,142440:0:0:0:0:
475,192,142314,128,0,143197:0:0:0:0:
402,192,142314,1,0,0:0:0:0:
109,192,142314,1,0,0:0:0:0:
182,192,142314,1,0,0:0:0:0:
329,192,142440,1,0,0:0:0:0:
109,192,142566,128,0,142693:0:0:0:0:
256,192,142566,1,0,0:0:0:0:
402,192,142566,1,0,0:0:0:0:
182,192,142693,1,0,0:0:0:0:
256,192,142819,128,0,143197:0:0:0:0:
109,192,142819,1,0,0:0:0:0:
329,192,142819,1,0,0:0:0:0:
402,192,142819,1,0,0:0:0:0:
182,192,142945,1,0,0:0:0:0:
109,192,143071,1,0,0:0:0:0:
402,192,143071,1,0,0:0:0:0:
329,192,143197,1,0,0:0:0:0:
109,192,143323,128,0,143449:0:0:0:0:
182,192,143323,128,0,143449:0:0:0:0:
256,192,143323,1,0,0:0:0:0:
402,192,143323,1,0,0:0:0:0:
475,192,143449,1,0,0:0:0:0:
182,192,143575,128,0,143701:0:0:0:0:
256,192,143575,128,0,143701:0:0:0:0:
109,192,143575,1,0,0:0:0:0:
402,192,143575,1,0,0:0:0:0:
475,192,143701,1,0,0:0:0:0:
256,192,143827,128,0,143953:0:0:0:0:
329,192,143827,128,0,143953:0:0:0:0:
109,192,143827,1,0,0:0:0:0:
402,192,143827,1,0,0:0:0:0:
182,192,143953,1,0,0:0:0:0:
109,192,144079,128,0,144331:0:0:0:0:
329,192,144079,128,0,144205:0:0:0:0:
402,192,144079,128,0,144205:0:0:0:0:
256,192,144079,1,0,0:0:0:0:
475,192,144079,1,0,0:0:0:0:
182,192,144205,1,0,0:0:0:0:
182,192,144331,128,0,144583:0:0:0:0:
402,192,144331,128,0,144457:0:0:0:0:
475,192,144331,128,0,144457:0:0:0:0:
329,192,144331,1,0,0:0:0:0:
256,192,144457,1,0,0:0:0:0:
475,192,144583,128,0,144835:0:0:0:0:
402,192,144583,128,0,144709:0:0:0:0:
329,192,144583,128,0,144709:0:0:0:0:
109,192,144583,1,0,0:0:0:0:
182,192,144709,1,0,0:0:0:0:
109,192,144835,128,0,145087:0:0:0:0:
256,192,144835,128,0,145214:0:0:0:0:
329,192,144835,128,0,144961:0:0:0:0:
402,192,144835,1,0,0:0:0:0:
475,192,144961,1,0,0:0:0:0:
402,192,145087,128,0,145214:0:0:0:0:
182,192,145087,1,0,0:0:0:0:
329,192,145087,1,0,0:0:0:0:
475,192,145214,1,0,0:0:0:0:
109,192,145340,128,0,145592:0:0:0:0:
256,192,145340,1,0,0:0:0:0:
182,192,145340,1,0,0:0:0:0:
36,192,145340,128,0,146222:0:0:0:0:
402,192,145340,1,0,0:0:0:0:
329,192,145466,1,0,0:0:0:0:
256,192,145592,128,0,145844:0:0:0:0:
475,192,145592,1,0,0:0:0:0:
182,192,145592,1,0,0:0:0:0:
402,192,145844,128,0,146096:0:0:0:0:
329,192,145844,1,0,0:0:0:0:
109,192,145844,1,0,0:0:0:0:
475,192,145844,1,0,0:0:0:0:
256,192,145970,1,0,0:0:0:0:
182,192,146096,128,0,146222:0:0:0:0:
329,192,146096,1,0,0:0:0:0:
109,192,146096,1,0,0:0:0:0:
256,192,146222,1,0,0:0:0:0:
329,192,146348,128,0,146600:0:0:0:0:
475,192,146348,128,0,147356:0:0:0:0:
402,192,146348,1,0,0:0:0:0:
36,192,146348,1,0,0:0:0:0:
182,192,146348,1,0,0:0:0:0:
256,192,146474,1,0,0:0:0:0:
109,192,146600,128,0,146852:0:0:0:0:
182,192,146600,1,0,0:0:0:0:
402,192,146600,1,0,0:0:0:0:
329,192,146726,1,0,0:0:0:0:
256,192,146852,128,0,147104:0:0:0:0:
182,192,146852,1,0,0:0:0:0:
36,192,146852,1,0,0:0:0:0:
402,192,146852,1,0,0:0:0:0:
109,192,146978,1,0,0:0:0:0:
36,192,147104,128,0,147356:0:0:0:0:
182,192,147104,1,0,0:0:0:0:
329,192,147104,1,0,0:0:0:0:
402,192,147230,1,0,0:0:0:0:
109,192,147356,128,0,147861:0:0:0:0:
182,192,147356,128,0,147482:0:0:0:0:
329,192,147356,128,0,147608:0:0:0:0:
256,192,147356,1,0,0:0:0:0:
402,192,147356,1,0,0:0:0:0:
36,192,147482,1,0,0:0:0:0:
475,192,147608,128,0,147735:0:0:0:0:
256,192,147608,128,0,147861:0:0:0:0:
182,192,147608,1,0,0:0:0:0:
402,192,147608,1,0,0:0:0:0:
329,192,147735,1,0,0:0:0:0:
182,192,147861,128,0,148365:0:0:0:0:
402,192,147861,128,0,148365:0:0:0:0:
36,192,147861,1,0,0:0:0:0:
475,192,147861,1,0,0:0:0:0:
329,192,147987,1,0,0:0:0:0:
109,192,147987,1,0,0:0:0:0:
256,192,148113,1,0,0:0:0:0:
36,192,148113,1,0,0:0:0:0:
475,192,148239,1,0,0:0:0:0:
256,192,148365,128,0,149247:0:0:0:0:
36,192,148365,128,0,148869:0:0:0:0:
329,192,148365,1,0,0:0:0:0:
109,192,148365,1,0,0:0:0:0:
182,192,148491,1,0,0:0:0:0:
402,192,148617,1,0,0:0:0:0:
475,192,148617,1,0,0:0:0:0:
329,192,148743,1,0,0:0:0:0:
182,192,148869,128,0,149247:0:0:0:0:
109,192,148869,1,0,0:0:0:0:
402,192,148869,1,0,0:0:0:0:
475,192,148995,1,0,0:0:0:0:
36,192,148995,1,0,0:0:0:0:
402,192,149121,1,0,0:0:0:0:
109,192,149121,1,0,0:0:0:0:
329,192,149121,128,0,149499:0:0:0:0:
36,192,149373,128,0,150003:0:0:0:0:
109,192,149373,128,0,149499:0:0:0:0:
182,192,149373,128,0,149499:0:0:0:0:
256,192,149373,128,0,149499:0:0:0:0:
402,192,149373,128,0,149499:0:0:0:0:
475,192,149373,128,0,149499:0:0:0:0:
256,192,149625,128,0,149720:0:0:0:0:
329,192,149625,128,0,149688:0:0:0:0:
402,192,149625,128,0,149657:0:0:0:0:
182,192,149625,128,0,149751:0:0:0:0:
109,192,149625,1,0,0:0:0:0:
475,192,149625,1,0,0:0:0:0:
109,192,149877,128,0,150003:0:0:0:0:
182,192,149877,128,0,150003:0:0:0:0:
256,192,149877,128,0,150003:0:0:0:0:
402,192,149877,128,0,150003:0:0:0:0:
329,192,149877,128,0,150508:0:0:0:0:
475,192,149877,128,0,150003:0:0:0:0:
36,192,150130,128,0,150161:0:0:0:0:
109,192,150130,128,0,150193:0:0:0:0:
182,192,150130,128,0,150224:0:0:0:0:
475,192,150130,128,0,150256:0:0:0:0:
256,192,150130,1,0,0:0:0:0:
402,192,150130,1,0,0:0:0:0:
36,192,150382,128,0,150508:0:0:0:0:
109,192,150382,128,0,151012:0:0:0:0:
182,192,150382,128,0,150508:0:0:0:0:
256,192,150382,128,0,150508:0:0:0:0:
402,192,150382,128,0,150508:0:0:0:0:
475,192,150382,128,0,150508:0:0:0:0:
182,192,150634,128,0,150665:0:0:0:0:
256,192,150634,128,0,150697:0:0:0:0:
329,192,150634,128,0,150728:0:0:0:0:
475,192,150634,128,0,150760:0:0:0:0:
402,192,150634,1,0,0:0:0:0:
36,192,150634,1,0,0:0:0:0:
475,192,150886,128,0,151012:0:0:0:0:
402,192,150886,128,0,151516:0:0:0:0:
329,192,150886,128,0,151012:0:0:0:0:
256,192,150886,128,0,151012:0:0:0:0:
36,192,150886,128,0,151012:0:0:0:0:
182,192,150886,128,0,151012:0:0:0:0:
329,192,151138,128,0,151169:0:0:0:0:
256,192,151138,128,0,151201:0:0:0:0:
182,192,151138,128,0,151232:0:0:0:0:
109,192,151138,128,0,151264:0:0:0:0:
36,192,151138,1,0,0:0:0:0:
475,192,151138,1,0,0:0:0:0:
36,192,151390,128,0,151516:0:0:0:0:
109,192,151390,128,0,151516:0:0:0:0:
182,192,151390,128,0,152020:0:0:0:0:
256,192,151390,128,0,151516:0:0:0:0:
329,192,151390,128,0,151516:0:0:0:0:
475,192,151390,128,0,151516:0:0:0:0:
475,192,151642,128,0,151674:0:0:0:0:
402,192,151642,1,0,0:0:0:0:
329,192,151642,128,0,151705:0:0:0:0:
256,192,151642,128,0,151737:0:0:0:0:
109,192,151642,128,0,151768:0:0:0:0:
36,192,151642,1,0,0:0:0:0:
36,192,151894,128,0,152020:0:0:0:0:
109,192,151894,128,0,152020:0:0:0:0:
256,192,151894,128,0,152020:0:0:0:0:
329,192,151894,128,0,152020:0:0:0:0:
402,192,151894,128,0,152020:0:0:0:0:
475,192,151894,128,0,152524:0:0:0:0:
182,192,152146,128,0,152178:0:0:0:0:
256,192,152146,128,0,152209:0:0:0:0:
329,192,152146,128,0,152241:0:0:0:0:
402,192,152146,128,0,152272:0:0:0:0:
109,192,152146,1,0,0:0:0:0:
36,192,152146,1,0,0:0:0:0:
402,192,152398,128,0,152524:0:0:0:0:
329,192,152398,128,0,152524:0:0:0:0:
256,192,152398,128,0,153029:0:0:0:0:
182,192,152398,128,0,152524:0:0:0:0:
109,192,152398,128,0,152524:0:0:0:0:
36,192,152398,128,0,152524:0:0:0:0:
36,192,152651,128,0,152682:0:0:0:0:
182,192,152651,128,0,152714:0:0:0:0:
109,192,152651,1,0,0:0:0:0:
329,192,152651,128,0,152745:0:0:0:0:
402,192,152651,128,0,152777:0:0:0:0:
475,192,152651,1,0,0:0:0:0:
36,192,152903,128,0,153029:0:0:0:0:
182,192,152903,128,0,153029:0:0:0:0:
109,192,152903,128,0,153029:0:0:0:0:
329,192,152903,128,0,153029:0:0:0:0:
402,192,152903,128,0,153029:0:0:0:0:
475,192,152903,128,0,153407:0:0:0:0:
36,192,153155,1,0,0:0:0:0:
182,192,153155,1,0,0:0:0:0:
402,192,153155,1,0,0:0:0:0:
329,192,153155,1,0,0:0:0:0:
109,192,153407,1,0,0:0:0:0:
256,192,153407,1,0,0:0:0:0:
36,192,153407,1,0,0:0:0:0:
402,192,153407,1,0,0:0:0:0:
329,192,153407,1,0,0:0:0:0:
36,192,153659,128,0,153785:0:0:0:0:
109,192,153659,128,0,153722:0:0:0:0:
182,192,153659,128,0,153753:0:0:0:0:
475,192,153659,128,0,153785:0:0:0:0:
329,192,153659,1,0,0:0:0:0:
402,192,153659,1,0,0:0:0:0:
402,192,153911,1,0,0:0:0:0:
475,192,153911,1,0,0:0:0:0:
36,192,153911,128,0,154037:0:0:0:0:
109,192,153911,128,0,153974:0:0:0:0:
182,192,153911,128,0,154006:0:0:0:0:
256,192,153911,128,0,154037:0:0:0:0:
109,192,154163,128,0,154195:0:0:0:0:
329,192,154163,128,0,154289:0:0:0:0:
256,192,154163,128,0,154289:0:0:0:0:
402,192,154163,128,0,154226:0:0:0:0:
36,192,154163,1,0,0:0:0:0:
475,192,154163,1,0,0:0:0:0:
36,192,154415,128,0,154447:0:0:0:0:
475,192,154415,128,0,154541:0:0:0:0:
402,192,154415,128,0,154541:0:0:0:0:
329,192,154415,128,0,154478:0:0:0:0:
182,192,154415,1,0,0:0:0:0:
256,192,154415,1,0,0:0:0:0:
109,192,154667,128,0,154699:0:0:0:0:
182,192,154667,128,0,154730:0:0:0:0:
256,192,154667,128,0,154762:0:0:0:0:
329,192,154667,128,0,154793:0:0:0:0:
475,192,154667,1,0,0:0:0:0:
36,192,154667,1,0,0:0:0:0:
402,192,154919,128,0,155550:0:0:0:0:
36,192,154919,128,0,155550:0:0:0:0:
109,192,154919,1,0,0:0:0:0:
182,192,154919,1,0,0:0:0:0:
329,192,154919,1,0,0:0:0:0:
256,192,154919,1,0,0:0:0:0:
475,192,155172,1,0,0:0:0:0:
329,192,155172,1,0,0:0:0:0:
182,192,155172,1,0,0:0:0:0:
109,192,155172,1,0,0:0:0:0:
475,192,155424,128,0,155550:0:0:0:0:
329,192,155424,128,0,155550:0:0:0:0:
256,192,155424,128,0,155550:0:0:0:0:
182,192,155424,128,0,155550:0:0:0:0:
109,192,155424,128,0,156054:0:0:0:0:
36,192,155676,1,0,0:0:0:0:
182,192,155676,1,0,0:0:0:0:
256,192,155676,128,0,155707:0:0:0:0:
329,192,155676,128,0,155739:0:0:0:0:
402,192,155676,128,0,155770:0:0:0:0:
475,192,155676,128,0,155802:0:0:0:0:
182,192,155928,128,0,156054:0:0:0:0:
256,192,155928,128,0,156054:0:0:0:0:
36,192,155928,128,0,156054:0:0:0:0:
402,192,155928,128,0,156558:0:0:0:0:
329,192,155928,128,0,156054:0:0:0:0:
475,192,155928,128,0,156054:0:0:0:0:
36,192,156180,128,0,156306:0:0:0:0:
109,192,156180,128,0,156306:0:0:0:0:
182,192,156180,128,0,156306:0:0:0:0:
256,192,156180,128,0,156306:0:0:0:0:
329,192,156180,128,0,156306:0:0:0:0:
475,192,156180,128,0,156306:0:0:0:0:
182,192,156432,128,0,157062:0:0:0:0:
36,192,156432,128,0,156558:0:0:0:0:
109,192,156432,128,0,156558:0:0:0:0:
256,192,156432,128,0,156558:0:0:0:0:
329,192,156432,128,0,156558:0:0:0:0:
475,192,156432,128,0,156558:0:0:0:0:
475,192,156684,128,0,156810:0:0:0:0:
402,192,156684,128,0,156810:0:0:0:0:
329,192,156684,128,0,156810:0:0:0:0:
256,192,156684,128,0,156810:0:0:0:0:
109,192,156684,128,0,156810:0:0:0:0:
36,192,156684,128,0,156810:0:0:0:0:
329,192,156936,128,0,157566:0:0:0:0:
256,192,156936,128,0,157062:0:0:0:0:
109,192,156936,128,0,157062:0:0:0:0:
36,192,156936,128,0,157062:0:0:0:0:
402,192,156936,128,0,157062:0:0:0:0:
475,192,156936,128,0,157062:0:0:0:0:
475,192,157188,128,0,157314:0:0:0:0:
402,192,157188,128,0,157314:0:0:0:0:
256,192,157188,128,0,157314:0:0:0:0:
182,192,157188,128,0,157314:0:0:0:0:
109,192,157188,128,0,157314:0:0:0:0:
36,192,157188,128,0,157314:0:0:0:0:
36,192,157440,128,0,157566:0:0:0:0:
109,192,157440,128,0,158071:0:0:0:0:
182,192,157440,128,0,157566:0:0:0:0:
256,192,157440,128,0,157819:0:0:0:0:
402,192,157440,128,0,157819:0:0:0:0:
475,192,157440,128,0,157566:0:0:0:0:
182,192,157693,128,0,157819:0:0:0:0:
329,192,157693,128,0,157819:0:0:0:0:
475,192,157693,128,0,157819:0:0:0:0:
36,192,157693,128,0,157819:0:0:0:0:
256,192,157945,128,0,158071:0:0:0:0:
182,192,157945,128,0,158323:0:0:0:0:
36,192,157945,128,0,158071:0:0:0:0:
475,192,157945,128,0,158575:0:0:0:0:
329,192,157945,128,0,158323:0:0:0:0:
402,192,157945,128,0,158071:0:0:0:0:
402,192,158197,128,0,158323:0:0:0:0:
256,192,158197,128,0,158323:0:0:0:0:
109,192,158197,128,0,158323:0:0:0:0:
36,192,158197,128,0,158323:0:0:0:0:
402,192,158449,128,0,158575:0:0:0:0:
329,192,158449,128,0,158827:0:0:0:0:
256,192,158449,128,0,158575:0:0:0:0:
182,192,158449,128,0,158827:0:0:0:0:
109,192,158449,128,0,158575:0:0:0:0:
36,192,158449,128,0,159079:0:0:0:0:
475,192,158701,128,0,158827:0:0:0:0:
402,192,158701,128,0,158827:0:0:0:0:
256,192,158701,128,0,158827:0:0:0:0:
109,192,158701,128,0,158827:0:0:0:0:
109,192,158953,128,0,159331:0:0:0:0:
182,192,158953,128,0,159079:0:0:0:0:
329,192,158953,128,0,159331:0:0:0:0:
256,192,158953,128,0,159835:0:0:0:0:
402,192,158953,128,0,159079:0:0:0:0:
475,192,158953,128,0,159079:0:0:0:0:
36,192,159205,128,0,159331:0:0:0:0:
182,192,159205,128,0,159331:0:0:0:0:
475,192,159205,128,0,159331:0:0:0:0:
402,192,159205,128,0,159331:0:0:0:0:
36,192,159457,128,0,159583:0:0:0:0:
109,192,159457,128,0,159583:0:0:0:0:
182,192,159457,128,0,160087:0:0:0:0:
329,192,159457,128,0,159583:0:0:0:0:
402,192,159457,128,0,159835:0:0:0:0:
475,192,159457,128,0,159583:0:0:0:0:
36,192,159709,128,0,159835:0:0:0:0:
109,192,159709,128,0,159835:0:0:0:0:
329,192,159709,128,0,159835:0:0:0:0:
475,192,159709,128,0,159835:0:0:0:0:
256,192,159961,128,0,160087:0:0:0:0:
329,192,159961,128,0,160340:0:0:0:0:
402,192,159961,128,0,160592:0:0:0:0:
475,192,159961,128,0,160087:0:0:0:0:
109,192,159961,128,0,160340:0:0:0:0:
36,192,159961,128,0,160087:0:0:0:0:
256,192,160214,128,0,160340:0:0:0:0:
182,192,160214,128,0,160340:0:0:0:0:
36,192,160214,128,0,160340:0:0:0:0:
475,192,160214,128,0,160340:0:0:0:0:
475,192,160466,128,0,160592:0:0:0:0:
329,192,160466,128,0,160844:0:0:0:0:
256,192,160466,128,0,160592:0:0:0:0:
182,192,160466,128,0,161096:0:0:0:0:
109,192,160466,128,0,160592:0:0:0:0:
36,192,160466,128,0,160844:0:0:0:0:
109,192,160718,128,0,160844:0:0:0:0:
256,192,160718,128,0,160844:0:0:0:0:
402,192,160718,128,0,160844:0:0:0:0:
475,192,160718,128,0,160844:0:0:0:0:
36,192,160970,128,0,161642:0:0:0:0:
109,192,160970,128,0,161684:0:0:0:0:
256,192,160970,128,0,161096:0:0:0:0:
329,192,160970,128,0,161096:0:0:0:0:
402,192,160970,128,0,161096:0:0:0:0:
475,192,160970,128,0,161390:0:0:0:0:
329,192,161222,128,0,161474:0:0:0:0:
402,192,161222,128,0,161432:0:0:0:0:
256,192,161222,128,0,161516:0:0:0:0:
182,192,161222,128,0,161558:0:0:0:0:
475,192,161474,128,0,162314:0:0:0:0:
402,192,161516,128,0,162062:0:0:0:0:
329,192,161558,128,0,161810:0:0:0:0:
256,192,161600,128,0,161768:0:0:0:0:
182,192,161642,128,0,161726:0:0:0:0:
36,192,161726,128,0,162398:0:0:0:0:
109,192,161768,128,0,161894:0:0:0:0:
182,192,161810,128,0,161936:0:0:0:0:
256,192,161852,128,0,161978:0:0:0:0:
329,192,161894,128,0,162020:0:0:0:0:
109,192,161978,128,0,162440:0:0:0:0:
182,192,162020,128,0,162146:0:0:0:0:
256,192,162062,128,0,162188:0:0:0:0:
329,192,162104,128,0,162230:0:0:0:0:
402,192,162146,128,0,162272:0:0:0:0:
182,192,162230,128,0,162735:0:0:0:0:
256,192,162272,128,0,162524:0:0:0:0:
329,192,162314,128,0,162566:0:0:0:0:
402,192,162356,128,0,162608:0:0:0:0:
475,192,162398,128,0,162651:0:0:0:0:
36,192,162482,128,0,162903:0:0:0:0:
109,192,162524,128,0,162693:0:0:0:0:
256,192,162608,128,0,162777:0:0:0:0:
329,192,162651,128,0,162819:0:0:0:0:
402,192,162693,128,0,163197:0:0:0:0:
475,192,162735,128,0,163155:0:0:0:0:
109,192,162777,128,0,162945:0:0:0:0:
182,192,162819,128,0,162987:0:0:0:0:
256,192,162861,128,0,163029:0:0:0:0:
329,192,162903,128,0,163071:0:0:0:0:
36,192,162987,128,0,163827:0:0:0:0:
109,192,163029,128,0,163575:0:0:0:0:
182,192,163071,128,0,163323:0:0:0:0:
256,192,163113,128,0,163281:0:0:0:0:
329,192,163155,128,0,163239:0:0:0:0:
475,192,163239,128,0,164583:0:0:0:0:
402,192,163281,128,0,163407:0:0:0:0:
329,192,163323,128,0,163449:0:0:0:0:
256,192,163365,128,0,163491:0:0:0:0:
182,192,163407,128,0,163533:0:0:0:0:
402,192,163491,128,0,164079:0:0:0:0:
329,192,163533,128,0,163659:0:0:0:0:
256,192,163575,128,0,163701:0:0:0:0:
182,192,163617,128,0,163743:0:0:0:0:
109,192,163659,128,0,163785:0:0:0:0:
329,192,163743,128,0,164037:0:0:0:0:
256,192,163785,128,0,163995:0:0:0:0:
182,192,163827,128,0,163953:0:0:0:0:
109,192,163869,128,0,163911:0:0:0:0:
36,192,163911,128,0,164163:0:0:0:0:
109,192,163995,128,0,164205:0:0:0:0:
182,192,164037,128,0,164247:0:0:0:0:
256,192,164079,128,0,164289:0:0:0:0:
329,192,164121,128,0,164331:0:0:0:0:
402,192,164163,128,0,164541:0:0:0:0:
36,192,164247,128,0,165003:0:0:0:0:
109,192,164289,128,0,164667:0:0:0:0:
182,192,164331,128,0,164415:0:0:0:0:
256,192,164373,128,0,164457:0:0:0:0:
329,192,164415,128,0,164499:0:0:0:0:
182,192,164499,128,0,164709:0:0:0:0:
256,192,164541,128,0,164751:0:0:0:0:
329,192,164583,128,0,164793:0:0:0:0:
402,192,164625,128,0,164835:0:0:0:0:
475,192,164667,128,0,164877:0:0:0:0:
109,192,164751,128,0,164877:0:0:0:0:
182,192,164793,128,0,164919:0:0:0:0:
256,192,164835,128,0,164961:0:0:0:0:
329,192,164877,128,0,165003:0:0:0:0:
402,192,164919,128,0,165045:0:0:0:0:
475,192,164961,128,0,165087:0:0:0:0:
109,192,165003,128,0,165256:0:0:0:0:
182,192,165003,1,0,0:0:0:0:
256,192,165003,1,0,0:0:0:0:
256,192,165256,128,0,165508:0:0:0:0:
329,192,165256,1,0,0:0:0:0:
402,192,165256,1,0,0:0:0:0:
402,192,165508,128,0,167524:0:0:0:0:
475,192,165508,1,0,0:0:0:0:
109,192,165508,1,0,0:0:0:0:
36,192,165508,1,0,0:0:0:0:
182,192,165508,1,0,0:0:0:0:
182,192,165760,1,0,0:0:0:0:
329,192,165823,1,0,0:0:0:0:
109,192,165886,1,0,0:0:0:0:
256,192,165949,1,0,0:0:0:0:
36,192,166012,1,0,0:0:0:0:
182,192,166075,1,0,0:0:0:0:
329,192,166138,1,0,0:0:0:0:
109,192,166201,1,0,0:0:0:0:
256,192,166264,1,0,0:0:0:0:
36,192,166327,1,0,0:0:0:0:
182,192,166390,1,0,0:0:0:0:
329,192,166453,1,0,0:0:0:0:
109,192,166516,1,0,0:0:0:0:
256,192,166516,1,0,0:0:0:0:
475,192,166516,1,0,0:0:0:0:
36,192,167209,1,0,0:0:0:0:
182,192,167272,1,0,0:0:0:0:
329,192,167335,1,0,0:0:0:0:
109,192,167398,1,0,0:0:0:0:
256,192,167461,1,0,0:0:0:0:
475,192,167524,1,0,0:0:0:0:
182,192,167524,1,0,0:0:0:0:
36,192,167524,1,0,0:0:0:0:
329,192,167524,128,0,169541:0:0:0:0:
475,192,168029,1,0,0:0:0:0:
36,192,168281,128,0,169541:0:0:0:0:
182,192,168281,1,0,0:0:0:0:
402,192,168533,1,0,0:0:0:0:
109,192,169289,1,0,0:0:0:0:
256,192,169352,1,0,0:0:0:0:
402,192,169415,1,0,0:0:0:0:
182,192,169478,1,0,0:0:0:0:
109,192,169541,1,0,0:0:0:0:
256,192,169541,1,0,0:0:0:0:
475,192,169541,128,0,171558:0:0:0:0:
182,192,170045,1,0,0:0:0:0:
36,192,170298,128,0,171558:0:0:0:0:
329,192,170298,1,0,0:0:0:0:
256,192,170550,1,0,0:0:0:0:
109,192,170550,1,0,0:0:0:0:
402,192,170550,1,0,0:0:0:0:
182,192,171306,1,0,0:0:0:0:
329,192,171369,1,0,0:0:0:0:
109,192,171432,1,0,0:0:0:0:
256,192,171495,1,0,0:0:0:0:
109,192,171558,1,0,0:0:0:0:
329,192,171558,1,0,0:0:0:0:
402,192,171558,128,0,173575:0:0:0:0:
256,192,171810,128,0,172062:0:0:0:0:
109,192,172062,128,0,172314:0:0:0:0:
475,192,172062,1,0,0:0:0:0:
256,192,172314,128,0,172566:0:0:0:0:
109,192,172566,1,0,0:0:0:0:
36,192,172819,128,0,173071:0:0:0:0:
256,192,172819,1,0,0:0:0:0:
329,192,173071,1,0,0:0:0:0:
36,192,173323,1,0,0:0:0:0:
109,192,173386,1,0,0:0:0:0:
182,192,173449,1,0,0:0:0:0:
256,192,173512,1,0,0:0:0:0:
329,192,173575,1,0,0:0:0:0:
475,192,173575,1,0,0:0:0:0:
109,192,173575,1,0,0:0:0:0:
36,192,173575,128,0,175592:0:0:0:0:
402,192,173638,1,0,0:0:0:0:
182,192,173701,1,0,0:0:0:0:
475,192,173764,1,0,0:0:0:0:
256,192,173827,1,0,0:0:0:0:
402,192,173890,1,0,0:0:0:0:
182,192,173953,1,0,0:0:0:0:
329,192,174016,1,0,0:0:0:0:
109,192,174079,1,0,0:0:0:0:
402,192,174142,1,0,0:0:0:0:
182,192,174205,1,0,0:0:0:0:
475,192,174268,1,0,0:0:0:0:
256,192,174331,1,0,0:0:0:0:
402,192,174394,1,0,0:0:0:0:
182,192,174457,1,0,0:0:0:0:
329,192,174520,1,0,0:0:0:0:
109,192,174583,1,0,0:0:0:0:
402,192,174646,1,0,0:0:0:0:
182,192,174709,1,0,0:0:0:0:
475,192,174772,1,0,0:0:0:0:
256,192,174835,1,0,0:0:0:0:
402,192,174898,1,0,0:0:0:0:
182,192,174961,1,0,0:0:0:0:
329,192,175024,1,0,0:0:0:0:
109,192,175087,1,0,0:0:0:0:
402,192,175151,1,0,0:0:0:0:
182,192,175214,1,0,0:0:0:0:
475,192,175277,1,0,0:0:0:0:
256,192,175340,1,0,0:0:0:0:
402,192,175403,1,0,0:0:0:0:
256,192,175466,1,0,0:0:0:0:
109,192,175529,1,0,0:0:0:0:
182,192,175592,1,0,0:0:0:0:
475,192,175592,1,0,0:0:0:0:
329,192,175592,1,0,0:0:0:0:
402,192,175592,128,0,177608:0:0:0:0:
109,192,175844,1,0,0:0:0:0:
256,192,176096,1,0,0:0:0:0:
36,192,176348,1,0,0:0:0:0:
182,192,176600,1,0,0:0:0:0:
36,192,177356,1,0,0:0:0:0:
182,192,177419,1,0,0:0:0:0:
329,192,177482,1,0,0:0:0:0:
109,192,177545,1,0,0:0:0:0:
256,192,177608,1,0,0:0:0:0:
36,192,177608,1,0,0:0:0:0:
475,192,177608,128,0,179625:0:0:0:0:
329,192,177861,1,0,0:0:0:0:
182,192,178113,1,0,0:0:0:0:
36,192,178365,1,0,0:0:0:0:
109,192,178617,1,0,0:0:0:0:
256,192,178617,1,0,0:0:0:0:
402,192,178617,1,0,0:0:0:0:
36,192,178869,1,0,0:0:0:0:
182,192,179121,1,0,0:0:0:0:
329,192,179373,1,0,0:0:0:0:
36,192,179499,1,0,0:0:0:0:
109,192,179562,1,0,0:0:0:0:
182,192,179625,1,0,0:0:0:0:
402,192,179625,1,0,0:0:0:0:
256,192,179625,128,0,181642:0:0:0:0:
329,192,179625,1,0,0:0:0:0:
36,192,179877,1,0,0:0:0:0:
109,192,180130,1,0,0:0:0:0:
182,192,180382,1,0,0:0:0:0:
402,192,180382,1,0,0:0:0:0:
475,192,180886,1,0,0:0:0:0:
329,192,181138,1,0,0:0:0:0:
402,192,181390,1,0,0:0:0:0:
475,192,181642,1,0,0:0:0:0:
36,192,181642,1,0,0:0:0:0:
475,192,181894,1,0,0:0:0:0:
109,192,181894,1,0,0:0:0:0:
475,192,182146,1,0,0:0:0:0:
36,192,182146,1,0,0:0:0:0:
182,192,182146,1,0,0:0:0:0:
475,192,182398,1,0,0:0:0:0:
256,192,182398,1,0,0:0:0:0:
475,192,182651,1,0,0:0:0:0:
329,192,182651,1,0,0:0:0:0:
109,192,182651,1,0,0:0:0:0:
475,192,182903,1,0,0:0:0:0:
256,192,182903,1,0,0:0:0:0:
475,192,183155,1,0,0:0:0:0:
182,192,183155,1,0,0:0:0:0:
36,192,183155,1,0,0:0:0:0:
36,192,183407,1,0,0:0:0:0:
256,192,183407,1,0,0:0:0:0:
36,192,183659,1,0,0:0:0:0:
329,192,183659,1,0,0:0:0:0:
475,192,183659,1,0,0:0:0:0:
36,192,183911,1,0,0:0:0:0:
402,192,183911,1,0,0:0:0:0:
36,192,184163,1,0,0:0:0:0:
475,192,184163,1,0,0:0:0:0:
256,192,184163,1,0,0:0:0:0:
36,192,184415,1,0,0:0:0:0:
402,192,184415,1,0,0:0:0:0:
36,192,184667,1,0,0:0:0:0:
329,192,184667,1,0,0:0:0:0:
475,192,184667,1,0,0:0:0:0:
109,192,184919,1,0,0:0:0:0:
182,192,184919,1,0,0:0:0:0:
256,192,185172,1,0,0:0:0:0:
402,192,185172,1,0,0:0:0:0:
36,192,185172,1,0,0:0:0:0:
402,192,185424,1,0,0:0:0:0:
109,192,185424,1,0,0:0:0:0:
402,192,185676,1,0,0:0:0:0:
36,192,185676,1,0,0:0:0:0:
182,192,185676,1,0,0:0:0:0:
256,192,185676,1,0,0:0:0:0:
402,192,185928,1,0,0:0:0:0:
36,192,185928,1,0,0:0:0:0:
256,192,185928,1,0,0:0:0:0:
402,192,186180,1,0,0:0:0:0:
36,192,186180,1,0,0:0:0:0:
182,192,186180,1,0,0:0:0:0:
475,192,186180,1,0,0:0:0:0:
402,192,186432,1,0,0:0:0:0:
36,192,186432,1,0,0:0:0:0:
109,192,186432,1,0,0:0:0:0:
402,192,186684,1,0,0:0:0:0:
36,192,186684,1,0,0:0:0:0:
182,192,186684,1,0,0:0:0:0:
256,192,186684,1,0,0:0:0:0:
402,192,186936,1,0,0:0:0:0:
36,192,186936,1,0,0:0:0:0:
329,192,186936,1,0,0:0:0:0:
402,192,187188,1,0,0:0:0:0:
36,192,187188,1,0,0:0:0:0:
475,192,187188,1,0,0:0:0:0:
256,192,187188,1,0,0:0:0:0:
36,192,187440,1,0,0:0:0:0:
475,192,187440,1,0,0:0:0:0:
182,192,187440,1,0,0:0:0:0:
475,192,187693,1,0,0:0:0:0:
36,192,187693,1,0,0:0:0:0:
329,192,187693,1,0,0:0:0:0:
109,192,187693,1,0,0:0:0:0:
36,192,187945,1,0,0:0:0:0:
475,192,187945,1,0,0:0:0:0:
182,192,187945,1,0,0:0:0:0:
475,192,188197,1,0,0:0:0:0:
36,192,188197,1,0,0:0:0:0:
256,192,188197,1,0,0:0:0:0:
402,192,188197,1,0,0:0:0:0:
36,192,188449,1,0,0:0:0:0:
475,192,188449,1,0,0:0:0:0:
329,192,188449,1,0,0:0:0:0:
475,192,188701,5,0,0:0:0:0:
36,192,188701,1,0,0:0:0:0:
402,192,188701,1,0,0:0:0:0:
182,192,188701,1,0,0:0:0:0:
182,192,188953,1,0,0:0:0:0:
329,192,188953,1,0,0:0:0:0:
475,192,188953,1,0,0:0:0:0:
329,192,189205,1,0,0:0:0:0:
182,192,189205,1,0,0:0:0:0:
36,192,189205,1,0,0:0:0:0:
402,192,189205,1,0,0:0:0:0:
182,192,189457,1,0,0:0:0:0:
329,192,189457,1,0,0:0:0:0:
256,192,189457,1,0,0:0:0:0:
475,192,189709,5,0,0:0:0:0:
402,192,189709,1,0,0:0:0:0:
109,192,189709,1,0,0:0:0:0:
36,192,189709,1,0,0:0:0:0:
256,192,189709,1,0,0:0:0:0:
109,192,189961,1,0,0:0:0:0:
36,192,189961,1,0,0:0:0:0:
475,192,189961,1,0,0:0:0:0:
402,192,189961,1,0,0:0:0:0:
36,192,190214,1,0,0:0:0:0:
109,192,190214,1,0,0:0:0:0:
402,192,190214,1,0,0:0:0:0:
475,192,190214,1,0,0:0:0:0:
256,192,190214,1,0,0:0:0:0:
402,192,190466,1,0,0:0:0:0:
475,192,190466,1,0,0:0:0:0:
109,192,190466,1,0,0:0:0:0:
36,192,190466,1,0,0:0:0:0:
109,192,190718,1,0,0:0:0:0:
36,192,190718,1,0,0:0:0:0:
402,192,190718,1,0,0:0:0:0:
475,192,190718,1,0,0:0:0:0:
256,192,190718,1,0,0:0:0:0:
475,192,190970,1,0,0:0:0:0:
402,192,190970,1,0,0:0:0:0:
109,192,190970,1,0,0:0:0:0:
36,192,190970,1,0,0:0:0:0:
329,192,191222,1,0,0:0:0:0:
402,192,191222,1,0,0:0:0:0:
475,192,191222,1,0,0:0:0:0:
182,192,191222,1,0,0:0:0:0:
36,192,191222,1,0,0:0:0:0:
109,192,191222,1,0,0:0:0:0:
256,192,191222,1,0,0:0:0:0:
36,192,191474,1,0,0:0:0:0:
109,192,191474,1,0,0:0:0:0:
182,192,191474,1,0,0:0:0:0:
329,192,191474,1,0,0:0:0:0:
402,192,191474,1,0,0:0:0:0:
475,192,191474,1,0,0:0:0:0:
36,192,191726,1,0,0:0:0:0:
109,192,191726,1,0,0:0:0:0:
256,192,191726,1,0,0:0:0:0:
329,192,191726,1,0,0:0:0:0:
402,192,191726,1,0,0:0:0:0:
475,192,191726,1,0,0:0:0:0:
182,192,191726,128,0,191915:0:0:0:0:
475,192,191978,1,0,0:0:0:0:
402,192,191978,1,0,0:0:0:0:
256,192,191978,1,0,0:0:0:0:
182,192,191978,1,0,0:0:0:0:
109,192,191978,1,0,0:0:0:0:
36,192,191978,1,0,0:0:0:0:
329,192,191978,128,0,192167:0:0:0:0:
36,192,192230,1,0,0:0:0:0:
109,192,192230,1,0,0:0:0:0:
256,192,192230,1,0,0:0:0:0:
329,192,192230,1,0,0:0:0:0:
402,192,192230,1,0,0:0:0:0:
475,192,192230,1,0,0:0:0:0:
182,192,192230,128,0,192419:0:0:0:0:
475,192,192482,1,0,0:0:0:0:
402,192,192482,1,0,0:0:0:0:
256,192,192482,1,0,0:0:0:0:
182,192,192482,1,0,0:0:0:0:
109,192,192482,1,0,0:0:0:0:
36,192,192482,1,0,0:0:0:0:
329,192,192482,128,0,192672:0:0:0:0:
36,192,192735,1,0,0:0:0:0:
109,192,192735,1,0,0:0:0:0:
256,192,192735,1,0,0:0:0:0:
329,192,192735,1,0,0:0:0:0:
402,192,192735,1,0,0:0:0:0:
475,192,192735,1,0,0:0:0:0:
182,192,192735,128,0,192924:0:0:0:0:
475,192,192987,1,0,0:0:0:0:
402,192,192987,1,0,0:0:0:0:
256,192,192987,1,0,0:0:0:0:
109,192,192987,1,0,0:0:0:0:
36,192,192987,1,0,0:0:0:0:
329,192,192987,128,0,193176:0:0:0:0:
182,192,192987,128,0,193176:0:0:0:0:
256,192,193239,1,0,0:0:0:0:
329,192,193239,1,0,0:0:0:0:
36,192,193239,1,0,0:0:0:0:
182,192,193239,1,0,0:0:0:0:
475,192,193239,1,0,0:0:0:0:
109,192,193239,128,0,193428:0:0:0:0:
402,192,193239,128,0,193428:0:0:0:0:
182,192,193491,1,0,0:0:0:0:
329,192,193491,1,0,0:0:0:0:
109,192,193491,1,0,0:0:0:0:
402,192,193491,1,0,0:0:0:0:
256,192,193491,1,0,0:0:0:0:
475,192,193491,128,0,193680:0:0:0:0:
36,192,193491,128,0,193680:0:0:0:0:
475,192,193743,128,0,193932:0:0:0:0:
402,192,193743,128,0,193785:0:0:0:0:
329,192,193743,128,0,193932:0:0:0:0:
256,192,193743,128,0,193785:0:0:0:0:
182,192,193743,128,0,193785:0:0:0:0:
109,192,193743,128,0,193785:0:0:0:0:
36,192,193743,128,0,193785:0:0:0:0:
36,192,193995,128,0,194058:0:0:0:0:
109,192,193995,128,0,194037:0:0:0:0:
182,192,193995,128,0,194037:0:0:0:0:
256,192,193995,128,0,194184:0:0:0:0:
329,192,193995,128,0,194037:0:0:0:0:
402,192,193995,128,0,194184:0:0:0:0:
475,192,193995,128,0,194058:0:0:0:0:
36,192,194247,128,0,194310:0:0:0:0:
109,192,194247,128,0,194289:0:0:0:0:
182,192,194247,128,0,194436:0:0:0:0:
256,192,194247,128,0,194289:0:0:0:0:
329,192,194247,128,0,194436:0:0:0:0:
475,192,194247,128,0,194310:0:0:0:0:
402,192,194247,128,0,194289:0:0:0:0:
475,192,194499,128,0,194562:0:0:0:0:
402,192,194499,128,0,194541:0:0:0:0:
256,192,194499,128,0,194688:0:0:0:0:
182,192,194499,128,0,194541:0:0:0:0:
109,192,194499,128,0,194688:0:0:0:0:
36,192,194499,128,0,194562:0:0:0:0:
329,192,194499,128,0,194541:0:0:0:0:
475,192,194751,128,0,194814:0:0:0:0:
402,192,194751,128,0,194814:0:0:0:0:
329,192,194751,128,0,194814:0:0:0:0:
182,192,194751,128,0,194940:0:0:0:0:
109,192,194751,128,0,194814:0:0:0:0:
36,192,194751,128,0,194940:0:0:0:0:
256,192,194751,128,0,194814:0:0:0:0:
475,192,195003,128,0,195066:0:0:0:0:
402,192,195003,128,0,195193:0:0:0:0:
329,192,195003,128,0,195066:0:0:0:0:
256,192,195003,128,0,195066:0:0:0:0:
109,192,195003,128,0,195193:0:0:0:0:
36,192,195003,128,0,195066:0:0:0:0:
182,192,195003,128,0,195066:0:0:0:0:
475,192,195256,128,0,195445:0:0:0:0:
402,192,195256,128,0,195319:0:0:0:0:
329,192,195256,128,0,195319:0:0:0:0:
256,192,195256,128,0,195319:0:0:0:0:
182,192,195256,128,0,195319:0:0:0:0:
36,192,195256,128,0,195445:0:0:0:0:
109,192,195256,128,0,195319:0:0:0:0:
475,192,195508,128,0,195571:0:0:0:0:
402,192,195508,128,0,195550:0:0:0:0:
329,192,195508,128,0,195697:0:0:0:0:
256,192,195508,128,0,195550:0:0:0:0:
182,192,195508,128,0,195697:0:0:0:0:
109,192,195508,128,0,195550:0:0:0:0:
36,192,195508,128,0,195571:0:0:0:0:
475,192,195760,128,0,195823:0:0:0:0:
402,192,195760,128,0,195949:0:0:0:0:
329,192,195760,128,0,195802:0:0:0:0:
256,192,195760,128,0,195949:0:0:0:0:
182,192,195760,128,0,195802:0:0:0:0:
109,192,195760,128,0,195949:0:0:0:0:
36,192,195760,128,0,195823:0:0:0:0:
475,192,196012,128,0,196054:0:0:0:0:
402,192,196012,128,0,196043:0:0:0:0:
329,192,196012,128,0,196201:0:0:0:0:
256,192,196012,128,0,196043:0:0:0:0:
182,192,196012,128,0,196201:0:0:0:0:
109,192,196012,128,0,196043:0:0:0:0:
36,192,196012,128,0,196054:0:0:0:0:
36,192,196264,128,0,196306:0:0:0:0:
109,192,196264,128,0,196453:0:0:0:0:
182,192,196264,128,0,196306:0:0:0:0:
256,192,196264,128,0,196295:0:0:0:0:
329,192,196264,128,0,196306:0:0:0:0:
402,192,196264,128,0,196453:0:0:0:0:
475,192,196264,128,0,196306:0:0:0:0:
475,192,196516,128,0,196705:0:0:0:0:
402,192,196516,128,0,196548:0:0:0:0:
329,192,196516,128,0,196558:0:0:0:0:
256,192,196516,128,0,196548:0:0:0:0:
182,192,196516,128,0,196558:0:0:0:0:
109,192,196516,128,0,196548:0:0:0:0:
36,192,196516,128,0,196705:0:0:0:0:
36,192,196768,128,0,196810:0:0:0:0:
109,192,196768,128,0,196800:0:0:0:0:
182,192,196768,128,0,196810:0:0:0:0:
256,192,196768,128,0,196800:0:0:0:0:
329,192,196768,128,0,196810:0:0:0:0:
402,192,196768,128,0,196800:0:0:0:0:
475,192,196768,128,0,196810:0:0:0:0:
256,192,197272,128,0,197777:0:0:0:0:
329,192,197777,128,0,197903:0:0:0:0:
402,192,197777,128,0,198029:0:0:0:0:
475,192,197777,128,0,198155:0:0:0:0:
36,192,197777,128,0,197903:0:0:0:0:
182,192,197777,128,0,197903:0:0:0:0:
109,192,197903,128,0,198029:0:0:0:0:
256,192,197903,128,0,198029:0:0:0:0:
329,192,198029,128,0,198155:0:0:0:0:
36,192,198029,128,0,198155:0:0:0:0:
402,192,198155,128,0,198281:0:0:0:0:
109,192,198155,128,0,198281:0:0:0:0:
256,192,198155,128,0,198218:0:0:0:0:
36,192,198281,128,0,198659:0:0:0:0:
182,192,198281,128,0,198533:0:0:0:0:
329,192,198281,128,0,198407:0:0:0:0:
475,192,198281,128,0,198344:0:0:0:0:
256,192,198281,128,0,198344:0:0:0:0:
475,192,198407,128,0,198533:0:0:0:0:
402,192,198407,128,0,198470:0:0:0:0:
329,192,198533,128,0,198659:0:0:0:0:
256,192,198533,128,0,198596:0:0:0:0:
182,192,198659,128,0,198785:0:0:0:0:
109,192,198659,128,0,198722:0:0:0:0:
402,192,198785,128,0,199037:0:0:0:0:
256,192,198785,128,0,198911:0:0:0:0:
36,192,198785,128,0,199163:0:0:0:0:
475,192,198785,128,0,198911:0:0:0:0:
329,192,198785,128,0,198911:0:0:0:0:
109,192,198911,128,0,199037:0:0:0:0:
182,192,198911,128,0,199037:0:0:0:0:
256,192,199037,128,0,199163:0:0:0:0:
329,192,199037,128,0,199100:0:0:0:0:
402,192,199163,128,0,199289:0:0:0:0:
182,192,199163,128,0,199226:0:0:0:0:
109,192,199163,128,0,199289:0:0:0:0:
256,192,199289,128,0,199541:0:0:0:0:
475,192,199289,128,0,199415:0:0:0:0:
329,192,199289,128,0,199415:0:0:0:0:
36,192,199289,128,0,199415:0:0:0:0:
182,192,199289,128,0,199415:0:0:0:0:
36,192,199541,128,0,199667:0:0:0:0:
475,192,199541,128,0,199667:0:0:0:0:
329,192,199541,128,0,199667:0:0:0:0:
109,192,199604,128,0,199730:0:0:0:0:
182,192,199667,128,0,199793:0:0:0:0:
402,192,199667,128,0,199793:0:0:0:0:
256,192,199730,128,0,199856:0:0:0:0:
109,192,199793,128,0,199919:0:0:0:0:
475,192,199793,128,0,199919:0:0:0:0:
36,192,199793,128,0,199919:0:0:0:0:
329,192,199793,128,0,199919:0:0:0:0:
182,192,199856,128,0,199982:0:0:0:0:
256,192,199919,128,0,200045:0:0:0:0:
402,192,199919,128,0,200045:0:0:0:0:
329,192,199982,128,0,200108:0:0:0:0:
182,192,200045,128,0,200172:0:0:0:0:
475,192,200045,128,0,200172:0:0:0:0:
256,192,200108,128,0,200235:0:0:0:0:
329,192,200172,128,0,200298:0:0:0:0:
109,192,200172,128,0,200298:0:0:0:0:
402,192,200235,128,0,200361:0:0:0:0:
256,192,200298,128,0,200424:0:0:0:0:
36,192,200298,128,0,200424:0:0:0:0:
182,192,200298,128,0,200424:0:0:0:0:
475,192,200298,128,0,200424:0:0:0:0:
329,192,200361,128,0,200487:0:0:0:0:
402,192,200424,128,0,200550:0:0:0:0:
109,192,200424,128,0,200550:0:0:0:0:
475,192,200487,128,0,200613:0:0:0:0:
256,192,200550,128,0,200676:0:0:0:0:
36,192,200550,128,0,200676:0:0:0:0:
182,192,200676,128,0,200802:0:0:0:0:
402,192,200676,128,0,200802:0:0:0:0:
329,192,200802,128,0,200928:0:0:0:0:
475,192,200802,128,0,201054:0:0:0:0:
109,192,200802,128,0,201054:0:0:0:0:
36,192,200802,128,0,200928:0:0:0:0:
256,192,200802,128,0,200928:0:0:0:0:
182,192,200928,128,0,201054:0:0:0:0:
402,192,200928,128,0,201054:0:0:0:0:
329,192,201054,128,0,201180:0:0:0:0:
36,192,201054,128,0,201180:0:0:0:0:
256,192,201054,128,0,201117:0:0:0:0:
475,192,201180,128,0,201306:0:0:0:0:
109,192,201180,128,0,201306:0:0:0:0:
402,192,201180,128,0,201243:0:0:0:0:
182,192,201306,128,0,201432:0:0:0:0:
36,192,201306,128,0,201432:0:0:0:0:
402,192,201306,128,0,201684:0:0:0:0:
256,192,201306,128,0,201558:0:0:0:0:
329,192,201306,128,0,201432:0:0:0:0:
109,192,201432,128,0,201558:0:0:0:0:
475,192,201432,128,0,201558:0:0:0:0:
329,192,201558,128,0,201684:0:0:0:0:
182,192,201558,128,0,201684:0:0:0:0:
475,192,201684,128,0,201810:0:0:0:0:
256,192,201684,128,0,201810:0:0:0:0:
36,192,201810,128,0,202188:0:0:0:0:
329,192,201810,128,0,201936:0:0:0:0:
402,192,201810,128,0,201936:0:0:0:0:
182,192,201810,128,0,202062:0:0:0:0:
109,192,201810,128,0,202188:0:0:0:0:
475,192,201936,128,0,202062:0:0:0:0:
256,192,201936,128,0,202062:0:0:0:0:
329,192,202062,128,0,202188:0:0:0:0:
402,192,202062,128,0,202188:0:0:0:0:
256,192,202188,128,0,202314:0:0:0:0:
475,192,202188,128,0,202314:0:0:0:0:
182,192,202314,128,0,202693:0:0:0:0:
109,192,202314,128,0,202440:0:0:0:0:
402,192,202314,128,0,202440:0:0:0:0:
329,192,202314,128,0,202440:0:0:0:0:
36,192,202314,128,0,202566:0:0:0:0:
475,192,202440,128,0,202566:0:0:0:0:
256,192,202440,128,0,202566:0:0:0:0:
329,192,202566,128,0,202693:0:0:0:0:
109,192,202566,128,0,202693:0:0:0:0:
475,192,202693,128,0,202819:0:0:0:0:
256,192,202693,128,0,202819:0:0:0:0:
329,192,202819,128,0,203197:0:0:0:0:
402,192,202819,128,0,202945:0:0:0:0:
36,192,202819,128,0,202945:0:0:0:0:
109,192,202819,128,0,203071:0:0:0:0:
182,192,202819,128,0,203197:0:0:0:0:
256,192,202945,128,0,203071:0:0:0:0:
475,192,202945,128,0,203071:0:0:0:0:
36,192,203071,128,0,203197:0:0:0:0:
402,192,203071,128,0,203197:0:0:0:0:
109,192,203197,128,0,203323:0:0:0:0:
475,192,203197,128,0,203323:0:0:0:0:
36,192,203323,128,0,203701:0:0:0:0:
182,192,203323,128,0,203449:0:0:0:0:
256,192,203323,128,0,203575:0:0:0:0:
402,192,203323,128,0,203449:0:0:0:0:
329,192,203323,128,0,203701:0:0:0:0:
109,192,203449,128,0,203575:0:0:0:0:
475,192,203449,128,0,203575:0:0:0:0:
182,192,203575,128,0,203701:0:0:0:0:
402,192,203575,128,0,203701:0:0:0:0:
256,192,203701,128,0,203827:0:0:0:0:
475,192,203701,128,0,203827:0:0:0:0:
109,192,203827,128,0,204331:0:0:0:0:
329,192,203827,128,0,204079:0:0:0:0:
402,192,203827,128,0,204205:0:0:0:0:
182,192,203827,128,0,203953:0:0:0:0:
36,192,203827,128,0,203953:0:0:0:0:
256,192,203953,128,0,204079:0:0:0:0:
475,192,203953,128,0,204079:0:0:0:0:
182,192,204079,128,0,204205:0:0:0:0:
36,192,204079,128,0,204205:0:0:0:0:
329,192,204205,128,0,204331:0:0:0:0:
256,192,204205,128,0,204331:0:0:0:0:
475,192,204331,128,0,204457:0:0:0:0:
402,192,204331,1,0,0:0:0:0:
36,192,204331,128,0,204457:0:0:0:0:
182,192,204331,128,0,204457:0:0:0:0:
402,192,204394,128,0,204520:0:0:0:0:
329,192,204457,128,0,204583:0:0:0:0:
109,192,204457,128,0,204583:0:0:0:0:
256,192,204520,128,0,204646:0:0:0:0:
402,192,204583,128,0,204709:0:0:0:0:
182,192,204583,128,0,204709:0:0:0:0:
475,192,204583,128,0,204709:0:0:0:0:
329,192,204646,128,0,204772:0:0:0:0:
256,192,204709,128,0,204835:0:0:0:0:
36,192,204709,128,0,204835:0:0:0:0:
182,192,204772,128,0,204898:0:0:0:0:
329,192,204835,128,0,204961:0:0:0:0:
402,192,204835,1,0,0:0:0:0:
475,192,204835,128,0,204961:0:0:0:0:
109,192,204835,128,0,204961:0:0:0:0:
256,192,204898,128,0,205024:0:0:0:0:
182,192,204961,128,0,205087:0:0:0:0:
402,192,204961,128,0,205087:0:0:0:0:
109,192,205024,128,0,205151:0:0:0:0:
256,192,205087,128,0,205214:0:0:0:0:
36,192,205087,128,0,205214:0:0:0:0:
329,192,205087,128,0,205214:0:0:0:0:
182,192,205151,128,0,205277:0:0:0:0:
109,192,205214,128,0,205340:0:0:0:0:
402,192,205214,128,0,205340:0:0:0:0:
36,192,205277,128,0,205403:0:0:0:0:
475,192,205340,128,0,205718:0:0:0:0:
329,192,205340,128,0,205592:0:0:0:0:
182,192,205340,128,0,205592:0:0:0:0:
256,192,205340,128,0,205466:0:0:0:0:
109,192,205466,128,0,205718:0:0:0:0:
402,192,205466,128,0,205592:0:0:0:0:
256,192,205592,128,0,205718:0:0:0:0:
36,192,205592,128,0,205844:0:0:0:0:
182,192,205718,128,0,205844:0:0:0:0:
402,192,205718,1,0,0:0:0:0:
329,192,205844,128,0,205970:0:0:0:0:
256,192,205844,128,0,206222:0:0:0:0:
475,192,205844,128,0,206222:0:0:0:0:
109,192,205844,128,0,206096:0:0:0:0:
402,192,205844,128,0,205970:0:0:0:0:
36,192,205970,128,0,206096:0:0:0:0:
182,192,205970,128,0,206096:0:0:0:0:
402,192,206096,128,0,206222:0:0:0:0:
329,192,206096,128,0,206222:0:0:0:0:
109,192,206222,128,0,206348:0:0:0:0:
182,192,206222,128,0,206348:0:0:0:0:
475,192,206348,128,0,206726:0:0:0:0:
329,192,206348,128,0,206600:0:0:0:0:
36,192,206348,128,0,206474:0:0:0:0:
402,192,206348,128,0,206474:0:0:0:0:
256,192,206348,128,0,206474:0:0:0:0:
109,192,206474,128,0,206726:0:0:0:0:
182,192,206474,128,0,206600:0:0:0:0:
256,192,206600,128,0,206726:0:0:0:0:
402,192,206600,128,0,206726:0:0:0:0:
36,192,206726,128,0,206852:0:0:0:0:
182,192,206726,128,0,206852:0:0:0:0:
256,192,206852,128,0,207230:0:0:0:0:
329,192,206852,128,0,206978:0:0:0:0:
475,192,206852,128,0,206978:0:0:0:0:
109,192,206852,128,0,207104:0:0:0:0:
402,192,206852,128,0,206978:0:0:0:0:
36,192,206978,128,0,207230:0:0:0:0:
182,192,206978,128,0,207104:0:0:0:0:
475,192,207104,128,0,207230:0:0:0:0:
329,192,207104,128,0,207230:0:0:0:0:
402,192,207230,128,0,207356:0:0:0:0:
182,192,207230,128,0,207356:0:0:0:0:
36,192,207356,128,0,207735:0:0:0:0:
109,192,207356,128,0,207608:0:0:0:0:
256,192,207356,128,0,207482:0:0:0:0:
329,192,207356,128,0,207608:0:0:0:0:
475,192,207356,128,0,207482:0:0:0:0:
402,192,207482,128,0,207735:0:0:0:0:
182,192,207482,128,0,207608:0:0:0:0:
475,192,207608,128,0,207735:0:0:0:0:
256,192,207608,128,0,207735:0:0:0:0:
109,192,207735,128,0,207861:0:0:0:0:
329,192,207735,128,0,207861:0:0:0:0:
402,192,207861,128,0,207987:0:0:0:0:
475,192,207861,128,0,208239:0:0:0:0:
182,192,207861,128,0,208113:0:0:0:0:
256,192,207861,128,0,207987:0:0:0:0:
36,192,207861,128,0,207987:0:0:0:0:
329,192,207987,128,0,208239:0:0:0:0:
109,192,207987,128,0,208239:0:0:0:0:
402,192,208113,128,0,208239:0:0:0:0:
36,192,208113,128,0,208239:0:0:0:0:
182,192,208239,128,0,208365:0:0:0:0:
256,192,208239,128,0,208491:0:0:0:0:
329,192,208365,128,0,208491:0:0:0:0:
475,192,208365,128,0,208617:0:0:0:0:
36,192,208365,128,0,208743:0:0:0:0:
109,192,208365,128,0,208491:0:0:0:0:
402,192,208491,128,0,208743:0:0:0:0:
182,192,208491,128,0,208617:0:0:0:0:
109,192,208617,128,0,208743:0:0:0:0:
329,192,208617,128,0,208743:0:0:0:0:
256,192,208743,128,0,208869:0:0:0:0:
182,192,208743,128,0,208869:0:0:0:0:
329,192,208869,128,0,208995:0:0:0:0:
109,192,208869,128,0,208995:0:0:0:0:
36,192,208869,128,0,208995:0:0:0:0:
402,192,208869,128,0,208995:0:0:0:0:
475,192,208869,128,0,209247:0:0:0:0:
182,192,208995,128,0,209247:0:0:0:0:
256,192,208995,128,0,209121:0:0:0:0:
36,192,209121,128,0,209247:0:0:0:0:
329,192,209121,128,0,209247:0:0:0:0:
402,192,209121,128,0,209247:0:0:0:0:
109,192,209247,128,0,209373:0:0:0:0:
256,192,209247,128,0,209373:0:0:0:0:
329,192,209373,128,0,209751:0:0:0:0:
475,192,209373,128,0,209499:0:0:0:0:
402,192,209373,128,0,209499:0:0:0:0:
182,192,209373,128,0,209499:0:0:0:0:
36,192,209373,128,0,209625:0:0:0:0:
109,192,209499,128,0,209751:0:0:0:0:
256,192,209499,128,0,209625:0:0:0:0:
475,192,209625,128,0,209751:0:0:0:0:
182,192,209625,128,0,209751:0:0:0:0:
402,192,209751,128,0,209877:0:0:0:0:
256,192,209751,128,0,209877:0:0:0:0:
36,192,209877,128,0,210003:0:0:0:0:
109,192,209877,128,0,210130:0:0:0:0:
475,192,209877,128,0,210003:0:0:0:0:
329,192,209877,128,0,210003:0:0:0:0:
182,192,209877,128,0,210003:0:0:0:0:
256,192,210003,128,0,210130:0:0:0:0:
402,192,210003,128,0,210256:0:0:0:0:
182,192,210130,128,0,210256:0:0:0:0:
329,192,210130,128,0,210256:0:0:0:0:
475,192,210130,128,0,210256:0:0:0:0:
36,192,210130,128,0,210256:0:0:0:0:
256,192,210256,128,0,210382:0:0:0:0:
109,192,210256,128,0,210382:0:0:0:0:
475,192,210382,128,0,210634:0:0:0:0:
402,192,210382,128,0,210508:0:0:0:0:
329,192,210382,128,0,210508:0:0:0:0:
182,192,210382,128,0,210508:0:0:0:0:
36,192,210382,128,0,210508:0:0:0:0:
256,192,210508,128,0,210634:0:0:0:0:
109,192,210508,128,0,210634:0:0:0:0:
402,192,210634,128,0,210760:0:0:0:0:
329,192,210634,128,0,210760:0:0:0:0:
36,192,210634,128,0,210760:0:0:0:0:
475,192,210760,128,0,210886:0:0:0:0:
256,192,210760,128,0,210886:0:0:0:0:
182,192,210886,128,0,211012:0:0:0:0:
402,192,210886,128,0,211012:0:0:0:0:
329,192,210886,128,0,211138:0:0:0:0:
36,192,210886,128,0,211264:0:0:0:0:
109,192,210886,128,0,211138:0:0:0:0:
256,192,211012,128,0,211264:0:0:0:0:
475,192,211012,128,0,211138:0:0:0:0:
182,192,211138,128,0,211264:0:0:0:0:
402,192,211138,128,0,211264:0:0:0:0:
109,192,211264,128,0,211390:0:0:0:0:
329,192,211264,128,0,211390:0:0:0:0:
475,192,211390,128,0,211642:0:0:0:0:
402,192,211390,128,0,211516:0:0:0:0:
256,192,211390,128,0,211516:0:0:0:0:
182,192,211390,128,0,211768:0:0:0:0:
36,192,211390,128,0,211642:0:0:0:0:
109,192,211642,128,0,211768:0:0:0:0:
329,192,211642,128,0,211768:0:0:0:0:
256,192,211642,128,0,211894:0:0:0:0:
402,192,211642,128,0,211894:0:0:0:0:
36,192,211768,1,0,0:0:0:0:
475,192,211768,1,0,0:0:0:0:
109,192,211894,128,0,212272:0:0:0:0:
182,192,211894,128,0,212020:0:0:0:0:
329,192,211894,128,0,212272:0:0:0:0:
475,192,211894,128,0,212146:0:0:0:0:
36,192,211894,128,0,212020:0:0:0:0:
182,192,212146,128,0,212524:0:0:0:0:
256,192,212146,128,0,212272:0:0:0:0:
402,192,212146,128,0,212524:0:0:0:0:
36,192,212146,128,0,212272:0:0:0:0:
256,192,212398,128,0,212777:0:0:0:0:
329,192,212398,128,0,212524:0:0:0:0:
475,192,212398,128,0,212777:0:0:0:0:
109,192,212398,128,0,212524:0:0:0:0:
329,192,212651,128,0,212777:0:0:0:0:
402,192,212651,128,0,212777:0:0:0:0:
36,192,212651,128,0,213029:0:0:0:0:
182,192,212651,128,0,212777:0:0:0:0:
256,192,212903,128,0,213029:0:0:0:0:
402,192,212903,128,0,213155:0:0:0:0:
475,192,212903,128,0,213029:0:0:0:0:
109,192,212903,128,0,213155:0:0:0:0:
182,192,213029,128,0,213281:0:0:0:0:
329,192,213029,128,0,213281:0:0:0:0:
475,192,213155,128,0,213281:0:0:0:0:
256,192,213155,128,0,213407:0:0:0:0:
36,192,213155,128,0,213281:0:0:0:0:
402,192,213407,128,0,213533:0:0:0:0:
182,192,213407,128,0,213533:0:0:0:0:
475,192,213407,128,0,213659:0:0:0:0:
36,192,213407,1,0,0:0:0:0:
109,192,213533,128,0,213659:0:0:0:0:
36,192,213533,128,0,213785:0:0:0:0:
329,192,213533,128,0,213659:0:0:0:0:
256,192,213659,128,0,213785:0:0:0:0:
182,192,213659,128,0,213785:0:0:0:0:
402,192,213659,128,0,213785:0:0:0:0:
109,192,213785,128,0,213911:0:0:0:0:
329,192,213785,128,0,213911:0:0:0:0:
475,192,213785,1,0,0:0:0:0:
36,192,213911,128,0,214289:0:0:0:0:
182,192,213911,128,0,214037:0:0:0:0:
256,192,213911,128,0,214289:0:0:0:0:
402,192,213911,128,0,214037:0:0:0:0:
475,192,213911,128,0,214289:0:0:0:0:
109,192,214163,128,0,214289:0:0:0:0:
182,192,214163,128,0,214793:0:0:0:0:
329,192,214163,128,0,214793:0:0:0:0:
402,192,214163,128,0,214289:0:0:0:0:
36,192,214415,128,0,214541:0:0:0:0:
109,192,214415,128,0,214541:0:0:0:0:
402,192,214415,128,0,214541:0:0:0:0:
475,192,214415,128,0,214541:0:0:0:0:
256,192,214415,128,0,214793:0:0:0:0:
402,192,214667,128,0,215298:0:0:0:0:
475,192,214667,128,0,214793:0:0:0:0:
109,192,214667,128,0,215045:0:0:0:0:
36,192,214667,128,0,214793:0:0:0:0:
182,192,214919,128,0,215550:0:0:0:0:
256,192,214919,128,0,215045:0:0:0:0:
329,192,214919,128,0,215045:0:0:0:0:
36,192,214919,128,0,215045:0:0:0:0:
475,192,214919,128,0,215298:0:0:0:0:
36,192,215172,128,0,215298:0:0:0:0:
109,192,215172,128,0,215298:0:0:0:0:
256,192,215172,128,0,215550:0:0:0:0:
329,192,215172,128,0,215298:0:0:0:0:
109,192,215424,128,0,215802:0:0:0:0:
475,192,215424,128,0,215550:0:0:0:0:
329,192,215424,128,0,215802:0:0:0:0:
36,192,215424,128,0,216558:0:0:0:0:
402,192,215424,128,0,215550:0:0:0:0:
475,192,215676,128,0,215802:0:0:0:0:
402,192,215676,128,0,215802:0:0:0:0:
256,192,215676,128,0,215802:0:0:0:0:
182,192,215676,128,0,215802:0:0:0:0:
109,192,215928,1,0,0:0:0:0:
182,192,215928,1,0,0:0:0:0:
402,192,215928,1,0,0:0:0:0:
475,192,215928,1,0,0:0:0:0:
182,192,216180,128,0,216558:0:0:0:0:
402,192,216180,128,0,216306:0:0:0:0:
475,192,216180,128,0,216306:0:0:0:0:
109,192,216180,128,0,216306:0:0:0:0:
256,192,216432,128,0,216810:0:0:0:0:
329,192,216432,128,0,216558:0:0:0:0:
109,192,216432,128,0,216810:0:0:0:0:
475,192,216432,128,0,216558:0:0:0:0:
402,192,216432,128,0,216810:0:0:0:0:
36,192,216684,128,0,216810:0:0:0:0:
182,192,216684,128,0,217062:0:0:0:0:
329,192,216684,128,0,217062:0:0:0:0:
475,192,216684,128,0,216810:0:0:0:0:
36,192,216936,128,0,217314:0:0:0:0:
256,192,216936,128,0,217314:0:0:0:0:
402,192,216936,128,0,217062:0:0:0:0:
109,192,216936,128,0,217062:0:0:0:0:
475,192,216936,128,0,217314:0:0:0:0:
109,192,217188,128,0,217566:0:0:0:0:
182,192,217188,128,0,217314:0:0:0:0:
329,192,217188,128,0,217314:0:0:0:0:
402,192,217188,128,0,217566:0:0:0:0:
182,192,217440,128,0,217566:0:0:0:0:
475,192,217440,128,0,217566:0:0:0:0:
36,192,217440,128,0,217566:0:0:0:0:
329,192,217440,128,0,217566:0:0:0:0:
256,192,217440,128,0,217819:0:0:0:0:
36,192,217693,1,0,0:0:0:0:
109,192,217693,1,0,0:0:0:0:
402,192,217693,1,0,0:0:0:0:
475,192,217693,1,0,0:0:0:0:
109,192,217945,1,0,0:0:0:0:
402,192,217945,1,0,0:0:0:0:
36,192,217945,1,0,0:0:0:0:
475,192,217945,1,0,0:0:0:0:
256,192,217945,1,0,0:0:0:0:
36,192,218197,128,0,218449:0:0:0:0:
109,192,218197,128,0,218323:0:0:0:0:
256,192,218197,128,0,218323:0:0:0:0:
329,192,218197,128,0,218323:0:0:0:0:
182,192,218449,128,0,218701:0:0:0:0:
109,192,218449,128,0,218575:0:0:0:0:
256,192,218449,128,0,218575:0:0:0:0:
329,192,218449,128,0,218575:0:0:0:0:
402,192,218449,128,0,218575:0:0:0:0:
329,192,218701,128,0,218953:0:0:0:0:
256,192,218701,128,0,218827:0:0:0:0:
402,192,218701,128,0,218827:0:0:0:0:
475,192,218701,128,0,218827:0:0:0:0:
475,192,218953,128,0,219205:0:0:0:0:
36,192,218953,128,0,219079:0:0:0:0:
109,192,218953,128,0,219079:0:0:0:0:
182,192,218953,128,0,219079:0:0:0:0:
402,192,218953,128,0,219079:0:0:0:0:
109,192,219205,128,0,219331:0:0:0:0:
182,192,219205,128,0,219331:0:0:0:0:
256,192,219205,128,0,219331:0:0:0:0:
329,192,219205,128,0,219961:0:0:0:0:
36,192,219457,1,0,0:0:0:0:
182,192,219457,1,0,0:0:0:0:
475,192,219457,1,0,0:0:0:0:
402,192,219457,1,0,0:0:0:0:
109,192,219457,1,0,0:0:0:0:
475,192,219709,1,0,0:0:0:0:
402,192,219709,1,0,0:0:0:0:
256,192,219709,1,0,0:0:0:0:
109,192,219709,1,0,0:0:0:0:
182,192,219961,1,0,0:0:0:0:
36,192,219961,1,0,0:0:0:0:
402,192,219961,1,0,0:0:0:0:
475,192,219961,1,0,0:0:0:0:
256,192,219961,1,0,0:0:0:0:
109,192,220214,128,0,220466:0:0:0:0:
329,192,220214,128,0,220340:0:0:0:0:
475,192,220214,128,0,220340:0:0:0:0:
182,192,220214,128,0,220592:0:0:0:0:
256,192,220466,128,0,220718:0:0:0:0:
329,192,220466,128,0,220592:0:0:0:0:
475,192,220466,128,0,220592:0:0:0:0:
402,192,220466,128,0,220592:0:0:0:0:
36,192,220466,128,0,220592:0:0:0:0:
402,192,220718,128,0,220970:0:0:0:0:
109,192,220718,128,0,220844:0:0:0:0:
182,192,220718,128,0,220844:0:0:0:0:
329,192,220718,128,0,221096:0:0:0:0:
36,192,220970,128,0,221222:0:0:0:0:
182,192,220970,128,0,221096:0:0:0:0:
256,192,220970,128,0,221096:0:0:0:0:
475,192,220970,128,0,221348:0:0:0:0:
109,192,220970,128,0,221096:0:0:0:0:
182,192,221222,128,0,221474:0:0:0:0:
109,192,221222,128,0,221600:0:0:0:0:
329,192,221222,128,0,221348:0:0:0:0:
402,192,221222,128,0,221348:0:0:0:0:
329,192,221474,128,0,221726:0:0:0:0:
256,192,221474,128,0,221852:0:0:0:0:
402,192,221474,128,0,221600:0:0:0:0:
475,192,221474,128,0,221600:0:0:0:0:
36,192,221474,128,0,221600:0:0:0:0:
475,192,221726,128,0,221978:0:0:0:0:
109,192,221726,128,0,221852:0:0:0:0:
182,192,221726,128,0,221852:0:0:0:0:
402,192,221726,128,0,221852:0:0:0:0:
36,192,221978,128,0,222104:0:0:0:0:
256,192,221978,128,0,222104:0:0:0:0:
402,192,221978,128,0,222104:0:0:0:0:
329,192,221978,128,0,222104:0:0:0:0:
109,192,222041,128,0,222167:0:0:0:0:
182,192,222104,128,0,222230:0:0:0:0:
475,192,222104,128,0,222230:0:0:0:0:
256,192,222167,128,0,222293:0:0:0:0:
109,192,222230,128,0,222356:0:0:0:0:
329,192,222230,128,0,222356:0:0:0:0:
402,192,222230,128,0,222356:0:0:0:0:
182,192,222293,128,0,222419:0:0:0:0:
256,192,222356,128,0,222482:0:0:0:0:
36,192,222356,128,0,222482:0:0:0:0:
329,192,222419,128,0,222545:0:0:0:0:
182,192,222482,128,0,222608:0:0:0:0:
402,192,222482,128,0,222608:0:0:0:0:
475,192,222482,128,0,222608:0:0:0:0:
109,192,222482,128,0,222608:0:0:0:0:
256,192,222545,128,0,222672:0:0:0:0:
329,192,222608,128,0,222735:0:0:0:0:
36,192,222608,128,0,222735:0:0:0:0:
402,192,222672,128,0,222798:0:0:0:0:
475,192,222735,128,0,222861:0:0:0:0:
109,192,222735,128,0,222861:0:0:0:0:
256,192,222735,128,0,222861:0:0:0:0:
329,192,222798,128,0,222924:0:0:0:0:
402,192,222861,128,0,222987:0:0:0:0:
182,192,222861,128,0,222987:0:0:0:0:
475,192,222924,128,0,223050:0:0:0:0:
256,192,222987,128,0,223365:0:0:0:0:
36,192,222987,128,0,223491:0:0:0:0:
109,192,222987,128,0,223365:0:0:0:0:
329,192,222987,128,0,223113:0:0:0:0:
182,192,223239,128,0,223617:0:0:0:0:
402,192,223239,128,0,223365:0:0:0:0:
329,192,223239,128,0,223617:0:0:0:0:
109,192,223491,128,0,223995:0:0:0:0:
256,192,223491,128,0,223869:0:0:0:0:
402,192,223491,128,0,223869:0:0:0:0:
475,192,223491,128,0,223617:0:0:0:0:
182,192,223743,128,0,223869:0:0:0:0:
329,192,223743,128,0,224121:0:0:0:0:
475,192,223743,128,0,224121:0:0:0:0:
182,192,223995,128,0,224499:0:0:0:0:
36,192,223995,128,0,224373:0:0:0:0:
256,192,223995,128,0,224373:0:0:0:0:
402,192,223995,128,0,224373:0:0:0:0:
109,192,224247,128,0,224373:0:0:0:0:
329,192,224247,128,0,224373:0:0:0:0:
475,192,224247,128,0,224373:0:0:0:0:
256,192,224499,128,0,225003:0:0:0:0:
36,192,224499,128,0,224625:0:0:0:0:
109,192,224499,128,0,224625:0:0:0:0:
402,192,224499,128,0,224625:0:0:0:0:
475,192,224499,128,0,224625:0:0:0:0:
182,192,224751,128,0,224877:0:0:0:0:
329,192,224751,128,0,224877:0:0:0:0:
402,192,224751,1,0,0:0:0:0:
109,192,224751,1,0,0:0:0:0:
329,192,225003,128,0,225508:0:0:0:0:
475,192,225003,128,0,225130:0:0:0:0:
36,192,225003,128,0,225130:0:0:0:0:
402,192,225003,1,0,0:0:0:0:
109,192,225003,1,0,0:0:0:0:
182,192,225003,1,0,0:0:0:0:
109,192,225256,128,0,225382:0:0:0:0:
256,192,225256,128,0,225382:0:0:0:0:
475,192,225256,1,0,0:0:0:0:
182,192,225256,1,0,0:0:0:0:
402,192,225508,128,0,226012:0:0:0:0:
182,192,225508,128,0,225634:0:0:0:0:
36,192,225508,128,0,225634:0:0:0:0:
109,192,225508,1,0,0:0:0:0:
475,192,225508,1,0,0:0:0:0:
256,192,225508,1,0,0:0:0:0:
329,192,225760,128,0,225886:0:0:0:0:
109,192,225760,128,0,225886:0:0:0:0:
256,192,225760,1,0,0:0:0:0:
36,192,225760,1,0,0:0:0:0:
475,192,226012,128,0,226516:0:0:0:0:
256,192,226012,128,0,226138:0:0:0:0:
36,192,226012,128,0,226138:0:0:0:0:
109,192,226012,1,0,0:0:0:0:
182,192,226012,1,0,0:0:0:0:
329,192,226012,1,0,0:0:0:0:
402,192,226264,128,0,226516:0:0:0:0:
109,192,226264,128,0,226390:0:0:0:0:
329,192,226264,128,0,226390:0:0:0:0:
256,192,226264,1,0,0:0:0:0:
36,192,226264,1,0,0:0:0:0:
36,192,226516,128,0,227146:0:0:0:0:
109,192,226516,128,0,226642:0:0:0:0:
182,192,226516,128,0,226642:0:0:0:0:
256,192,226516,128,0,226642:0:0:0:0:
329,192,226516,128,0,226642:0:0:0:0:
182,192,226768,128,0,226894:0:0:0:0:
256,192,226768,128,0,226894:0:0:0:0:
329,192,226768,128,0,226894:0:0:0:0:
402,192,226768,128,0,226894:0:0:0:0:
475,192,226768,128,0,227146:0:0:0:0:
256,192,227020,128,0,227524:0:0:0:0:
402,192,227020,128,0,227146:0:0:0:0:
329,192,227020,128,0,227398:0:0:0:0:
109,192,227020,128,0,227146:0:0:0:0:
182,192,227020,128,0,227398:0:0:0:0:
402,192,227272,128,0,227398:0:0:0:0:
475,192,227272,128,0,227398:0:0:0:0:
109,192,227272,128,0,227398:0:0:0:0:
36,192,227272,128,0,227398:0:0:0:0:
109,192,227524,128,0,227651:0:0:0:0:
182,192,227524,128,0,227903:0:0:0:0:
402,192,227524,128,0,227651:0:0:0:0:
329,192,227524,128,0,227651:0:0:0:0:
475,192,227524,128,0,227651:0:0:0:0:
36,192,227524,128,0,227651:0:0:0:0:
475,192,227777,128,0,228029:0:0:0:0:
36,192,227777,128,0,227903:0:0:0:0:
109,192,227777,128,0,227903:0:0:0:0:
256,192,227777,128,0,228155:0:0:0:0:
329,192,227777,128,0,227903:0:0:0:0:
329,192,228029,128,0,228407:0:0:0:0:
109,192,228029,128,0,228155:0:0:0:0:
182,192,228029,128,0,228155:0:0:0:0:
402,192,228029,128,0,228155:0:0:0:0:
36,192,228029,128,0,228155:0:0:0:0:
182,192,228281,128,0,229037:0:0:0:0:
256,192,228281,128,0,228659:0:0:0:0:
402,192,228281,128,0,228407:0:0:0:0:
475,192,228281,128,0,228407:0:0:0:0:
109,192,228533,128,0,228659:0:0:0:0:
329,192,228533,128,0,228911:0:0:0:0:
36,192,228533,128,0,228659:0:0:0:0:
475,192,228533,128,0,228659:0:0:0:0:
36,192,228785,128,0,229793:0:0:0:0:
109,192,228785,128,0,228911:0:0:0:0:
256,192,228785,128,0,228911:0:0:0:0:
402,192,228785,128,0,228911:0:0:0:0:
475,192,229037,128,0,229163:0:0:0:0:
402,192,229037,128,0,229415:0:0:0:0:
329,192,229037,128,0,229163:0:0:0:0:
256,192,229037,128,0,229163:0:0:0:0:
109,192,229037,128,0,229163:0:0:0:0:
182,192,229289,128,0,229415:0:0:0:0:
329,192,229289,128,0,229415:0:0:0:0:
475,192,229289,128,0,229415:0:0:0:0:
256,192,229289,128,0,229667:0:0:0:0:
109,192,229541,128,0,229667:0:0:0:0:
182,192,229541,128,0,229667:0:0:0:0:
475,192,229541,128,0,229667:0:0:0:0:
329,192,229541,128,0,229667:0:0:0:0:
402,192,229541,128,0,229667:0:0:0:0:
256,192,229793,128,0,230550:0:0:0:0:
109,192,229793,1,0,0:0:0:0:
182,192,229793,1,0,0:0:0:0:
402,192,229793,1,0,0:0:0:0:
475,192,229793,1,0,0:0:0:0:
