osu file format v12

[General]
AudioFilename: Taylor Swift - Last Christmas - Kopie.mp3
AudioLeadIn: 2000
PreviewTime: 66902
Countdown: 0
SampleSet: Soft
StackLeniency: 0.7
Mode: 0
LetterboxInBreaks: 1
WidescreenStoryboard: 1

[Editor]
Bookmarks: 100006
DistanceSpacing: 1.2
BeatDivisor: 4
GridSize: 4

[Metadata]
Title:Last Christmas
TitleUnicode:Last Christmas
Artist:Taylor Swift
ArtistUnicode:Taylor Swift
Creator:Wolf
Version:Normal
Source:
Tags:Cloudchaser XinCrin xmas
BeatmapID:327522
BeatmapSetID:129674

[Difficulty]
HPDrainRate:3
CircleSize:3
OverallDifficulty:4
ApproachRate:5
SliderMultiplier:1.4
SliderTickRate:2

[Events]
//Background and Video events
0,0,"BG.jpg",0,0
//Break Periods
//Storyboard Layer 0 (Background)
//Storyboard Layer 1 (Fail)
//Storyboard Layer 2 (Pass)
//Storyboard Layer 3 (Foreground)
//Storyboard Sound Samples
//Background Colour Transformations
3,100,163,162,255

[TimingPoints]
681,517.241379310345,4,2,1,50,1,0
17232,-100,4,2,1,50,0,0
17749,-100,4,2,1,40,0,0
33784,-100,4,2,1,50,0,0
49818,-100,4,2,1,40,0,0
50336,-100,4,2,1,50,0,0
51887,-100,4,2,1,40,0,0
52405,-100,4,2,1,50,0,0
53956,-100,4,2,1,40,0,0
54474,-100,4,2,1,50,0,0
56025,-100,4,2,1,40,0,0
56284,-100,4,2,1,50,0,0
58094,-100,4,2,1,40,0,0
58612,-100,4,2,1,50,0,0
60163,-100,4,2,1,40,0,0
60422,-100,4,2,1,50,0,0
62232,-100,4,2,1,40,0,0
62749,-100,4,2,1,50,0,0
63267,-100,4,2,1,40,0,0
63784,-100,4,2,1,50,0,0
64301,-100,4,2,1,40,0,0
66887,-100,4,2,1,50,0,1
67405,-100,4,2,1,40,0,1
75163,-100,4,2,1,50,0,1
83181,-100,4,2,1,70,0,0
83439,-100,4,2,1,50,0,1
83956,-100,4,2,1,40,0,1
99991,-100,4,2,1,40,0,0
107491,-100,4,2,1,50,0,0
107749,-100,4,2,1,40,0,0
111629,-100,4,2,1,50,0,0
111887,-100,4,2,1,40,0,0
114474,-100,4,2,1,50,0,0
114991,-100,4,2,1,40,0,0
115508,-100,4,2,1,50,0,0
116025,-100,4,2,1,40,0,0
131543,-100,4,3,1,50,0,0
131672,-100,4,2,1,40,0,0
132836,-100,4,3,1,50,0,0
133094,-100,4,2,1,50,0,1
133612,-100,4,2,1,40,0,1
141370,-100,4,2,1,50,0,1
141887,-100,4,2,1,40,0,1
147577,-100,4,2,1,50,0,1
148094,-100,4,2,1,40,0,1
148612,-100,4,2,1,50,0,1
148870,-100,4,2,1,40,0,1
149387,-100,4,3,1,50,0,0
149646,-100,4,2,1,50,0,1
150163,-100,4,2,1,40,0,1
157922,-100,4,2,1,50,0,1
158439,-100,4,2,1,40,0,1
162060,-100,4,2,1,50,0,1
162318,-100,4,2,1,40,0,1
164646,-100,4,3,1,50,0,1
164905,-100,4,2,1,40,0,1
165163,-100,4,3,1,50,0,1
165939,-100,4,3,1,50,0,0
166198,-100,4,2,1,50,0,1
166327,-100,4,2,1,70,0,0
169301,-100,4,2,1,50,0,0
169818,-100,4,2,1,40,0,0
173439,-100,4,2,1,50,0,0
173956,-100,4,2,1,40,0,0
174474,-100,4,2,1,50,0,0
174991,-100,4,2,1,40,0,0
177577,-100,4,2,1,50,0,0
178094,-100,4,2,1,40,0,0
181198,-100,4,2,1,50,0,0
181456,-100,4,2,1,40,0,0
182749,-100,4,2,1,50,0,1
183267,-100,4,2,1,40,0,1
191025,-100,4,2,1,50,0,1
191543,-100,4,2,1,40,0,1
194905,-100,4,2,1,50,0,1
195163,-100,4,2,1,40,0,1
197232,-100,4,2,1,50,0,1
197749,-100,4,3,1,50,0,1
199301,-100,4,2,1,50,0,0
205508,-100,4,2,1,5,0,0

[Colours]
Combo1 : 255,0,0
Combo2 : 240,240,240
Combo3 : 0,166,0

[HitObjects]
256,64,681,1,4,1:2:0:0:
292,228,1198,2,0,B|304:214|364:232|364:232|408:245|440:216,2,140,8|0|8,1:2|0:0|1:2,0:0:0:0:
212,256,2491,1,0,0:0:0:0:
140,216,2749,2,0,P|104:192|88:140,1,70
168,136,3267,2,0,P|204:84|240:72,1,70,8|0,1:2|0:0,0:0:0:0:
248,156,3784,2,0,P|292:164|320:188,1,70
320,264,4301,1,8,1:2:0:0:
392,220,4560,1,0,0:0:0:0:
388,136,4818,6,0,P|320:84|248:68,2,140,0|8|0,0:0|1:2|0:0,0:0:0:0:
348,300,6370,1,8,1:2:0:0:
180,324,6887,2,0,P|124:320|88:304,1,70
148,240,7405,2,0,P|112:204|104:164,1,70,8|0,1:2|0:0,0:0:0:0:
172,136,7922,2,0,P|199:157|214:189,2,70,0|0|8,0:0|0:0|1:2,0:0:0:0:
132,60,8698,1,0,0:0:0:0:
216,56,8956,6,0,P|272:104|304:180,2,140,0|8|0,0:0|1:2|0:0,0:0:0:0:
68,140,10508,1,8,1:2:0:0:
72,308,11025,2,0,P|108:316|168:304,1,70
220,280,11543,2,0,P|254:277|288:285,1,70,8|0,1:2|0:0,0:0:0:0:
368,312,12060,2,0,P|404:320|464:308,2,70,0|0|8,0:0|0:0|1:2,0:0:0:0:
356,228,12836,1,0,0:0:0:0:
416,168,13094,6,0,P|340:144|280:184,1,140,0|8,0:0|1:2,0:0:0:0:
148,260,14129,2,0,P|211:285|273:257,1,140,0|8,0:0|1:2,0:0:0:0:
256,192,15163,12,8,16715,1:2:0:0:
76,196,17232,6,0,P|100:240|188:252,1,140,4|8,1:2|1:2,0:0:0:0:
160,172,18008,2,0,P|227:175|271:230,1,140,0|0,0:0|0:0,0:0:0:0:
272,312,18784,1,8,1:2:0:0:
348,268,19043,2,0,P|388:296|424:304,2,70,0|0|0,0:0|0:0|0:0,0:0:0:0:
356,184,19818,1,8,1:2:0:0:
332,104,20077,2,0,P|276:76|184:112,1,140,0|0,0:0|0:0,0:0:0:0:
120,76,20853,1,8,1:2:0:0:
56,128,21112,1,0,0:0:0:0:
76,208,21370,6,0,P|64:248|80:304,1,70,0|0,0:0|0:0,0:0:0:0:
148,256,21887,2,0,P|148:304|72:360,2,140,8|0|8,1:2|0:0|1:2,0:0:0:0:
216,204,23181,1,0,0:0:0:0:
252,128,23439,2,0,P|280:84|312:68,1,70,0|0,0:0|0:0,0:0:0:0:
336,152,23956,2,0,P|388:140|452:196,1,140,8|0,1:2|0:0,0:0:0:0:
432,272,24732,1,0,0:0:0:0:
432,272,24991,1,8,1:2:0:0:
268,312,25508,6,0,B|264:256|168:228|168:228|68:192|72:108,2,280,0|0|0,0:0|0:0|0:0,0:0:0:0:
348,336,27836,1,0,0:0:0:0:
392,264,28094,1,8,1:2:0:0:
320,220,28353,2,0,B|300:184|232:160|232:160|140:136|152:72,1,210,0|8,0:0|1:2,0:0:0:0:
236,72,29387,1,0,0:0:0:0:
316,44,29646,6,0,P|368:60|396:92,1,70,0|0,0:0|0:0,0:0:0:0:
420,140,30163,1,8,1:2:0:0:
364,200,30422,2,0,P|300:208|260:280,1,140,0|0,0:0|0:0,0:0:0:0:
292,344,31198,1,8,1:2:0:0:
344,280,31456,2,0,L|232:148,1,140,0|0,0:0|0:0,0:0:0:0:
220,96,32232,2,0,P|188:80|152:76,1,70,8|0,1:2|0:0,0:0:0:0:
124,156,32749,2,0,P|84:172|64:192,2,70,0|0|8,0:0|0:0|1:2,0:0:0:0:
136,240,33525,1,0,0:0:0:0:
208,284,33784,6,0,P|256:304|336:252,1,140,2|0,0:0|0:0,0:0:0:0:
452,148,34818,2,0,P|386:128|330:166,1,140,0|0,0:0|0:0,0:0:0:0:
248,180,35594,1,0,0:0:0:0:
164,176,35853,2,0,P|228:204|268:292,1,140,0|0,0:0|0:0,0:0:0:0:
236,340,36629,2,0,P|268:300|372:284,1,140,0|0,0:0|0:0,0:0:0:0:
388,204,37405,2,0,L|456:220,2,70,0|0|2,0:0|0:0|0:0,0:0:0:0:
224,176,38439,6,0,P|204:124|176:104,1,70,0|0,0:0|0:0,0:0:0:0:
236,44,38956,2,0,P|172:36|112:96,1,140,0|0,0:0|0:0,0:0:0:0:
64,148,39732,1,0,0:0:0:0:
124,208,39991,2,0,P|96:240|92:288,2,70,2|0|0,0:0|0:0|0:0,0:0:0:0:
172,276,40767,2,0,P|252:324|308:300,2,140,0|2|2,0:0|0:0|0:0,0:0:0:0:
248,240,42060,1,2,0:0:0:0:
180,84,42577,6,0,B|112:108|124:200|124:200|80:196|44:236,1,210,2|2,0:0|0:0,0:0:0:0:
116,284,43612,1,0,0:0:0:0:
272,344,44129,1,2,0:0:0:0:
352,316,44387,2,0,P|400:288|416:272,1,70,0|0,0:0|0:0,0:0:0:0:
448,204,44905,2,0,P|424:136|296:128,1,210,0|0,0:0|0:0,0:0:0:0:
196,256,46198,6,0,B|172:244|132:268|132:268|92:296|44:280,2,140,2|0|2,0:0|0:0|0:0,0:0:0:0:
352,320,47749,2,0,P|424:308|456:240,2,140,2|2|2,0:0|0:0|0:0,0:0:0:0:
372,240,49043,1,0,0:0:0:0:
424,176,49301,2,0,P|408:136|364:104,1,70,2|0,0:0|0:0,0:0:0:0:
312,84,49818,2,0,P|228:100|192:164,1,140,8|0,1:2|0:0,0:0:0:0:
228,308,50853,6,0,P|264:288|284:252,1,70,2|0,0:0|0:0,0:0:0:0:
356,228,51370,2,0,P|408:200|480:260,2,140,0|8|0,0:0|1:2|0:0,0:0:0:0:
272,228,52663,1,0,0:0:0:0:
188,216,52922,2,0,P|156:224|96:208,1,70,0|0,0:0|0:0,0:0:0:0:
148,140,53439,2,0,B|196:120|240:148|240:148|284:124|308:124,1,140,2|8,0:0|1:2,0:0:0:0:
404,104,54474,6,0,B|440:156|408:212|408:212|372:268|412:324,2,210,2|2|10,0:0|0:0|1:2,0:0:0:0:
340,160,56284,1,0,0:0:0:0:
328,76,56543,2,0,P|292:88|264:124,1,70,0|0,0:0|0:0,0:0:0:0:
196,152,57060,1,0,0:0:0:0:
116,176,57318,1,2,0:0:0:0:
116,260,57577,2,0,P|132:324|212:340,1,140,0|10,0:0|1:2,0:0:0:0:
316,228,58612,6,0,P|360:144|420:136,1,140,2|2,0:0|0:0,0:0:0:0:
400,220,59387,1,2,0:0:0:0:
368,296,59646,2,0,P|340:328|292:340,1,70,0|0,0:0|0:0,0:0:0:0:
232,340,60163,1,8,0:0:0:0:
164,288,60422,2,0,P|112:248|172:132,1,210,2|2,0:0|0:0,0:0:0:0:
208,64,61456,1,2,0:0:0:0:
292,76,61715,2,0,P|340:88|364:104,1,70,0|0,0:0|0:0,0:0:0:0:
400,172,62232,6,0,B|392:216|360:232|360:232|368:276|320:316,1,140,8|2,1:2|0:0,0:0:0:0:
276,244,63008,1,0,0:0:0:0:
260,328,63267,2,0,P|240:256|168:204,1,140,8|0,1:2|0:0,0:0:0:0:
112,228,64043,1,0,0:0:0:0:
136,148,64301,2,0,L|204:104,1,70,8|0,1:2|0:0,0:0:0:0:
256,192,64818,12,8,66370,1:2:0:0:
128,204,66887,6,0,P|187:238|252:219,1,140,4|8,0:0|1:2,0:0:0:0:
200,152,67663,2,0,P|264:132|328:176,1,140,0|0,0:0|0:0,0:0:0:0:
400,200,68439,1,8,1:2:0:0:
392,284,68698,1,0,0:0:0:0:
308,296,68956,2,0,P|264:316|212:324,1,70,0|0,0:0|0:0,0:0:0:0:
236,236,69474,2,0,P|202:245|171:261,1,70,8|0,1:2|0:0,0:0:0:0:
152,344,69991,2,0,P|92:300|100:220,1,140,0|8,0:0|1:2,0:0:0:0:
60,160,70767,1,0,0:0:0:0:
140,120,71025,6,0,B|188:108|216:64|216:64|244:100|280:100,2,140,0|8|0,0:0|1:2|0:0,0:0:0:0:
164,288,72577,2,0,P|212:292|252:316,1,70,8|0,1:2|0:0,0:0:0:0:
316,316,73094,2,0,P|356:312|388:292,1,70,0|0,0:0|0:0,0:0:0:0:
328,232,73612,1,8,1:2:0:0:
412,224,73870,2,0,P|388:172|252:192,1,210,0|8,0:0|1:2,0:0:0:0:
176,224,74905,1,0,0:0:0:0:
112,280,75163,6,0,B|64:208|128:152|128:152|100:136|68:100,2,210,4|0|8,1:2|0:0|1:2,0:0:0:0:
176,332,76974,1,0,0:0:0:0:
260,328,77232,2,0,P|316:324|348:308,1,70,0|0,0:0|0:0,0:0:0:0:
380,256,77749,1,8,1:2:0:0:
416,180,78008,2,0,B|376:124|304:140|304:140|300:100|256:72,1,210,0|8,0:0|1:2,0:0:0:0:
220,148,79043,1,0,0:0:0:0:
144,184,79301,6,0,P|88:232|88:308,1,140,0|8,0:0|1:2,0:0:0:0:
164,268,80077,2,0,P|208:292|304:264,1,140,0|0,0:0|0:0,0:0:0:0:
356,216,80853,2,0,P|364:176|400:140,1,70,8|0,1:2|0:0,0:0:0:0:
440,212,81370,2,0,L|172:112,1,280,0|0,0:0|0:0,0:0:0:0:
100,88,82663,1,8,1:2:0:0:
100,88,82922,1,8,1:2:0:0:
56,248,83439,6,0,B|108:276|152:236|152:236|164:252|204:272,1,140,4|8,1:2|1:2,0:0:0:0:
228,192,84215,2,0,P|280:176|308:84,1,140,0|0,0:0|0:0,0:0:0:0:
228,104,84991,1,8,1:2:0:0:
156,148,85249,1,0,0:0:0:0:
140,232,85508,2,0,P|108:256|52:256,1,70,0|0,0:0|0:0,0:0:0:0:
76,176,86025,1,8,1:2:0:0:
156,148,86284,2,0,P|216:104|340:172,1,210,0|8,0:0|1:2,0:0:0:0:
404,196,87318,1,0,0:0:0:0:
360,268,87577,6,0,B|316:268|292:288|292:288|248:324|208:300,2,140,0|8|0,0:0|1:2|0:0,0:0:0:0:
404,196,88870,1,0,0:0:0:0:
348,136,89129,2,0,P|288:148|232:80,1,140,8|0,1:2|0:0,0:0:0:0:
164,52,89905,1,0,0:0:0:0:
88,88,90163,1,8,1:2:0:0:
156,140,90422,2,0,P|208:212|332:236,1,210,0|8,0:0|1:2,0:0:0:0:
392,280,91456,1,0,0:0:0:0:
324,328,91715,6,0,P|236:328|172:296,1,140,0|8,1:2|1:2,0:0:0:0:
116,352,92491,2,0,P|60:288|72:208,1,140,0|0,0:0|0:0,0:0:0:0:
128,184,93267,1,8,1:2:0:0:
204,220,93525,1,0,0:0:0:0:
288,228,93784,2,0,P|280:180|252:148,1,70,0|0,0:0|0:0,0:0:0:0:
236,84,94301,1,8,1:2:0:0:
320,92,94560,2,0,P|356:140|376:228,1,140,0|0,0:0|0:0,0:0:0:0:
344,296,95336,1,8,1:2:0:0:
264,312,95594,1,0,0:0:0:0:
180,308,95853,6,0,P|136:288|116:248,1,70,0|0,0:0|0:0,0:0:0:0:
60,216,96370,1,8,1:2:0:0:
132,172,96629,2,0,P|164:148|260:200,2,140,0|0|0,0:0|0:0|0:0,0:0:0:0:
256,192,97922,12,0,99991,0:0:0:0:
328,144,100508,6,0,P|352:168|384:184,1,70,8|0,1:2|0:0,0:0:0:0:
440,248,101025,2,0,L|308:320,1,140,0|8,0:0|1:2,0:0:0:0:
240,284,101801,1,0,0:0:0:0:
244,200,102060,2,0,P|184:220|156:288,1,140,0|8,0:0|1:2,0:0:0:0:
240,284,102836,2,0,P|320:232|288:128,1,210,0|8,0:0|1:2,0:0:0:0:
140,68,104129,5,0,0:0:0:0:
92,228,104646,2,0,P|72:268|28:320,2,105,8|0|0,1:2|0:0|0:0,0:0:0:0:
60,152,105681,2,0,P|128:152|172:208,1,140,8|0,1:2|0:0,0:0:0:0:
224,268,106456,2,0,P|300:252|352:216,1,140,0|0,0:0|0:0,0:0:0:0:
324,136,107232,1,0,0:0:0:0:
304,56,107491,2,0,P|336:52|380:72,2,70,2|8|0,0:0|1:2|0:0,0:0:0:0:
228,88,108267,5,0,0:0:0:0:
168,144,108525,2,0,P|144:176|108:200,2,70,0|8|0,0:0|1:2|0:0,0:0:0:0:
228,88,109301,2,0,P|264:160|264:240,1,140,0|8,0:0|1:2,0:0:0:0:
220,288,110077,1,0,0:0:0:0:
136,280,110336,1,0,0:0:0:0:
136,280,110594,1,0,0:0:0:0:
60,316,110853,2,8,B|12:228|12:228|12:160|84:136,1,210,8|2,1:2|0:0,0:0:0:0:
152,132,111887,1,8,1:2:0:0:
288,232,112405,6,0,B|312:172|268:156|288:92,1,140,0|8,0:0|1:2,0:0:0:0:
416,204,113439,2,0,P|336:200|284:236,1,140,0|8,0:0|1:2,0:0:0:0:
172,356,114474,2,0,P|136:312|136:268,1,70,2|0,0:0|0:0,0:0:0:0:
192,240,114991,1,8,1:2:0:0:
276,224,115249,1,0,0:0:0:0:
348,180,115508,2,0,P|360:224|352:256,2,70,2|0|8,0:0|0:0|1:2,0:0:0:0:
192,116,116543,6,0,B|214:176|259:161|276:225,1,140,0|8,0:0|1:2,0:0:0:0:
156,340,117577,2,0,P|100:324|60:248,1,140,0|8,0:0|1:2,0:0:0:0:
68,88,118612,2,0,P|12:100|-20:132,2,70,0|0|8,0:0|0:0|1:2,0:0:0:0:
132,140,119387,2,0,P|232:168|332:140,1,210,0|8,0:0|1:2,0:0:0:0:
300,304,120681,6,0,P|232:320|160:304,1,140,0|8,0:0|1:2,0:0:0:0:
100,252,121456,2,0,P|64:272|40:296,2,70,0|0|0,0:0|0:0|0:0,0:0:0:0:
176,212,122232,2,0,P|216:192|240:160,1,70,8|0,1:2|0:0,0:0:0:0:
276,100,122749,2,0,B|332:140|312:208|312:208|338:235|392:260,1,210,0|0,0:0|0:0,0:0:0:0:
464,108,124043,1,0,0:0:0:0:
464,108,124301,1,8,1:2:0:0:
384,256,124818,6,0,L|256:316,1,140,0|8,0:0|1:2,0:0:0:0:
180,348,125594,2,0,B|116:304|116:304|104:224|180:200,1,210,0|8,0:0|1:2,0:0:0:0:
260,192,126629,2,0,P|352:132|328:40,1,210,0|8,0:0|1:2,0:0:0:0:
276,108,127663,2,0,P|368:164|440:76,1,210,0|8,0:0|1:2,0:0:0:0:
276,108,128956,6,0,L|136:116,1,140,0|8,0:0|1:2,0:0:0:0:
80,56,129732,2,0,P|52:120|104:192,2,140,0|0|0,0:0|0:0|0:0,0:0:0:0:
136,116,131025,5,8,1:2:0:0:
200,172,131284,1,0,0:0:0:0:
284,176,131543,2,0,P|252:238|188:256,1,140,8|8,0:0|1:2,0:0:0:0:
112,220,132318,2,0,P|72:252|52:280,2,70,8|8|4,1:2|1:2|0:0,0:0:0:0:
188,256,133094,6,0,P|276:276|344:268,1,140,4|8,0:0|1:2,0:0:0:0:
304,192,133870,2,0,P|391:224|388:328,1,210,0|8,0:0|1:2,0:0:0:0:
308,348,134905,2,0,L|228:348,2,70,0|0|0,0:0|0:0|0:0,0:0:0:0:
388,328,135681,1,8,1:2:0:0:
470,343,135939,2,0,P|466:195|406:135,1,210,0|8,0:0|1:2,0:0:0:0:
356,116,136974,1,0,0:0:0:0:
284,156,137232,6,0,L|144:156,2,140,0|8|0,0:0|1:2|0:0,0:0:0:0:
420,60,138784,1,8,1:2:0:0:
336,52,139043,2,0,P|340:92|360:120,2,70,0|0|0,0:0|0:0|0:0,0:0:0:0:
420,60,139818,1,8,1:2:0:0:
440,140,140077,2,0,P|352:200|272:140,1,210,0|8,0:0|1:2,0:0:0:0:
108,164,141370,6,0,P|72:236|96:320,1,140,4|8,1:2|1:2,0:0:0:0:
164,308,142146,2,0,P|224:312|288:360,1,140,0|0,0:0|0:0,0:0:0:0:
348,300,142922,2,0,P|392:268|420:264,1,70,8|0,1:2|0:0,0:0:0:0:
412,180,143439,1,0,0:0:0:0:
344,132,143698,1,0,0:0:0:0:
276,180,143956,1,8,1:2:0:0:
268,264,144215,2,0,P|196:212|232:108,1,210,0|8,0:0|1:2,0:0:0:0:
60,96,145508,6,0,P|44:144|56:184,1,70,0|0,0:0|0:0,0:0:0:0:
116,212,146025,1,8,1:2:0:0:
40,248,146284,2,0,P|104:296|168:276,2,140,0|0|0,0:0|0:0|0:0,0:0:0:0:
116,212,147577,2,0,L|180:168,1,70,2|4,0:0|0:0,0:0:0:0:
256,152,148094,1,8,1:2:0:0:
338,172,148353,2,0,L|396:212,1,70,0|2,0:0|0:0,0:0:0:0:
432,288,148870,1,8,1:2:0:0:
364,340,149129,2,0,P|344:284|356:248,1,70,8|4,1:2|0:0,0:0:0:0:
396,212,149646,6,0,P|420:136|400:76,1,140,4|8,1:2|1:2,0:0:0:0:
324,48,150422,2,0,L|184:48,2,140,0|0|0,0:0|0:0|0:0,0:0:0:0:
328,132,151715,2,0,P|304:160|268:172,1,70,0|0,0:0|0:0,0:0:0:0:
200,132,152232,1,8,1:2:0:0:
116,132,152491,2,0,P|88:224|128:328,1,210,0|8,0:0|1:2,0:0:0:0:
292,292,153784,6,0,L|448:292,1,140,0|8,0:0|1:2,0:0:0:0:
392,128,154818,2,0,P|320:124|248:176,1,140,0|8,0:0|1:2,0:0:0:0:
152,280,155853,2,0,P|120:252|104:220,1,70,0|0,0:0|0:0,0:0:0:0:
60,160,156370,1,8,1:2:0:0:
16,232,156629,2,0,P|100:232|128:108,1,210,0|8,0:0|1:2,0:0:0:0:
300,76,157922,6,0,P|380:132|380:200,1,140,4|8,0:0|1:2,0:0:0:0:
328,228,158698,2,0,P|248:172|248:104,1,140,0|0,0:0|0:0,0:0:0:0:
172,88,159474,2,0,L|88:88,1,70,8|0,1:2|0:0,0:0:0:0:
104,172,159991,2,0,P|156:224|192:304,1,140,0|8,0:0|1:2,0:0:0:0:
260,324,160767,2,0,P|360:348|464:324,1,210,0|8,0:0|1:2,0:0:0:0:
448,156,162060,6,0,P|412:160|376:155,1,70,2|0,0:0|0:0,0:0:0:0:
308,112,162577,1,8,1:2:0:0:
256,176,162836,2,0,P|224:228|208:240,2,70,0|0|0,0:0|0:0|0:0,0:0:0:0:
220,100,163612,2,0,L|144:100,1,70,8|0,1:2|0:0,0:0:0:0:
88,160,164129,2,0,P|124:212|144:304,1,140,8|4,1:2|0:0,0:0:0:0:
228,292,164905,2,0,P|268:296|300:280,1,70,8|8,1:2|0:0,0:0:0:0:
368,244,165422,1,8,0:0:0:0:
333,167,165681,1,4,0:0:0:0:
384,100,165939,1,4,0:0:0:0:
436,164,166198,6,0,P|335:169|304:80,2,210,4|0|8,0:0|0:0|1:2,0:0:0:0:
304,80,168267,2,0,L|152:80,1,140,0|8,0:0|1:2,0:0:0:0:
92,124,169043,1,0,0:0:0:0:
128,200,169301,2,0,L|128:272,2,70,2|0|8,0:0|0:0|1:2,0:0:0:0:
292,232,170336,5,0,0:0:0:0:
388,96,170853,1,8,1:2:0:0:
220,104,171370,1,0,0:0:0:0:
368,180,171887,1,8,1:2:0:0:
208,236,172405,2,0,L|68:236,1,140,0|8,0:0|1:2,0:0:0:0:
36,160,173181,1,0,0:0:0:0:
108,116,173439,2,0,P|72:80|24:76,2,70,2|0|8,0:0|0:0|1:2,0:0:0:0:
136,284,174474,6,0,P|192:320|280:284,1,140,4|8,1:2|1:2,0:0:0:0:
212,236,175249,2,0,P|312:236|336:340,2,210,0|8|0,0:0|1:2|0:0,0:0:0:0:
136,268,177060,2,0,L|48:268,1,70,8|0,1:2|0:0,0:0:0:0:
88,188,177577,2,0,P|132:144|144:116,1,70,2|0,0:0|0:0,0:0:0:0:
200,84,178094,1,8,1:2:0:0:
256,148,178353,1,0,0:0:0:0:
244,232,178612,6,0,P|332:184|312:88,2,210,0|0|8,0:0|0:0|1:2,0:0:0:0:
164,208,180422,1,0,0:0:0:0:
96,260,180681,2,0,P|80:228|84:180,1,70,8|0,1:2|0:0,0:0:0:0:
164,208,181198,1,2,0:0:0:0:
184,288,181456,2,0,P|232:320|264:328,1,70,8|0,1:2|0:0,0:0:0:0:
324,296,181974,2,0,L|416:296,2,70,0|8|0,0:0|1:2|0:0,0:0:0:0:
264,240,182749,6,0,P|240:172|256:108,1,140,4|8,1:2|1:2,0:0:0:0:
332,72,183525,2,0,L|488:128,2,140,0|0|0,0:0|0:0|0:0,0:0:0:0:
256,108,184818,2,0,P|220:112|184:107,1,70,0|0,0:0|0:0,0:0:0:0:
104,112,185336,1,8,1:2:0:0:
48,176,185594,2,0,P|96:284|204:320,1,210,0|8,0:0|1:2,0:0:0:0:
256,292,186629,1,0,0:0:0:0:
296,220,186887,6,0,P|328:248|336:292,1,70,0|0,0:0|0:0,0:0:0:0:
404,324,187405,2,0,P|408:224|372:180,2,140,8|0|8,1:2|0:0|1:2,0:0:0:0:
320,308,188698,1,0,0:0:0:0:
240,336,188956,2,0,L|164:336,1,70,0|0,0:0|0:0,0:0:0:0:
108,280,189474,1,8,1:2:0:0:
184,244,189732,2,0,P|200:152|116:88,1,210,0|8,0:0|1:2,0:0:0:0:
184,244,191025,6,0,L|356:244,1,140,4|8,1:2|1:2,0:0:0:0:
380,180,191801,2,0,P|384:304|304:328,1,210,0|8,0:0|1:2,0:0:0:0:
236,316,192836,1,0,0:0:0:0:
152,304,193094,2,0,L|56:304,1,70,0|0,0:0|0:0,0:0:0:0:
24,240,193612,1,8,1:2:0:0:
104,216,193870,2,0,B|216:216|216:216|260:180|232:112,1,210,0|8,0:0|1:2,0:0:0:0:
172,76,194905,1,2,0:0:0:0:
252,48,195163,6,0,L|332:48,1,70,0|0,0:0|0:0,0:0:0:0:
392,96,195681,2,0,P|408:132|444:156,1,70,8|0,1:2|0:0,0:0:0:0:
432,236,196198,2,0,P|418:268|392:290,2,70,0|0|0,0:0|0:0|0:0,0:0:0:0:
348,220,196974,1,8,1:2:0:0:
280,272,197232,2,0,L|136:272,1,140,2|8,0:0|0:0,0:0:0:0:
188,112,198267,2,0,L|336:112,1,140,8|4,0:0|0:0,0:0:0:0:
280,272,199301,1,4,1:2:0:0:
256,192,199431,12,0,205508,0:0:0:0:
