osu file format v12

[General]
AudioFilename: Taylor Swift - Last Christmas - Kopie.mp3
AudioLeadIn: 2000
PreviewTime: 66902
Countdown: 0
SampleSet: Soft
StackLeniency: 0.7
Mode: 0
LetterboxInBreaks: 1
WidescreenStoryboard: 1

[Editor]
Bookmarks: 99991
DistanceSpacing: 0.9
BeatDivisor: 4
GridSize: 4

[Metadata]
Title:Last Christmas
TitleUnicode:Last Christmas
Artist:Taylor Swift
ArtistUnicode:Taylor Swift
Creator:Wolf
Version:Easy
Source:
Tags:Cloudchaser XinCrin xmas
BeatmapID:327520
BeatmapSetID:129674

[Difficulty]
HPDrainRate:2
CircleSize:3
OverallDifficulty:2
ApproachRate:2
SliderMultiplier:1
SliderTickRate:2

[Events]
//Background and Video events
0,0,"BG.jpg",0,0
//Break Periods
//Storyboard Layer 0 (Background)
//Storyboard Layer 1 (Fail)
//Storyboard Layer 2 (Pass)
//Storyboard Layer 3 (Foreground)
//Storyboard Sound Samples
//Background Colour Transformations
3,100,163,162,255

[TimingPoints]
681,517.241379310345,4,2,1,50,1,0
17232,-100,4,2,1,50,0,0
33784,-100,4,2,1,50,0,0
49818,-100,4,2,1,40,0,0
50336,-100,4,2,1,50,0,0
51887,-100,4,2,1,40,0,0
52405,-100,4,2,1,50,0,0
53956,-100,4,2,1,40,0,0
54474,-100,4,2,1,50,0,0
56025,-100,4,2,1,40,0,0
56543,-100,4,2,1,50,0,0
58094,-100,4,2,1,40,0,0
58612,-100,4,2,1,50,0,0
60163,-100,4,2,1,40,0,0
60681,-100,4,2,1,50,0,0
62232,-100,4,2,1,40,0,0
62749,-100,4,2,1,50,0,0
63267,-100,4,2,1,40,0,0
66887,-100,4,2,1,50,0,1
67405,-100,4,2,1,40,0,1
75163,-100,4,2,1,50,0,1
75681,-100,4,2,1,40,0,1
83181,-100,4,2,1,70,0,0
83439,-100,4,2,1,50,0,1
99991,-100,4,2,1,40,0,0
114474,-100,4,2,1,50,0,0
114991,-100,4,2,1,40,0,0
115508,-100,4,2,1,50,0,0
116025,-100,4,2,1,40,0,0
119387,-100,4,2,1,50,0,0
120163,-100,4,2,1,40,0,0
123784,-100,4,2,1,50,0,0
124301,-100,4,2,1,40,0,0
125594,-100,4,2,1,50,0,0
126370,-100,4,2,1,40,0,0
127663,-100,4,2,1,50,0,0
128439,-100,4,2,1,40,0,0
131543,-100,4,3,1,50,0,0
132060,-100,4,2,1,40,0,0
133094,-100,4,2,1,50,0,1
141370,-100,4,2,1,50,0,1
147577,-100,4,2,1,40,0,1
148612,-100,4,3,1,50,0,1
149129,-100,4,2,1,40,0,1
149387,-100,4,2,1,70,0,0
149646,-100,4,2,1,50,0,1
150163,-100,4,2,1,40,0,1
157922,-100,4,2,1,50,0,1
158439,-100,4,2,1,40,0,1
163094,-100,4,2,1,50,0,1
163612,-100,4,2,1,40,0,1
164646,-100,4,3,1,50,0,1
165163,-100,4,3,1,50,0,1
165939,-100,4,3,1,50,0,0
166198,-100,4,2,1,50,0,1
166327,-100,4,2,1,40,0,0
169301,-100,4,2,1,50,0,0
169818,-100,4,2,1,40,0,0
173439,-100,4,2,1,50,0,0
173956,-100,4,2,1,40,0,0
174474,-100,4,2,1,50,0,0
177577,-100,4,2,1,50,0,0
178094,-100,4,2,1,40,0,0
182749,-100,4,2,1,50,0,1
183267,-100,4,2,1,40,0,1
191025,-100,4,2,1,50,0,1
191543,-100,4,2,1,40,0,1
197232,-100,4,2,1,50,0,1
197749,-100,4,3,1,50,0,1
199301,-100,4,2,1,50,0,0
205508,-100,4,2,1,5,0,0

[Colours]
Combo1 : 255,0,0
Combo2 : 240,240,240
Combo3 : 0,166,0

[HitObjects]
64,176,681,2,0,B|104:152|156:180|156:180|212:208|264:184,1,200,4|0,1:2|0:0,0:0:0:0:
340,152,2232,1,8,1:2:0:0:
364,240,2749,2,0,P|396:280|448:296,2,100,0|8|0,0:0|1:2|0:0,0:0:0:0:
448,208,4301,1,8,1:2:0:0:
380,148,4818,1,0,0:0:0:0:
296,180,5336,6,0,P|224:200|224:100,1,200,8|8,1:2|1:2,0:0:0:0:
308,92,6887,1,0,0:0:0:0:
380,148,7405,2,0,P|388:188|348:252,2,100,8|0|8,0:0|0:0|0:0,0:0:0:0:
308,92,8956,1,0,0:0:0:0:
296,180,9474,6,0,P|236:204|184:96,1,200,8|8,1:2|1:2,0:0:0:0:
108,52,11025,1,0,0:0:0:0:
88,140,11543,2,0,P|120:236|216:284,1,200,8|8,1:2|1:2,0:0:0:0:
284,320,13094,1,0,0:0:0:0:
344,252,13612,6,0,P|396:220|448:220,2,100,8|0|8,1:2|0:0|1:2,0:0:0:0:
256,192,15163,12,8,16715,1:2:0:0:
259,221,17232,6,0,P|219:307|124:312,1,200,4|0,1:2|0:0,0:0:0:0:
168,232,18784,1,8,1:2:0:0:
80,244,19301,2,0,P|119:157|220:156,1,200,0|0,0:0|0:0,0:0:0:0:
304,168,20853,6,0,P|352:152|380:112,2,100,8|0|8,1:2|0:0|1:2,0:0:0:0:
288,256,22405,2,0,B|251:289|188:269|188:269|118:239|82:279,1,200,0|0,0:0|0:0,0:0:0:0:
36,328,23956,2,0,P|96:264|68:156,1,200,8|8,1:2|1:2,0:0:0:0:
120,84,25508,5,0,0:0:0:0:
208,108,26025,2,0,P|276:172|380:140,1,200,8|8,1:2|1:2,0:0:0:0:
316,80,27577,2,0,B|276:116|292:180|292:180|308:244|268:268,1,200,0|0,0:0|0:0,0:0:0:0:
188,292,29129,1,8,1:2:0:0:
204,204,29646,6,0,P|156:188|128:148,1,100,0|8,0:0|1:2,0:0:0:0:
180,76,30681,2,0,P|228:92|256:132,1,100,0|8,0:0|1:2,0:0:0:0:
296,212,31715,2,0,P|312:280|420:252,1,200,0|0,0:0|0:0,0:0:0:0:
460,180,33267,1,8,1:2:0:0:
388,128,33784,6,0,B|380:100|308:104|308:104|216:112|196:52,1,200,2|0,0:0|0:0,0:0:0:0:
124,32,35336,2,0,P|76:60|48:112,1,100,0|0,0:0|0:0,0:0:0:0:
88,180,36370,1,0,0:0:0:0:
44,260,36887,2,0,B|68:292|144:264|144:264|208:236|240:272,1,200,0|2,0:0|0:0,0:0:0:0:
320,276,38439,5,0,0:0:0:0:
392,224,38956,2,0,L|436:124,1,100,0|0,0:0|0:0,0:0:0:0:
408,44,39991,2,0,B|376:36|320:80|320:80|264:120|208:104,1,200,2|0,0:0|0:0,0:0:0:0:
136,84,41543,1,0,0:0:0:0:
80,156,42060,6,0,P|68:196|192:276,1,200,2|0,0:0|0:0,0:0:0:0:
252,240,43612,1,0,0:0:0:0:
332,280,44129,6,0,P|420:247|425:153,1,200,2|0,0:0|0:0,0:0:0:0:
372,80,45681,1,0,0:0:0:0:
296,128,46198,6,0,P|252:156|188:148,1,100,2|0,0:0|0:0,0:0:0:0:
228,68,47232,2,0,P|136:96|120:188,1,200,2|2,0:0|0:0,0:0:0:0:
176,260,48784,2,0,P|136:300|88:316,2,100,2|2|8,0:0|0:0|1:2,0:0:0:0:
252,216,50336,6,0,B|280:188|348:220|348:220|424:248|456:212,1,200,0|0,0:0|0:0,0:0:0:0:
408,140,51887,1,8,1:2:0:0:
384,52,52405,2,0,L|268:68,1,100,0|0,0:0|0:0,0:0:0:0:
204,24,53439,2,0,L|96:36,1,100,2|8,0:0|1:2,0:0:0:0:
52,108,54474,6,0,P|52:184|172:216,1,200,2|0,0:0|0:0,0:0:0:0:
240,192,56025,1,10,1:2:0:0:
308,248,56543,2,0,B|312:204|364:180|364:180|432:144|416:80,1,200,0|2,0:0|0:0,0:0:0:0:
328,96,58094,1,10,1:2:0:0:
244,60,58612,6,0,B|217:91|149:81|149:81|105:135|42:124,1,200,2|0,0:0|0:0,0:0:0:0:
36,212,60163,1,8,1:2:0:0:
116,252,60681,2,0,B|156:258|202:207|202:207|270:221|312:171,1,200,0|0,0:0|0:0,0:0:0:0:
236,120,62232,6,0,P|236:68|280:28,2,100,8|2|8,1:2|0:0|1:2,0:0:0:0:
324,100,63784,2,0,L|120:52,1,200,0|0,0:0|0:0,0:0:0:0:
256,192,65336,12,4,66887,1:2:0:0:
260,168,67405,6,0,P|232:216|180:232,1,100,8|0,1:2|0:0,0:0:0:0:
172,144,68439,1,8,1:2:0:0:
236,80,68956,2,0,P|280:80|336:216,1,200,0|0,0:0|0:0,0:0:0:0:
261,167,70508,1,8,1:2:0:0:
172,144,71025,6,0,L|104:220,1,100,0|8,0:0|1:2,0:0:0:0:
72,304,72060,2,0,B|108:324|176:304|176:304|236:288|268:300,1,200,0|0,0:0|0:0,0:0:0:0:
316,224,73612,1,8,1:2:0:0:
264,152,74129,2,0,B|232:164|172:148|172:148|104:128|68:149,1,200,0|4,0:0|1:2,0:0:0:0:
116,228,75681,5,8,1:2:0:0:
204,248,76198,2,0,P|224:296|288:320,1,100,0|8,0:0|1:2,0:0:0:0:
288,232,77232,1,0,0:0:0:0:
372,268,77749,1,8,1:2:0:0:
404,184,78267,1,0,0:0:0:0:
324,144,78784,1,8,1:2:0:0:
236,156,79301,6,0,P|196:192|136:192,2,100,0|8|0,0:0|1:2|0:0,0:0:0:0:
232,64,80853,2,0,P|180:56|76:160,1,200,8|8,1:2|1:2,0:0:0:0:
92,236,82405,2,0,L|36:276,2,50,0|8|8,0:0|0:0|1:2,0:0:0:0:
176,264,83439,6,0,B|246:278|282:218|282:218|358:222,1,200,4|0,1:2|0:0,1:2:0:0:
420,156,84991,1,8,1:2:0:0:
440,68,85508,2,0,P|390:70|349:97,1,100,0|8,0:0|1:2,0:0:0:0:
276,148,86543,2,0,P|187:181|122:114,1,200,0|0,0:0|0:0,0:0:0:0:
208,96,88094,6,0,P|256:64|312:72,2,100,8|0|8,1:2|0:0|1:2,0:0:0:0:
276,152,89646,1,0,0:0:0:0:
364,144,90163,2,0,P|320:228|224:228,1,200,8|8,1:2|1:2,0:0:0:0:
144,264,91715,6,0,B|119:217|155:169|155:169|127:125|147:74,1,200,0|0,1:2|0:0,0:0:0:0:
228,112,93267,1,8,1:2:0:0:
244,200,93784,2,0,P|285:225|301:271,2,100,0|8|0,0:0|0:0|0:0,0:0:0:0:
228,112,95336,5,8,1:2:0:0:
296,56,95853,1,0,0:0:0:0:
384,72,96370,2,0,P|432:108|440:168,2,100,8|0|8,1:2|0:0|1:2,0:0:0:0:
256,192,97922,12,0,99991,0:0:0:0:
144,88,100508,6,0,B|208:168|124:196|188:284,1,200,8|8,1:2|1:2,0:0:0:0:
256,328,102060,1,0,0:0:0:0:
332,280,102577,2,0,P|344:232|328:176,2,100,8|0|8,1:2|0:0|1:2,0:0:0:0:
256,328,104129,6,0,L|56:328,1,200,0|0,0:0|0:0,0:0:0:0:
12,252,105681,1,8,1:2:0:0:
80,192,106198,2,0,P|128:168|152:116,1,100,0|8,0:0|1:2,0:0:0:0:
64,104,107232,1,0,0:0:0:0:
80,192,107749,1,8,1:2:0:0:
140,260,108267,6,0,B|228:288|228:288|292:276|296:216,1,200,0|0,0:0|0:0,0:0:0:0:
240,148,109818,1,8,1:2:0:0:
184,76,110336,2,0,P|232:56|296:80,1,100,0|8,0:0|1:2,0:0:0:0:
360,104,111370,1,0,0:0:0:0:
324,188,111887,1,8,1:2:0:0:
248,232,112405,6,0,P|340:272|408:208,1,200,0|0,0:0|0:0,0:0:0:0:
440,132,113956,1,8,1:2:0:0:
408,48,114474,2,0,P|364:76|348:128,2,100,2|8|2,0:0|1:2|0:0,0:0:0:0:
440,132,116025,1,8,1:2:0:0:
388,204,116543,6,0,P|336:212|288:188,1,100,0|8,0:0|1:2,0:0:0:0:
224,136,117577,2,0,P|176:116|112:132,1,100,0|8,0:0|1:2,0:0:0:0:
76,196,118612,2,0,L|40:344,2,150,0|2|8,0:0|0:0|1:2,0:0:0:0:
136,128,120681,6,0,P|184:100|220:52,1,100,0|8,0:0|1:2,0:0:0:0:
296,40,121715,1,0,0:0:0:0:
284,128,122232,1,8,1:2:0:0:
316,212,122749,2,0,P|352:192|368:116,1,100,0|8,0:0|1:2,0:0:0:0:
284,128,123784,1,2,0:0:0:0:
212,180,124301,1,8,1:2:0:0:
184,264,124818,6,0,P|124:196|144:128,2,150,0|2|8,0:0|0:0|1:2,0:0:0:0:
272,244,126887,2,0,L|324:104,2,150,0|2|8,0:0|0:0|1:2,0:0:0:0:
304,328,128956,5,0,0:0:0:0:
364,260,129474,1,8,1:2:0:0:
448,232,129991,2,0,P|436:168|404:136,1,100,0|8,0:0|1:2,0:0:0:0:
336,96,131025,5,8,1:2:0:0:
264,148,131543,1,8,0:0:0:0:
256,236,132060,2,0,P|208:276|164:280,1,100,8|8,1:2|1:2,0:0:0:0:
180,192,133094,6,0,P|272:148|340:224,1,200,4|0,1:2|0:0,0:0:0:0:
292,284,134646,1,8,1:2:0:0:
368,332,135163,2,0,P|412:288|420:248,2,100,0|8|0,0:0|1:2|0:0,0:0:0:0:
292,284,136715,1,8,1:2:0:0:
316,196,137232,6,0,P|264:192|216:232,1,100,0|8,0:0|1:2,0:0:0:0:
180,296,138267,2,0,P|140:252|136:208,1,100,0|8,0:0|1:2,0:0:0:0:
176,136,139301,2,0,B|316:44|316:44|388:76|392:152,1,300,0|8,0:0|1:2,0:0:0:0:
396,236,141370,6,0,P|464:200|472:112,2,150,4|0|8,1:2|0:0|1:2,0:0:0:0:
308,224,143439,1,0,0:0:0:0:
224,256,143956,1,8,1:2:0:0:
140,228,144474,1,0,0:0:0:0:
156,316,144991,1,8,1:2:0:0:
224,256,145508,6,2,P|232:200|200:144,1,100,0|8,0:0|1:2,0:0:0:0:
132,128,146543,2,0,P|160:88|212:72,1,100,0|8,0:0|1:2,0:0:0:0:
296,92,147577,2,4,L|396:156,2,100,2|8|4,0:0|1:2|0:0,0:0:0:0:
208,72,149129,1,8,1:2:0:0:
136,128,149646,6,0,P|156:168|156:224,1,100,4|8,1:2|1:2,0:0:0:0:
88,284,150681,1,0,0:0:0:0:
156,344,151198,1,8,1:2:0:0:
232,300,151715,2,0,B|269:207|337:263|371:166,1,200,0|0,0:0|0:0,0:0:0:0:
316,96,153267,1,8,1:2:0:0:
232,128,153784,6,0,P|228:72|260:28,2,100,0|8|0,0:0|1:2|0:0,0:0:0:0:
280,204,155336,1,8,1:2:0:0:
272,292,155853,2,8,P|152:204|236:128,1,300,0|8,0:0|1:2,0:0:0:0:
320,112,157922,6,0,P|376:116|412:152,1,100,4|8,1:2|1:2,0:0:0:0:
336,200,158956,1,0,0:0:0:0:
264,256,159474,1,8,1:2:0:0:
348,288,159991,2,0,P|332:196|236:168,1,200,0|0,0:0|0:0,0:0:0:0:
160,212,161543,1,8,1:2:0:0:
72,236,162060,6,0,L|16:136,2,100,0|8|2,0:0|1:2|0:0,0:0:0:0:
144,292,163612,1,8,1:2:0:0:
228,264,164129,2,0,P|300:256|328:260,1,100,8|4,1:2|0:0,0:0:0:0:
412,292,165163,1,8,0:0:0:0:
468,220,165681,1,4,0:0:0:0:
436,136,166198,6,0,P|256:60|76:136,1,400,4|0,1:2|0:0,0:0:0:0:
64,224,168784,2,0,P|80:280|120:320,2,100,8|2|8,1:2|0:0|1:2,0:0:0:0:
80,136,170336,5,0,0:0:0:0:
160,96,170853,1,8,1:2:0:0:
224,160,171370,1,0,0:0:0:0:
312,144,171887,1,8,1:2:0:0:
356,64,172405,2,0,P|404:128|400:164,2,100,0|8|2,0:0|1:2|0:0,0:0:0:0:
312,144,173956,1,8,1:2:0:0:
320,232,174474,6,0,B|260:352|260:352|136:352|124:260,1,300,4|8,1:2|1:2,0:0:0:0:
168,196,176543,2,0,L|168:96,1,100,0|8,0:0|1:2,0:0:0:0:
256,120,177577,2,0,L|256:228,1,100,2|8,0:0|1:2,0:0:0:0:
304,296,178612,6,0,P|388:312|448:360,2,150,0|0|8,0:0|0:0|1:2,0:0:0:0:
208,296,180681,2,8,P|134:307|73:349,2,150,8|8|8,1:2|1:2|1:2,0:0:0:0:
256,220,182749,6,0,L|256:112,1,100,4|8,0:0|1:2,0:0:0:0:
304,44,183784,2,0,L|400:108,2,100,0|8|0,0:0|1:2|0:0,0:0:0:0:
212,44,185336,2,0,L|128:99,1,100,8|0,1:2|0:0,0:0:0:0:
76,172,186370,1,8,1:2:0:0:
84,260,186887,6,0,P|52:304|12:328,2,100,0|8|0,0:0|1:2|0:0,0:0:0:0:
76,172,188439,1,8,1:2:0:0:
132,100,188956,2,0,B|188:148|156:224|156:224|200:296|304:260,1,300,0|8,0:0|1:2,0:0:0:0:
364,196,191025,6,0,L|308:96,1,100,4|8,1:2|1:2,0:0:0:0:
228,88,192060,2,0,P|180:104|117:95,1,100,0|8,0:0|1:2,0:0:0:0:
84,176,193094,1,0,0:0:0:0:
116,260,193612,2,0,P|168:288|200:328,1,100,8|0,1:2|0:0,0:0:0:0:
284,312,194646,1,8,1:2:0:0:
320,228,195163,6,0,P|364:264|376:320,2,100,0|8|0,0:0|1:2|0:0,0:0:0:0:
232,240,196715,1,0,0:0:0:0:
144,256,197232,2,0,P|148:204|180:168,1,100,2|8,0:0|0:0,0:0:0:0:
212,84,198267,2,0,P|256:116|268:168,1,100,8|4,0:0|0:0,0:0:0:0:
232,240,199301,1,4,1:2:0:0:
256,192,199431,12,0,205508,0:0:0:0:
