osu file format v9

[General]
AudioFilename: Taylor Swift - Last Christmas - Kopie.mp3
AudioLeadIn: 1500
PreviewTime: 133108
Countdown: 0
SampleSet: Normal
StackLeniency: 0.7
Mode: 0
LetterboxInBreaks: 1

[Editor]
Bookmarks: 130263
DistanceSpacing: 0.8
BeatDivisor: 4
GridSize: 4

[Metadata]
Title:Last Christmas
Artist:Taylor Swift
Creator:Magicphoenix
Version:Last Christmas
Source:
Tags:MMzz Xmas X-mas Wham! MittenMasterzz

[Difficulty]
HPDrainRate:6
CircleSize:4
OverallDifficulty:6
ApproachRate:7
SliderMultiplier:2
SliderTickRate:1

[Events]
//Background and Video events
0,0,"Last Christmas!.jpg"
//Break Periods
2,100191,107625
//Storyboard Layer 0 (Background)
//Storyboard Layer 1 (Fail)
//Storyboard Layer 2 (Pass)
//Storyboard Layer 3 (Foreground)
//Storyboard Sound Samples
//Background Colour Transformations
3,100,163,162,255

[TimingPoints]
681,517.241379310345,4,1,1,70,1,0
33784,-100,4,2,1,70,0,0
65853,-100,4,1,1,70,0,0
66887,-100,4,1,1,70,0,1
83374,-100,4,1,1,70,0,0
83439,-100,4,1,1,70,0,1
99991,-100,4,2,1,70,0,0
131543,-100,4,1,1,70,0,0
133094,-100,4,1,1,70,0,1
149581,-100,4,1,1,70,0,0
149646,-100,4,1,1,70,0,1
166198,-100,4,1,1,70,0,0
182685,-100,4,1,1,70,0,0
182749,-100,4,1,1,70,0,1
199301,-100,4,1,1,70,0,0

[Colours]
Combo1 : 30,179,26
Combo2 : 204,0,0
Combo3 : 214,217,224

[HitObjects]
256,48,681,1,4
337,185,1198,1,8
195,259,1715,1,0
120,117,2232,1,8
157,187,2491,5,0
194,258,2749,2,0,B|246:278|310:246,1,100
360,160,3267,2,0,B|304:144|244:172,1,100,8|0
234,92,3784,1,0
302,51,4043,1,0
377,75,4301,2,0,B|433:70|464:128,1,100,8|0
459,200,4818,5,0
375,336,5336,1,8
228,272,5853,1,0
307,133,6370,1,8
250,76,6629,5,0
170,76,6887,1,0
101,117,7146,2,0,B|64:168|8:144,1,100,0|8
41,71,7663,2,0,B|78:20|134:44,1,100
184,98,8180,1,0
168,176,8439,1,8
99,217,8698,1,0
21,217,8956,6,0,B|19:287|82:320|149:301|170:256,2,200,0|8|0
21,136,10249,1,0
45,59,10508,1,8
119,28,10767,1,0
198,28,11025,6,0,B|216:88|176:128,1,100
314,28,11543,2,0,B|296:88|336:128,2,100,8|0|0
393,28,12318,1,0
467,59,12577,1,8
491,136,12836,1,0
432,192,13094,2,0,B|286:192,1,100
253,192,13612,6,8,B|160:152|160:232|56:192,2,200,8|0|8
253,272,14905,1,0
298,337,15163,2,0,B|328:376|406:376|440:304|400:224,1,200,0|8
335,228,15939,2,0,B|287:140,1,100
343,83,16456,2,0,B|390:170,2,100,8|8|0
465,198,17232,6,0,B|432:320|296:288,1,200,4|8
256,234,18008,2,0,B|201:237|168:176,1,100
249,158,18525,2,0,B|199:133|201:63,1,100,0|8
256,16,19043,1,0
328,48,19301,2,0,B|432:24,1,100
459,98,19818,1,8
402,154,20077,2,0,B|416:200|314:277|279:195|376:248|281:139,1,200
220,188,20853,6,0,B|168:224|112:176,1,100,8|0
100,111,21370,1,0
174,82,21629,1,0
248,110,21887,2,0,B|296:96|296:120|352:104,1,100,8|0
424,84,22405,2,0,B|440:152|416:216|360:240|336:248,1,200,0|8
267,276,23181,5,0
210,332,23439,1,0
138,295,23698,1,0
119,217,23956,1,8
151,143,24215,2,0,B|200:128|240:104|240:104|264:72|264:48|232:0,1,200
171,53,24991,2,0,B|64:96,1,100,8|0
43,163,25508,6,0,B|16:216|48:264,2,100,0|0|8
111,204,26284,1,0
186,178,26543,1,0
208,101,26801,1,0
167,31,27060,1,8
110,87,27318,6,0,B|144:136|216:104,1,100
271,76,27836,1,0
309,6,28094,1,8
383,34,28353,2,0,B|360:80|400:80|376:144,1,100
307,164,28870,2,0,B|330:210|290:210|314:274,1,100,0|8
366,318,29387,5,0
293,351,29646,2,0,B|184:384,1,100
124,345,30163,1,8
48,372,30422,2,0,B|34:318|81:275,1,100
150,253,30939,2,0,B|164:199|117:156,1,100,0|8
66,105,31456,2,0,B|272:48,1,200
256,192,32232,5,8
312,248,32491,1,0
256,192,32749,1,0
360,104,33008,5,0
152,104,33267,1,8
152,104,33396,1,0
152,104,33525,1,0
256,192,33784,2,0,B|256:304,1,100
248,371,34301,6,0,B|304:383|328:327,1,100,2|0
369,259,34818,2,0,B|425:247|449:303,2,100,0|0|2
339,184,35594,1,0
367,109,35853,2,0,B|397:58|471:61|509:98|509:186,1,200,0|2
450,214,36629,2,0,B|352:176|352:256|240:208,1,200
187,256,37405,2,0,B|156:305|96:280,1,100,2|0
193,167,37922,2,0,B|162:118|102:143,1,100,0|0
60,207,38439,5,2
60,207,38698,1,0
3,150,38956,1,0
36,77,39215,2,0,B|45:20|117:12,1,100,0|2
171,58,39732,1,0
248,77,39991,6,0,B|296:96|352:64,2,100,0|0|2
202,143,40767,2,0,B|144:224,1,100
69,195,41284,1,2
69,275,41543,1,0
69,354,41801,2,2,B|168:320|168:384|288:336,1,200,2|0
323,285,42577,6,0,B|352:184,1,100,0|2
390,188,42965,2,0,B|308:243|240:160,1,150,0|0
215,105,43612,1,2
240,29,43870,1,0
320,29,44129,6,0,B|344:40|352:64|352:96|312:112,1,100,0|0
319,188,44646,2,0,B|320:320,1,100,2|0
291,316,45034,2,0,B|264:272|208:256|160:304,1,150
89,334,45681,1,2
12,310,45939,1,0
12,229,46198,6,0,B|75:232|96:200|96:144|96:144|168:144,1,200,0|2
237,144,46974,1,0
310,113,47232,1,0
310,113,47362,1,0
310,113,47491,2,0,B|335:163|312:224,2,100,0|2|0
440,125,48267,6,0,B|473:85|457:29,1,100
392,208,48784,2,0,B|359:248|375:304,1,100,2|0
216,125,49301,2,0,B|183:85|199:29,1,100
264,208,49818,2,0,B|297:248|281:304,1,100,8|0
249,376,50336,1,0
105,305,50853,5,2
145,236,51112,1,0
118,160,51370,1,0
48,120,51629,2,0,B|75:75|136:62,1,100,0|8
200,98,52146,1,0
255,156,52405,5,2
230,232,52663,2,0,B|328:272,2,100
199,306,53439,2,0,B|275:391|403:343,1,200,2|8
438,293,54215,1,0
465,217,54474,5,2
393,181,54732,1,0
352,112,54991,1,2
352,32,55249,2,0,B|252:39,1,100,0|2
202,103,55767,2,0,B|155:121|155:89|91:105,1,100,0|8
47,158,56284,2,0,B|64:280|208:296,1,200
254,312,57060,5,2
254,172,57318,1,0
353,271,57577,1,2
353,130,57836,1,0
451,228,58094,1,8
451,87,58353,1,0
451,87,58612,5,0
396,145,58870,1,0
322,115,59129,1,2
306,36,59387,2,0,B|251:59|211:15,1,100
166,83,59905,2,0,B|136:136|176:184,1,100,0|8
236,128,60422,2,0,B|34:154,1,200
37,233,61198,1,2
107,269,61456,2,0,B|208:232|208:304|312:256,1,200
340,189,62232,5,8
396,245,62491,1,0
418,168,62749,2,0,B|469:151|525:111,2,100,2|0|8
264,168,63525,2,0,B|213:151|157:111,2,100,0|2|0
416,88,64301,2,0,B|467:71|523:31,2,100,8|0|2
262,88,65077,2,0,B|211:71|155:31,2,100,0|8|0
341,30,65853,5,2
341,110,66112,1,0
341,189,66370,1,8
341,269,66629,1,0
341,348,66887,5,4
260,348,67146,2,0,B|208:336|176:288,1,100,0|8
235,236,67663,2,0,B|240:160|184:128|144:128|80:176,1,200
32,204,68439,1,8
73,272,68698,2,0,B|167:213,1,100
214,162,69215,1,0
238,85,69474,1,8
309,48,69732,2,0,B|360:88|392:44|392:44|368:96|416:152,1,200
335,176,70508,6,0,B|320:232|264:264,1,100,8|0
202,282,71025,1,0
218,362,71284,1,0
295,343,71543,2,0,B|312:288|368:288,1,100,8|0
504,224,72060,2,0,B|487:169|431:169,1,100
272,104,72577,1,8
311,34,72836,1,0
390,34,73094,6,0,B|391:143,1,100
471,133,73612,1,8
502,206,73870,2,0,B|302:206,1,200
256,272,74646,1,8
256,112,74905,1,0
120,192,75163,6,0,B|8:192,2,100,4|0|8
200,192,75939,2,0,B|408:192,1,200
400,111,76715,2,0,B|368:72|400:16,1,100,8|0
296,96,77232,2,0,B|328:135|296:191,1,100
225,225,77749,1,8
146,210,78008,2,0,B|72:208|48:256|24:296|48:360,1,200
123,345,78784,1,8
203,345,79043,6,0,B|232:296,1,50
266,289,79301,2,0,B|312:320|376:304,1,100
407,240,79818,1,8
463,183,80077,2,0,B|488:136|464:88,1,100
397,41,80594,2,0,B|372:88|396:136,1,100,0|8
463,183,81112,2,0,B|456:235|400:259|336:251|304:195,1,200
292,118,81887,5,8
171,45,82146,1,0
40,95,82405,1,0
14,232,82663,1,8
90,349,82922,1,8
219,294,83180,1,8
219,294,83310,1,8
219,294,83439,6,0,B|224:184,1,100,4|0
293,155,83956,2,0,B|352:112|440:152|449:253,2,200,8|0|8
225,111,85249,1,0
148,86,85508,1,0
71,109,85767,1,0
37,181,86025,1,8
107,219,86284,2,0,B|159:229|217:176,1,100
405,165,86801,2,0,B|353:155|295:208,1,100,0|8
255,136,87318,5,0
311,79,87577,2,0,B|360:72|384:16,1,100
200,80,88094,2,0,B|151:87|127:143,1,100,8|0
127,222,88612,2,0,B|136:272|120:336|80:376|16:392,1,200,0|8
39,304,89387,5,0
152,368,89646,1,0
256,280,89905,1,0
360,368,90163,1,8
473,304,90422,1,0
376,192,90680,5,0
300,164,90939,1,0
225,192,91198,1,8
150,163,91456,1,0
72,144,91715,6,0,B|56:96|88:48,1,100,4|0
144,105,92232,1,8
214,66,92491,2,0,B|312:32|312:96|416:48,1,200
437,126,93267,2,0,B|472:224,1,100,8|0
413,276,93784,1,0
340,240,94043,2,0,B|280:224|232:264,1,100,0|8
281,326,94560,2,0,B|208:288|200:208|216:152,1,200
246,79,95336,1,8
311,124,95594,6,0,B|336:240,1,100
246,79,96112,2,0,B|128:96,1,100,0|8
117,167,96629,2,0,B|224:192,1,100
256,256,97146,2,0,B|256:368,1,100,0|8
333,334,97663,2,0,B|400:296|376:208|376:208|312:168,1,200,0|0
259,137,98439,5,8
259,137,98568,1,0
259,137,98698,1,0
188,99,98956,1,2
115,63,99215,1,0
97,87,99344,1,0
88,115,99474,1,8
94,144,99603,1,0
110,168,99732,1,0
186,192,99991,1,0
423,102,108525,5,0
351,66,108784,1,8
276,95,109043,1,0
236,95,109172,2,0,B|206:48|126:56|94:112,1,150
162,152,109818,2,0,B|242:272|242:184|162:320,1,200,8|2
85,313,110594,5,0
56,238,110853,1,8
136,238,111112,1,0
175,238,111241,2,0,B|263:239,1,50,0|2
295,201,111629,2,0,B|254:151|190:159,1,100,0|8
88,157,112275,5,0
88,157,112405,2,0,B|47:113|71:49,2,100,2|0|8
165,138,113180,1,0
169,59,113439,1,2
169,59,113568,2,0,B|213:18|277:42,1,100
290,65,113956,2,0,B|290:129|232:160,1,100,8|0
230,228,114474,5,2
313,206,114732,1,0
381,247,114991,1,8
456,220,115249,2,0,B|464:270|456:318|400:348|344:326|312:302,1,200
264,273,116025,2,0,B|212:255|168:288,1,100,8|0
112,343,116543,5,2
35,319,116801,1,0
35,238,117060,1,8
109,209,117318,2,0,B|152:176|136:120,1,100,0|2
67,78,117836,2,0,B|92:18|180:42,1,100,0|8
205,92,118353,1,0
256,32,118612,2,0,B|376:64,1,100,2|0
430,38,119129,1,8
496,81,119387,2,0,B|448:120|448:120|416:168|440:224|472:264,1,200
382,267,120163,2,0,B|352:216|360:144,1,100,8|0
358,90,120680,6,0,B|448:24,2,100,2|0|8
287,127,121456,1,0
209,145,121715,1,2
130,129,121974,1,0
151,205,122232,2,0,B|160:256|120:304,1,100,8|0
90,277,122620,1,0
90,277,122749,2,0,B|154:364,1,100,2|0
228,371,123267,1,8
255,295,123525,2,0,B|353:264|353:336|454:281,1,200
392,227,124301,6,0,B|281:166,1,100,8|0
304,138,124689,1,0
286,102,124818,2,0,B|240:64|272:0,1,100,2|0
189,33,125336,1,8
120,73,125594,6,0,B|80:32|16:72|24:144|88:200,1,200
130,242,126370,1,8
186,298,126629,1,0
242,354,126887,1,2
298,297,127146,1,0
354,240,127405,1,8
410,183,127663,2,0,B|459:140|467:68|403:28|363:69,2,200
160,56,128956,6,0,B|224:16|280:80,1,100,2|0
209,123,129474,1,8
164,189,129732,2,0,B|228:229|284:165,1,100,0|2
408,272,130249,2,0,B|344:232|288:296,1,100,0|8
245,313,130767,2,0,B|216:368|152:384|72:352|56:320,1,200
69,255,131543,1,2
149,247,131801,5,0
149,216,131930,1,0
149,186,132060,1,8
149,156,132189,1,0
149,126,132318,1,0
149,95,132448,1,0
149,65,132577,2,0,B|148:16,2,50
225,39,133094,6,0,B|271:8|343:48,1,100,4|0
383,90,133612,1,8
446,40,133870,2,0,B|473:94|441:142,1,100
385,188,134387,1,0
362,264,134646,1,8
387,339,134905,1,0
464,358,135163,5,0
385,188,135422,1,0
464,26,135680,1,8
384,26,135939,2,0,B|352:76|360:124,2,100
303,26,136715,6,0,B|184:48,1,100,8|0
126,26,137232,1,0
126,106,137491,1,0
104,127,137620,1,0
89,153,137749,2,0,B|77:215|109:255,1,100,8|0
184,249,138267,2,0,B|224:209|304:217|320:289|312:326,1,200,0|8
392,325,139043,5,0
376,246,139301,1,0
329,180,139560,1,0
253,153,139818,1,8
174,168,140077,2,0,B|112:192|112:192|72:176|48:120|88:48,1,200,0|0
144,37,140853,1,8
368,37,141112,1,0
256,216,141370,6,0,B|256:336,2,100,4|0|8
179,192,142146,2,0,B|202:137|252:120|299:136|320:162|331:192,2,200
179,272,143439,1,0
217,342,143698,1,0
296,342,143956,1,8
333,272,144215,2,0,B|288:232|296:176|320:128|392:136,1,200
388,55,144991,2,0,B|261:31,1,100,8|0
209,36,145508,5,0
135,68,145767,1,0
94,136,146025,1,8
94,216,146284,2,0,B|112:280|176:272,1,100
95,136,146801,2,0,B|113:72|177:80,1,100,0|8
272,192,147318,2,0,B|488:192,1,200
472,192,148094,5,8
455,113,148353,1,0
407,276,148612,1,0
358,113,148870,1,8
315,277,149129,1,8
260,116,149387,1,0
233,191,149646,6,0,B|240:250|192:274,2,100,4|0|8
259,116,150422,2,0,B|152:72,1,100
211,11,150939,2,0,B|408:96,1,200
467,57,151715,1,0
467,137,151974,1,0
431,208,152232,1,8
358,241,152491,2,0,B|302:265|254:233,2,100
334,164,153267,6,0,B|340:102,1,50,8|0
310,86,153525,2,0,B|274:127|202:103,1,100
146,71,154043,1,0
70,99,154301,2,0,B|32:144|48:208,1,100,8|0
122,171,154818,2,0,B|176:152|240:208|240:256|232:312,1,200,0|8
305,333,155594,1,0
324,255,155853,6,0,B|432:240,1,100
473,176,156370,1,0
403,138,156629,2,0,B|283:90,2,100
403,57,157405,2,0,B|495:94,1,100,8|0
309,101,157922,6,0,B|245:77|213:125|181:149|109:133,1,200,4|8
155,63,158698,2,0,B|77:269,1,200
15,208,159474,1,8
176,256,159732,1,0
176,256,159862,1,0
176,256,159991,5,0
304,192,160249,1,0
192,112,160508,1,8
320,40,160767,2,0,B|432:32,2,100
290,114,161543,1,8
304,192,161801,1,0
372,233,162060,6,0,B|424:224|472:280,1,100
404,324,162577,2,0,B|360:304|360:344|304:320,2,100,8|0|0
460,267,163353,1,0
392,176,163612,1,8
320,80,163870,6,0,B|248:64,1,50
249,90,164129,2,0,B|200:120,1,50,8|0
199,145,164387,2,0,B|128:120,1,50
126,144,164646,2,0,B|96:192,1,50
111,214,164905,2,0,B|160:256,1,50
148,276,165163,6,0,B|144:336,1,50,8|0
173,335,165422,2,0,B|208:296,1,50,2|0
227,276,165680,1,2
248,254,165810,1,0
269,232,165939,1,0
290,210,166068,1,0
311,188,166198,6,0,B|352:152|352:96,1,100,4|0
279,65,166715,1,8
222,121,166974,2,0,B|176:136|120:96,1,100
95,27,167491,1,0
256,192,167620,12,8,168784
256,192,169043,5,0
312,248,169301,2,0,B|344:296|320:368,1,100,0|0
256,192,169818,2,0,B|224:144|248:72,1,100,8|0
384,200,170336,2,0,B|416:248|392:320,1,100
328,144,170853,2,0,B|296:96|320:24,1,100,8|0
236,27,171370,1,0
165,64,171629,1,0
94,27,171887,1,8
94,107,172146,6,0,B|96:208,1,100
170,236,172663,1,0
170,236,172793,1,0
170,236,172922,1,8
152,314,173180,2,0,B|184:360|248:336,1,100
384,248,173698,2,0,B|352:202|288:226,1,100,0|8
229,177,174215,2,0,B|176:152,1,50
148,174,174474,6,0,B|241:116,1,100,4|0
265,47,174991,1,8
321,103,175249,1,0
256,192,175379,12,8,177060
336,128,177318,6,0,B|224:96,1,100
182,157,177836,2,0,B|278:184,1,100,0|8
320,252,178353,1,0
395,225,178612,5,0
320,328,178870,1,0
256,208,179129,1,8
320,252,179387,1,0
333,173,179646,5,0
240,288,179905,1,0
400,304,180163,1,8
456,247,180422,5,0
320,252,180681,1,8
216,208,180939,1,0
104,256,181198,1,8
104,256,181456,2,0,B|64:216|48:152|72:104|112:64,1,200
174,106,182232,2,0,B|272:144,1,100,8|0
323,85,182749,5,4
381,201,183008,1,0
288,293,183267,1,8
168,240,183525,2,0,B|63:209,1,100
164,119,184043,2,0,B|59:88,2,100,0|8|0
241,139,184818,1,0
318,119,185077,1,0
358,50,185336,1,8
424,93,185594,2,0,B|464:128|480:176|464:240|392:264,1,200
256,273,186370,5,8
256,192,186629,1,0
312,135,186887,2,0,B|352:104|336:40,1,100
200,135,187405,2,0,B|160:104|176:40,1,100,8|0
256,192,187922,5,0
338,44,188181,1,0
174,44,188439,1,8
256,112,188698,5,0
256,191,188956,2,0,B|256:296,1,100
329,324,189474,1,8
354,248,189732,2,0,B|259:210|259:282|155:226,1,200
139,151,190508,2,0,B|168:112|152:56,1,100,8|0
81,94,191025,6,4,B|280:128,1,200,4|8
344,83,191801,2,0,B|368:128|352:194|304:216|241:198,1,200
277,128,192577,1,8
196,128,192836,2,0,B|136:144|112:200,1,100
150,260,193353,1,0
113,331,193612,1,8
192,331,193870,2,0,B|292:300|292:372|392:328,1,200
408,255,194646,1,8
333,224,194905,5,0
333,224,195034,1,0
333,224,195163,1,0
301,150,195422,2,0,B|264:104|296:48,1,100,0|8
213,75,195939,2,0,B|167:38|111:70,1,100
74,131,196456,1,0
74,211,196715,5,0
122,320,196974,1,8
239,341,197232,1,0
239,220,197491,5,0
239,220,197620,1,0
239,220,197749,1,8
239,139,198008,1,0
239,109,198137,1,0
239,78,198267,1,8
318,78,198525,1,2
318,108,198655,1,2
318,137,198784,1,0
318,166,198913,1,2
318,196,199043,1,2
284,311,199301,5,4
