osu file format v9

[General]
AudioFilename: Taylor Swift - Last Christmas - Kopie.mp3
AudioLeadIn: 0
PreviewTime: 133108
Countdown: 0
SampleSet: Normal
StackLeniency: 0.7
Mode: 0
LetterboxInBreaks: 1

[Editor]
Bookmarks: 130263,184832
DistanceSpacing: 0.8
BeatDivisor: 4
GridSize: 4

[Metadata]
Title:Last Christmas
Artist:Taylor Swift
Creator:Magicphoenix
Version:Heart
Source:
Tags:MMzz Xmas X-mas Wham! MittenMasterzz

[Difficulty]
HPDrainRate:3
CircleSize:3
OverallDifficulty:3
ApproachRate:3
SliderMultiplier:1.2
SliderTickRate:1

[Events]
//Background and Video events
0,0,"Last Christmas!.jpg"
//Break Periods
2,100191,107344
2,170018,173034
//Storyboard Layer 0 (Background)
//Storyboard Layer 1 (Fail)
//Storyboard Layer 2 (Pass)
//Storyboard Layer 3 (Foreground)
//Storyboard Sound Samples
//Background Colour Transformations
3,100,163,162,255

[TimingPoints]
681,517.241379310345,4,1,1,70,1,0
34301,-100,4,2,1,70,0,0
65853,-100,4,1,1,70,0,0
66887,-100,4,1,1,70,0,1
83374,-100,4,1,1,70,0,0
83439,-100,4,1,1,70,0,1
99991,-100,4,1,1,70,0,0
108784,-100,4,2,1,70,0,0
131543,-100,4,1,1,70,0,0
133094,-100,4,1,1,70,0,1
149581,-100,4,1,1,70,0,0
149646,-100,4,1,1,70,0,1
166198,-100,4,1,1,70,0,0
182749,-100,4,1,1,70,0,1
199301,-100,4,1,1,70,0,0

[Colours]
Combo1 : 30,179,26
Combo2 : 204,0,0
Combo3 : 214,217,224

[HitObjects]
192,192,17232,2,0,B|200:224|224:264|288:264|312:224|320:192,2,180,4|0|8
256,112,19301,2,0,B|256:40,2,60,0|0|8
256,160,20077,2,0,B|256:352,1,180,0|8
350,322,21370,6,0,B|416:305|408:225,1,120,0|8
408,134,22405,2,0,B|415:59|349:42,1,120,0|8
257,68,23439,2,0,B|256:200,2,120,0|8|0
214,44,24732,2,0,B|148:45,1,60,0|8
134,138,25508,6,0,B|176:176|168:208|160:248|136:264,2,120,0|8|0
56,192,27060,1,8
80,284,27577,2,0,B|80:349,2,60,0|0|8
124,266,28353,2,0,B|152:304|200:320|256:304|280:280|296:264,1,180,0|8
312,188,29646,6,0,B|328:144|400:144|416:192,1,120,0|8
474,108,30681,2,0,B|449:78|401:54|353:62,1,120,0|8
271,54,31715,1,0
228,140,32232,1,8
160,207,32749,5,0
68,237,33267,1,8
88,143,33784,1,0
88,143,34301,6,0,B|112:80|184:64,1,120,2|0
270,66,35336,2,0,B|246:129|174:145,1,120,2|0
81,244,36629,2,2,B|240:336,1,180
255,239,37922,6,0,B|255:161,1,60,0|0
255,130,38439,1,2
349,109,38956,2,0,B|349:178,2,60,0|0|2
445,109,39991,2,0,B|444:232,2,120,0|2|0
411,75,41284,2,0,B|336:52,1,60,0|2
261,84,42060,1,2
165,84,42577,6,0,B|139:157,1,60,0|0
121,182,43094,2,0,B|145:223|145:239|137:279|113:295,1,120,0|2
27,325,44129,2,0,B|3:284|3:268|11:228|35:212,3,120,0|2|0|2
109,269,46198,6,0,B|164:255|164:303|236:263,1,120,0|2
245,174,47232,2,0,B|190:188|190:140|118:180,2,120,0|2|0
335,145,48784,1,2
335,145,49043,2,0,B|368:128|388:96|384:56|368:32,1,120
328,29,49818,1,8
245,81,50336,1,2
245,81,50853,6,0,B|218:112|189:113|157:105|144:71,2,120,0|2|8
330,36,52405,2,0,B|294:100|352:168|408:136|352:112|294:184|338:252,1,240,2|2
405,319,53956,2,0,B|269:348,1,120,8|2
200,295,54991,5,0
200,295,55249,2,0,B|168:264|168:224|208:192,2,120,2|0|2
337,250,57060,2,0,B|479:250,1,120,0|2
416,160,58094,1,8
459,75,58612,6,0,B|423:53|391:45|351:77|351:93,2,120,0|2|0
416,160,60163,2,0,B|282:205,1,120,8|2
234,266,61198,2,0,B|120:227,1,120,0|2
82,139,62232,5,8
177,139,62749,2,0,B|208:128|224:96|221:64|189:40,1,120,2|8
149,21,63525,2,0,B|272:24,1,120
302,57,64301,2,0,B|334:113|294:185,1,120,8|2
232,240,65336,2,0,B|200:184|240:112,1,120,8|2
137,124,66370,1,8
69,191,66887,6,0,B|37:255|61:319|157:327,2,180,4|0|8
101,100,68956,2,0,B|210:163,1,120,0|8
252,160,69732,2,0,B|408:72,1,180,0|8
464,160,71025,6,0,B|488:200|480:240|456:272,2,120,0|8|0
382,210,72577,1,8
299,259,73094,2,0,B|275:219|283:179|307:147,2,120,0|8|0
382,211,74646,1,8
403,117,75163,6,0,B|344:88|336:128|272:88,2,120,4|8|0
363,29,76715,1,8
270,55,77232,1,0
177,30,77749,1,8
109,97,78267,2,0,B|64:136|88:192|120:200,2,120,0|8|0
198,130,79818,5,8
198,130,80077,2,0,B|198:254,1,120
281,201,81112,2,0,B|281:81,2,120
281,249,82405,2,8,B|280:320,2,60,8|8|8
376,249,83439,6,0,B|423:197|400:136,2,120,4|8|0
279,249,84991,2,0,B|232:197|255:136,2,120,8|0|8
328,160,86543,1,0
328,64,87060,2,0,B|329:-4,2,60,8|0|0
236,36,88094,5,8
152,80,88612,1,0
122,171,89129,1,8
122,266,89646,2,0,B|-15:266,2,120,0|8|0
170,266,90939,2,0,B|256:266,1,60,0|8
312,217,91715,6,0,B|336:192|336:160|336:128|312:104,2,120,4|8|0
237,160,93267,1,8
141,160,93784,2,0,B|80:160|80:160|8:184,1,120,0|8
5,134,94560,2,0,B|80:296,1,180,0|8
148,229,95853,5,0
215,161,96370,1,8
183,70,96887,2,0,B|208:40|248:24|280:40|304:48,2,120,0|8|0
115,137,98439,5,8
115,232,98956,2,0,B|115:299,2,60,2|0|8
197,183,99991,1,0
256,120,108784,6,0,B|256:248,2,120,8|2|8
159,120,110336,2,0,B|80:152,1,60,2|0
63,115,110853,2,0,B|112:168|96:240,1,120,8|2
30,293,111887,1,8
119,327,112405,6,0,B|176:304|176:344|240:320,1,120,2|8
236,225,113439,2,0,B|179:248|179:208|115:232,2,120,2|8|2
206,133,114991,1,8
206,133,115249,2,0,B|224:96|280:88|312:128,2,120,2|0|0
208,184,116543,6,0,B|210:235|208:328,1,120,2|8
291,256,117577,2,0,B|293:205|291:112,1,120,2|8
208,96,118612,2,0,B|232:64|236:34,2,60,2|0|8
140,163,119646,2,0,B|116:195|112:225,2,60,2|0|8
120,68,120680,6,0,B|76:98|28:82|4:50,2,120,2|8|2
211,97,122232,1,8
303,70,122749,2,0,B|347:100|395:84|419:52,2,120,2|8|2
276,162,124301,6,8,B|232:220|275:295,2,120,8|2|8
363,202,125853,1,2
448,158,126370,2,8,B|492:216|449:291,2,120,8|2|8
362,202,127922,1,2
276,246,128439,1,8
256,152,128956,6,0,B|304:104,2,60,2|0|8
222,185,129732,2,0,B|120:280,1,120,0|2
134,170,130767,2,0,B|221:88,1,120,2|2
310,52,131801,6,0,B|344:56|376:32,1,60,0|8
399,128,132577,2,0,B|422:145|456:141,1,60,8|0
500,124,133094,6,0,B|509:176|485:224|453:240,1,120,4|8
464,280,133870,2,0,B|349:206,1,120
273,249,134905,1,0
273,249,135163,2,0,B|160:312,2,120,0|8|0
273,152,136715,6,0,B|160:89,2,120,8|0|8
358,196,138267,1,0
213,196,139043,6,0,B|128:200,1,60,0|0
85,130,139818,1,8
85,130,140077,2,0,B|128:88|200:96,2,120
85,178,141370,6,0,B|72:240|120:304|200:304|256:240,2,240,4|0|0
181,178,143956,2,0,B|168:116|216:52|296:52|352:116,1,240,8|8
374,195,145508,6,0,B|392:272,2,60,0|0|8
281,167,146543,2,0,B|299:90,2,60,0|0|8
192,205,147577,2,0,B|210:282,2,60,0|0|8
102,170,148612,2,0,B|84:93,2,60,8|8|8
54,253,149646,6,0,B|88:296|128:304|176:288,2,120,4|8|0
128,192,151198,1,8
54,131,151715,2,0,B|88:88|128:80|176:96,2,120,0|8|0
128,192,153267,6,0,B|264:192,1,120,8|0
344,192,154301,1,8
422,137,154818,2,0,B|454:169|454:217|416:254,2,120,0|8|0
329,110,156370,2,0,B|193:110,1,120,8|0
112,110,157405,1,8
74,198,157922,6,0,B|138:222|138:174|202:198,1,120,4|8
286,194,158956,2,0,B|338:173|338:221|402:197,2,120,0|8|0
241,279,160508,2,0,B|241:343,2,60,8|0|0
241,182,161543,2,0,B|241:118,2,60,8|0|0
157,229,162577,6,0,B|77:229,1,60,8|0
68,137,163353,2,0,B|194:136,1,120,0|8
256,72,164387,2,0,B|257:12,2,60,0|8|8
350,53,165422,2,8,B|353:119,1,60,2|8
315,201,166198,6,0,B|326:229|326:261|302:301|262:317,1,120,4|8
232,306,166974,2,0,B|210:300|186:260|186:228|197:200,1,120,0|0
256,192,167749,12,8,169818
200,112,174474,6,0,B|232:112|264:80|248:80|280:112|320:112,2,120,4|8|0
256,192,176025,1,8
307,272,176543,2,0,B|279:308|231:308|203:272,2,120,0|8|0
255,191,178094,1,8
351,191,178612,6,0,B|424:192,1,60
410,143,179129,2,0,B|350:142,1,60,8|0
166,198,180422,2,0,B|93:199,1,60,0|8
107,150,180939,2,0,B|166:149,1,60,0|0
215,149,181456,2,0,B|271:189|336:144,2,120
215,100,182749,6,0,B|242:47|330:47,1,120,4|8
350,81,183525,2,0,B|344:220,1,120
297,211,184301,1,8
199,215,184818,2,0,B|200:256|168:288,2,60,0|0|8
115,167,185853,2,0,B|95:203|51:214,2,60,0|0|8
115,71,186887,6,0,B|48:88|0:48,2,120,0|8|0
197,120,188439,2,0,B|264:103|312:143,2,120,8|0|8
129,187,189991,2,0,B|9:187,1,120
56,272,191025,6,0,B|112:318|136:272|184:302,2,120,4|8|0
106,190,192577,1,8
55,108,193094,2,0,B|111:62|135:108|183:78,1,120,0|8
256,120,194129,2,0,B|232:176|280:176|248:240,1,120,0|8
317,303,195163,6,0,B|389:207,1,120,0|8
437,207,195939,2,0,B|368:224|328:160,1,120
332,70,196974,2,0,B|367:12|436:29,1,120,4|0
435,77,197749,6,0,B|432:136,2,60,8|0|8
350,123,198784,2,0,B|347:182,2,60,2|0|4
