osu file format v12

[General]
AudioFilename: Taylor Swift - Last Christmas - Kopie.mp3
AudioLeadIn: 0
PreviewTime: 133094
Countdown: 1
SampleSet: Soft
StackLeniency: 0.7
Mode: 0
LetterboxInBreaks: 1
WidescreenStoryboard: 1

[Editor]
DistanceSpacing: 0.8
BeatDivisor: 4
GridSize: 4

[Metadata]
Title:Last Christmas
TitleUnicode:Last Christmas
Artist:Taylor Swift
ArtistUnicode:Taylor Swift
Creator:Ayu
Version:Easy
Source:
Tags:yoeri stefan xmas cover
BeatmapID:332014
BeatmapSetID:131023

[Difficulty]
HPDrainRate:3
CircleSize:3
OverallDifficulty:3
ApproachRate:3
SliderMultiplier:1.2
SliderTickRate:1

[Events]
//Background and Video events
0,0,"wallpaper-250429.jpg",0,0
//Break Periods
2,166398,173034
//Storyboard Layer 0 (Background)
//Storyboard Layer 1 (Fail)
//Storyboard Layer 2 (Pass)
//Storyboard Layer 3 (Foreground)
//Storyboard Sound Samples
//Background Colour Transformations
3,100,163,162,255

[TimingPoints]
681,517.241379310345,4,2,3,60,1,0
18008,-100,4,2,1,60,0,0
21887,-100,4,2,3,60,0,0
22405,-100,4,2,1,60,0,0
23956,-100,4,2,3,60,0,0
25508,-100,4,2,1,60,0,0
26025,-100,4,2,3,60,0,0
26543,-100,4,2,1,60,0,0
28094,-100,4,2,3,60,0,0
29646,-100,4,2,1,60,0,0
30163,-100,4,2,3,60,0,0
30681,-100,4,2,1,60,0,0
66887,-100,4,2,3,60,0,1
67922,-100,4,2,1,60,0,1
71543,-100,4,2,3,60,0,1
72060,-100,4,2,1,60,0,1
73612,-100,4,2,3,60,0,1
75163,-100,4,2,1,60,0,1
75681,-100,4,2,3,60,0,1
76198,-100,4,2,1,60,0,1
77749,-100,4,2,3,60,0,1
79301,-100,4,2,1,60,0,1
79818,-100,4,2,3,60,0,1
80336,-100,4,2,1,60,0,1
82405,-100,4,2,2,60,0,1
82922,-100,4,2,3,60,0,1
84474,-100,4,2,1,60,0,1
88094,-100,4,2,3,60,0,1
88612,-100,4,2,1,60,0,1
90163,-100,4,2,3,60,0,1
92749,-100,4,2,1,60,0,1
94301,-100,4,2,3,60,0,1
95853,-100,4,2,1,60,0,1
96370,-100,4,2,3,60,0,1
96887,-100,4,2,1,60,0,1
99991,-100,4,2,1,60,0,0
105681,-100,4,2,3,60,0,0
106198,-100,4,2,1,60,0,0
106715,-100,4,2,3,60,0,0
108267,-100,4,2,1,60,0,0
110853,-100,4,2,3,60,0,0
112405,-100,4,2,1,60,0,0
112922,-100,4,2,3,60,0,0
113439,-100,4,2,1,60,0,0
117060,-100,4,2,3,60,0,0
117577,-100,4,2,1,60,0,0
118094,-100,4,2,3,60,0,0
118612,-100,4,2,1,60,0,0
123267,-100,4,2,3,60,0,0
124818,-100,4,2,1,60,0,0
125336,-100,4,2,3,60,0,0
125853,-100,4,2,1,60,0,0
129474,-100,4,2,3,60,0,0
129991,-100,4,2,1,60,0,0
133094,-100,4,2,1,60,0,1
133612,-100,4,2,3,60,0,1
134129,-100,4,2,1,60,0,1
137749,-100,4,2,3,60,0,1
138267,-100,4,2,1,60,0,1
139818,-100,4,2,3,60,0,1
142405,-100,4,2,1,60,0,1
143956,-100,4,2,3,60,0,1
144474,-100,4,2,1,60,0,1
146025,-100,4,2,3,60,0,1
146543,-100,4,2,1,60,0,1
150163,-100,4,2,3,60,0,1
150681,-100,4,2,1,60,0,1
151198,-100,4,2,3,60,0,1
151715,-100,4,2,1,60,0,1
156370,-100,4,2,3,60,0,1
158956,-100,4,2,1,60,0,1
162577,-100,4,2,3,60,0,1
163094,-100,4,2,1,60,0,1
166198,-100,4,2,1,60,0,0
174474,-100,4,2,1,60,0,0
176025,-100,4,2,3,60,0,0
176543,-100,4,2,1,60,0,0
180163,-100,4,2,3,60,0,0
181198,-100,4,2,1,60,0,0
182749,-100,4,2,1,60,0,1
183267,-100,4,2,3,60,0,1
183784,-100,4,2,1,60,0,1
189474,-100,4,2,3,60,0,1
193094,-100,4,2,1,60,0,1
193612,-100,4,2,3,60,0,1
195163,-100,4,2,1,60,0,1
195681,-100,4,2,3,60,0,1
196198,-100,4,2,1,60,0,1
199301,-100,4,2,1,60,0,0

[Colours]
Combo1 : 240,240,240
Combo2 : 173,255,95
Combo3 : 17,254,176

[HitObjects]
88,268,17232,2,0,P|53:199|87:91,2,180,4|0|0,0:0|0:0|1:0,0:0:0:0:
168,320,19301,1,2,0:0:0:0:
260,300,19818,2,0,P|312:284|384:304,1,120,0|0,1:0|0:0,0:0:0:0:
464,328,20853,1,0,1:0:0:0:
468,232,21370,6,0,P|368:176|240:192,1,240,2|2,0:0|0:0,0:0:0:0:
164,240,22922,1,0,1:0:0:0:
72,212,23439,2,0,P|48:140|168:68,1,240,2|0,0:0|0:0,0:0:0:0:
332,168,25508,6,0,P|416:148|448:56,2,180,2|0|0,0:0|0:0|1:0,0:0:0:0:
252,116,27577,2,0,P|188:92|72:196,1,240,2|0,0:0|0:0,0:0:0:0:
100,284,29129,1,0,1:0:0:0:
184,332,29646,2,0,B|231:365|282:353|238:284|332:304|324:332|316:360|408:380|365:312|416:300|464:332,1,300,2|2,0:0|0:0,0:0:0:0:
256,192,31456,12,2,33784,0:0:0:0:
32,96,34301,6,0,P|140:52|248:96,1,240,2|2,0:0|0:0,0:0:0:0:
296,180,35853,2,0,P|356:236|459:234,2,180,2|0|2,0:0|0:0|0:0,0:0:0:0:
332,92,37922,5,2,0:0:0:0:
256,32,38439,1,2,0:0:0:0:
180,92,38956,2,0,P|236:192|180:292,1,240,2|2,0:0|0:0,0:0:0:0:
124,216,40508,2,0,P|236:192|312:280,1,240,0|2,0:0|0:0,0:0:0:0:
396,324,42060,5,2,0:0:0:0:
476,272,42577,2,0,P|452:224|468:160,1,120,2|0,0:0|0:0,0:0:0:0:
420,76,43612,1,2,0:0:0:0:
336,120,44129,2,0,P|304:168|248:192,1,120,2|2,0:0|0:0,0:0:0:0:
244,96,45163,2,0,P|156:166|196:272,1,240,0|2,0:0|0:0,0:0:0:0:
284,240,46715,6,0,P|344:240|392:272,2,120,2|2|2,0:0|0:0|0:0,0:0:0:0:
192,272,48267,2,0,P|89:224|102:113,1,240,2|0,0:0|0:0,0:0:0:0:
292,148,50336,6,0,P|328:156|416:132,2,120,2|2|2,0:0|0:0|0:0,0:0:0:0:
204,112,51887,1,0,1:0:0:0:
144,188,52405,2,0,B|164:240|132:304|132:304|200:284|252:320,1,240,2|2,0:0|0:0,0:0:0:0:
336,280,53956,1,0,1:0:0:0:
428,312,54474,6,0,B|464:192|404:192|428:72,1,240,2|0,0:0|0:0,0:0:0:0:
344,28,56025,1,0,1:0:0:0:
268,76,56543,2,0,P|204:88|152:72,2,120,2|2|2,0:0|0:0|0:0,0:0:0:0:
344,132,58094,1,0,1:0:0:0:
420,188,58612,6,0,P|432:240|416:304,1,120,2|2,0:0|0:0,0:0:0:0:
336,356,59646,1,2,0:0:0:0:
256,304,60163,1,0,1:0:0:0:
176,356,60681,2,0,L|84:280,1,120,0|2,0:0|0:0,0:0:0:0:
44,192,61715,1,0,0:0:0:0:
84,104,62232,1,0,1:0:0:0:
168,60,62749,6,0,P|224:80|280:60,1,120,2|0,0:0|1:0,0:0:0:0:
320,40,63525,2,0,P|375:20|431:39,1,120,0|0,0:0|0:0,0:0:0:0:
464,72,64301,2,0,P|483:127|464:183,1,120,0|4,1:0|2:3,0:0:0:0:
376,216,65336,1,0,1:0:0:0:
296,272,65853,2,0,P|240:256|180:276,1,120,8|0,3:0|1:0,0:0:0:0:
88,268,66887,6,0,P|53:199|87:91,2,180,4|0|0,0:0|0:0|1:0,0:0:0:0:
168,320,68956,1,2,0:0:0:0:
260,300,69473,2,0,P|312:284|384:304,1,120,0|0,1:0|0:0,0:0:0:0:
464,328,70508,1,0,1:0:0:0:
468,232,71025,6,0,P|368:176|240:192,1,240,2|2,0:0|0:0,0:0:0:0:
164,240,72577,1,0,1:0:0:0:
72,212,73094,2,0,P|48:140|168:68,1,240,2|0,0:0|0:0,0:0:0:0:
332,168,75163,6,0,P|416:148|448:56,2,180,4|0|0,0:0|0:0|1:0,0:0:0:0:
252,116,77232,2,0,P|188:92|72:196,1,240,2|0,0:0|0:0,0:0:0:0:
100,284,78784,1,0,1:0:0:0:
184,332,79301,2,0,B|231:365|282:353|238:284|332:304|324:332|316:360|408:380|365:312|416:300|464:332,1,300,2|2,0:0|0:0,0:0:0:0:
504,244,81112,6,0,P|424:216|336:244,1,180,0|0,0:0|1:0,0:0:0:0:
256,192,82405,1,2,0:0:0:0:
176,244,82922,1,0,1:0:0:0:
84,268,83439,6,0,P|49:199|83:91,2,180,4|0|0,0:0|0:0|1:0,0:0:0:0:
176,244,85508,1,2,0:0:0:0:
220,332,86025,2,0,P|261:289|271:231,1,120,0|0,1:0|0:0,0:0:0:0:
232,144,87060,1,0,1:0:0:0:
268,56,87577,6,0,B|324:84|326:153|326:153|388:140|440:188,1,240,2|2,0:0|0:0,0:0:0:0:
400,276,89129,1,0,1:0:0:0:
334,346,89646,2,0,B|308:320|308:292|308:292|276:300|256:275|256:275|236:300|204:292|204:292|204:320|178:346,1,240,2|0,0:0|0:0,0:0:0:0:
108,280,91198,1,0,1:0:0:0:
168,208,91715,6,0,P|256:192|344:208,2,180,4|0|0,0:0|0:0|1:0,0:0:0:0:
108,280,93784,2,0,P|74:215|181:114,1,240,2|0,0:0|0:0,0:0:0:0:
256,56,95336,1,0,1:0:0:0:
335,114,95853,2,0,P|454:185|420:321,1,300,2|2,0:0|0:0,0:0:0:0:
256,192,97663,12,2,99991,0:0:0:0:
196,116,100508,6,0,P|256:32|316:116,1,240,0|0,1:0|1:0,0:0:0:0:
256,192,102060,1,2,0:0:0:0:
308,272,102577,1,0,1:0:0:0:
256,352,103094,2,0,P|312:368|372:344,1,120,0|0,0:0|1:0,0:0:0:0:
404,256,104129,6,0,P|376:200|324:176,1,120,2|0,0:0|1:0,0:0:0:0:
240,216,105163,2,0,P|180:232|60:104,2,240,0|2|0,0:0|0:0|0:0,0:0:0:0:
328,252,107749,1,0,1:0:0:0:
304,344,108267,6,0,P|372:336|408:300,2,120,2|0|0,0:0|1:0|0:0,0:0:0:0:
216,308,109818,1,0,1:0:0:0:
120,328,110336,2,0,B|60:308|8:344|8:344|40:220,1,240,2|0,0:0|0:0,0:0:0:0:
60,132,111887,1,0,1:0:0:0:
132,72,112405,6,0,B|172:132|256:120|288:76|288:76|332:116|332:116|284:176|300:232,1,360,2|0,0:0|1:0,0:0:0:0:
388,264,114474,2,0,P|348:312|292:324,1,120,0|0,0:0|1:0,0:0:0:0:
226,256,115508,1,0,0:0:0:0:
293,188,116025,1,0,1:0:0:0:
225,120,116543,6,0,P|160:76|16:120,2,240,4|2|2,0:0|0:0|0:0,0:0:0:0:
180,204,119129,1,0,1:0:0:0:
204,296,119646,2,0,P|260:316|316:296,1,120,0|0,0:0|1:0,0:0:0:0:
380,224,120681,6,0,B|404:164|368:164|388:104,1,120,2|0,0:0|1:0,0:0:0:0:
316,44,121715,1,2,0:0:0:0:
220,60,122232,1,0,1:0:0:0:
180,148,122749,2,0,P|180:196|24:232,1,240,2|0,0:0|0:0,0:0:0:0:
92,168,124301,1,0,1:0:0:0:
52,80,124818,6,0,P|176:44|220:60,2,180,2|0|0,0:0|0:0|1:0,0:0:0:0:
92,168,126887,2,0,P|106:232|84:284,1,120,2|0,0:0|1:0,0:0:0:0:
164,340,127922,1,0,0:0:0:0:
256,316,128439,1,0,1:0:0:0:
348,340,128956,2,0,B|380:292|368:241|300:284|320:192|348:200|376:208|396:113|327:158|314:107|348:60,1,300,2|2,0:0|0:0,0:0:0:0:
256,192,130767,12,0,132577,1:0:0:0:
424,268,133094,6,0,P|459:199|425:91,2,180,4|0|0,0:0|0:0|1:0,0:0:0:0:
344,320,135163,1,2,0:0:0:0:
252,300,135680,2,0,P|200:284|128:304,1,120,0|0,1:0|0:0,0:0:0:0:
44,328,136715,1,0,1:0:0:0:
44,232,137232,6,0,P|144:176|272:192,1,240,2|2,0:0|0:0,0:0:0:0:
348,240,138784,1,0,1:0:0:0:
440,212,139301,2,0,P|464:140|344:68,1,240,2|0,0:0|0:0,0:0:0:0:
180,168,141370,6,0,P|96:148|64:56,2,180,4|0|0,0:0|0:0|1:0,0:0:0:0:
260,116,143439,2,0,P|324:92|440:196,1,240,2|2,0:0|0:0,0:0:0:0:
412,284,144991,1,0,1:0:0:0:
328,332,145508,2,0,B|281:365|230:353|274:284|180:304|188:332|196:360|104:380|147:312|96:300|48:332,1,300,2|2,0:0|0:0,0:0:0:0:
0,248,147318,6,0,P|0:180|76:104,1,180,0|0,0:0|1:0,0:0:0:0:
160,148,148612,1,0,0:0:0:0:
248,108,149129,1,0,1:0:0:0:
336,148,149646,6,0,B|404:136|412:68|412:68|492:64|512:140,2,240,4|2|2,0:0|0:0|0:0,0:0:0:0:
248,112,152232,1,0,1:0:0:0:
220,20,152749,2,0,P|276:20|328:60,1,120,0|0,0:0|1:0,0:0:0:0:
364,144,153784,6,0,P|371:202|416:244,1,120,2|0,0:0|1:0,0:0:0:0:
508,256,154818,2,0,P|500:197|456:156,1,120,2|0,0:0|1:0,0:0:0:0:
415,243,155853,2,0,B|336:332|336:332|268:308|268:352|216:336,1,240,2|0,0:0|0:0,0:0:0:0:
122,336,157405,1,0,1:0:0:0:
54,268,157922,6,0,P|16:208|52:112,2,180,4|0|0,0:0|0:0|1:0,0:0:0:0:
108,188,159991,2,0,P|168:200|224:188,1,120,2|0,0:0|1:0,0:0:0:0:
296,124,161025,1,0,0:0:0:0:
372,184,161543,1,0,1:0:0:0:
304,251,162060,6,0,B|256:292|192:256|192:256|104:204|52:248|44:308,1,300,2|2,0:0|0:0,0:0:0:0:
256,192,163870,12,4,166198,0:0:0:0:
16,280,174474,5,4,0:0:0:0:
96,332,174991,1,0,1:0:0:0:
144,248,175508,2,0,P|256:212|368:248,1,240,2|2,0:0|0:0,0:0:0:0:
416,332,177060,1,0,1:0:0:0:
496,280,177577,2,0,P|500:224|472:168,1,120,2|0,0:0|1:0,0:0:0:0:
384,132,178612,6,0,P|332:148|272:128,1,120,2|0,0:0|1:0,0:0:0:0:
328,44,179646,2,0,P|240:32|172:152,1,240,2|0,0:0|1:0,0:0:0:0:
136,240,181198,1,2,0:0:0:0:
172,336,181715,2,0,P|224:292|236:244,1,120,0|0,0:0|1:0,0:0:0:0:
236,147,182749,6,0,P|253:90|360:44,2,180,4|0|0,0:0|0:0|1:0,0:0:0:0:
303,214,184818,1,2,0:0:0:0:
235,281,185336,2,0,P|175:305|64:192,1,240,0|0,1:0|1:0,0:0:0:0:
112,116,186887,6,0,P|132:60|96:4,2,120,2|0|2,0:0|1:0|0:0,0:0:0:0:
200,156,188439,1,0,1:0:0:0:
288,116,188956,2,0,B|244:63|294:9|294:9|420:56,1,240,2|0,0:0|0:0,0:0:0:0:
472,124,190508,1,0,1:0:0:0:
416,204,191025,6,0,P|300:208|256:312,1,240,4|0,0:0|0:0,0:0:0:0:
168,352,192577,1,0,1:0:0:0:
80,312,193094,2,0,B|137:266|111:190|51:170|51:170|88:120,1,240,2|0,0:0|0:0,0:0:0:0:
144,44,194646,1,0,1:0:0:0:
208,112,195163,2,0,B|255:145|306:133|262:64|356:84|348:112|340:140|432:160|389:92|440:80|488:112,1,300,2|2,0:0|0:0,0:0:0:0:
256,192,196974,12,4,199301,0:0:0:0:
