osu file format v12

[General]
AudioFilename: Taylor Swift - I Knew You Were Trouble LYRICS.mp3
AudioLeadIn: 0
PreviewTime: 66803
Countdown: 1
SampleSet: Soft
StackLeniency: 0.7
Mode: 0
LetterboxInBreaks: 1

[Editor]
DistanceSpacing: 1.2
BeatDivisor: 4
GridSize: 8

[Metadata]
Title:I Knew You Were Trouble
TitleUnicode:I Knew You Were Trouble
Artist:Taylor Swift
ArtistUnicode:Taylor Swift
Creator:gohan0912
Version:Hard
Source:
Tags:
BeatmapID:225732
BeatmapSetID:81293

[Difficulty]
HPDrainRate:6
CircleSize:4
OverallDifficulty:6
ApproachRate:8
SliderMultiplier:1.4
SliderTickRate:1

[Events]
//Background and Video events
0,0,"3499_4621450107602_636702381_n.jpg",1,1
//Break Periods
2,46061,53683
2,110737,116020
2,153982,167449
//Storyboard Layer 0 (Background)
//Storyboard Layer 1 (Fail)
//Storyboard Layer 2 (Pass)
//Storyboard Layer 3 (Foreground)
//Storyboard Sound Samples
//Background Colour Transformations
3,100,163,162,255

[TimingPoints]
4563,389.61038961039,4,1,0,100,1,0
28718,-200,4,1,0,100,0,0
29595,-100,4,1,0,100,0,0
66900,-66.6666666666667,4,1,0,100,0,0
79173,-100,4,1,0,100,0,0
89790,-83.3333333333333,4,1,0,100,0,0
116770,-66.6666666666667,4,2,0,100,0,0

[Colours]
Combo1 : 0,128,192
Combo2 : 0,255,255
Combo3 : 5,5,240
Combo4 : 240,5,5
Combo5 : 0,128,0
Combo6 : 128,0,255
Combo7 : 100,0,0
Combo8 : 253,253,0

[HitObjects]
264,248,4563,2,0,L|264:104,1,140
176,112,5147,1,0,0:0:0:0:
264,112,5342,1,0,0:0:0:0:
432,112,5731,1,8,2:1:0:0:
432,280,6121,6,0,B|360:248|352:288|352:288|328:272|296:232,1,140
264,192,6705,1,0,0:0:0:0:
328,136,6900,1,0,0:0:0:0:
264,192,7290,1,8,2:1:0:0:
96,192,7679,6,0,B|152:144|152:144|200:200,1,140
200,280,8264,2,0,L|280:280,1,70
440,280,8848,1,8,2:1:0:0:
432,112,9238,6,0,L|336:216,1,140
337,214,9822,1,0,0:0:0:0:
337,214,10017,1,0,0:0:0:0:
337,214,10407,1,8,2:1:0:0:
176,168,10796,6,0,L|120:240,2,70
304,56,11575,2,0,P|368:112|368:192,1,140,0|8,0:0|2:1,0:0:0:0:
352,328,12355,2,0,L|272:328,2,70
480,216,13134,2,0,P|432:184|320:184,1,140,0|8,0:0|2:1,0:0:0:0:
272,184,13718,6,0,L|272:104,2,70
272,114,14303,1,0,0:0:0:0:
104,96,14692,2,0,P|72:160|96:240,1,140,0|8,0:0|2:1,0:0:0:0:
232,280,15472,1,0,2:0:0:0:
368,184,15861,1,0,2:0:0:0:
232,88,16251,1,0,2:0:0:0:
64,192,16835,5,0,0:0:0:0:
144,192,17030,2,0,L|240:192,2,70
288,192,17614,1,0,0:0:0:0:
336,120,17809,2,0,B|296:56|264:144|224:144|192:88,1,140,8|0,2:1|0:0,0:0:0:0:
144,64,18394,5,0,0:0:0:0:
88,128,18588,1,0,0:0:0:0:
136,200,18783,2,0,L|184:256,2,70
192,136,19368,2,0,P|232:96|336:104,1,140,0|8,0:0|2:1,0:0:0:0:
312,176,19952,5,0,0:0:0:0:
344,256,20147,2,0,P|376:304|472:296,1,140
448,144,20926,2,0,P|400:80|320:80,1,140,0|8,0:0|2:1,0:0:0:0:
264,216,21511,2,0,L|208:296,2,70
264,128,22095,1,0,0:0:0:0:
264,128,22290,1,0,0:0:0:0:
200,72,22485,2,0,B|132:72|160:88|166:139|86:151,1,140,0|8,0:0|2:1,0:0:0:0:
104,232,23069,5,0,0:0:0:0:
144,312,23264,1,0,0:0:0:0:
232,312,23459,1,0,0:0:0:0:
312,312,23653,2,0,B|376:312|416:280|432:232|416:216,1,140
424,240,24433,1,8,2:1:0:0:
424,240,24627,5,0,0:0:0:0:
424,152,24822,2,0,L|424:72,2,70
256,152,25601,1,0,0:0:0:0:
256,152,25991,1,8,2:1:0:0:
200,88,26186,6,0,L|112:88,1,70
72,152,26575,1,0,0:0:0:0:
128,216,26770,2,0,L|264:272,1,140
424,312,27550,1,0,0:0:0:0:
424,144,27939,1,0,0:0:0:0:
256,144,28329,1,0,0:0:0:0:
104,144,28718,2,0,P|56:176|96:232,1,140
256,312,30472,5,0,0:0:0:0:
256,224,30666,1,0,0:0:0:0:
256,144,30861,2,0,B|256:96|256:64|240:40|184:32|144:40|104:48,2,210,8|0|0,1:2|0:0|0:0,0:0:0:0:
344,152,32225,2,0,L|424:152,2,70,8|0|0,1:2|0:0|0:0,0:0:0:0:
88,152,33199,1,0,0:0:0:0:
256,72,33588,5,0,0:0:0:0:
256,160,33782,1,0,0:0:0:0:
256,240,33978,2,0,B|256:288|256:320|272:344|328:352|368:344|408:336,2,210,8|0|0,1:2|0:0|0:0,0:0:0:0:
168,232,35342,2,0,L|88:232,2,70,0|0|8,0:0|0:0|0:2,0:0:0:0:
424,232,36315,1,0,0:0:0:0:
256,160,36705,5,0,0:0:0:0:
256,160,36900,1,0,0:0:0:0:
256,192,37095,12,8,38848,0:2:0:0:
152,104,39433,5,0,0:0:0:0:
208,160,39627,2,0,L|208:256,1,70
256,296,40017,1,0,0:0:0:0:
384,184,40407,2,0,B|352:208|352:208|320:168|320:168|304:208|264:184|224:176|184:88,1,280,8|0,2:0|0:0,0:0:0:0:
256,336,41770,5,0,0:0:0:0:
200,272,41965,2,0,L|104:136,1,140
312,272,42744,2,0,L|408:136,1,140,0|8,0:0|2:0,0:0:0:0:
264,56,43524,1,0,0:0:0:0:
208,120,43718,1,0,0:0:0:0:
152,184,43913,1,0,0:0:0:0:
152,184,44108,1,0,0:0:0:0:
152,184,44303,1,0,0:0:0:0:
256,192,44692,12,8,45861,2:0:0:0:
360,88,54433,6,0,P|280:72|224:128,1,140,0|0,0:0|0:0,0:0:0:0:
360,296,55212,2,0,P|280:312|224:256,1,140,0|10,0:0|2:2,0:0:0:0:
224,192,55991,1,0,0:0:0:0:
312,192,56186,2,0,L|408:192,2,70
224,192,56770,1,0,0:0:0:0:
56,192,57160,2,0,B|48:128|104:96|296:120,1,280,10|0,2:2|0:2,2:2:0:0:
376,136,58913,5,0,0:0:0:0:
328,200,59108,2,0,L|440:320,1,140,10|0,2:2|0:0,0:0:0:0:
288,200,59887,2,0,L|184:312,1,140,0|0,0:0|0:0,0:0:0:0:
80,208,60666,1,0,0:0:0:0:
248,208,61056,1,0,0:0:0:0:
168,56,61446,1,0,0:0:0:0:
160,224,61835,1,10,2:2:0:0:
272,104,62225,1,0,0:0:0:0:
392,216,62614,2,0,L|312:216,2,70
256,192,63394,2,0,B|176:224|112:168|144:136,3,140,10|0|0|10,2:2|0:0|0:0|2:2,0:0:0:0:
256,48,64952,5,0,0:0:0:0:
256,136,65147,2,0,L|256:224,1,70
256,288,65537,2,0,L|336:288,2,70
184,240,66121,2,0,B|128:208|104:144|128:104,1,140
384,40,66900,6,0,P|424:88|272:344,1,420.000016021729,2|0,0:0|0:0,0:0:0:0:
256,152,68069,1,0,0:0:0:0:
128,40,68459,2,4,P|88:88|240:344,1,420.000016021729,2|4,0:0|0:0,0:0:0:0:
256,176,69627,1,0,0:0:0:0:
256,64,70017,2,0,L|256:288,1,210.000008010865,2|0,0:0|0:0,0:0:0:0:
352,288,70796,2,0,B|392:240|359:170|359:170|456:112,1,210.000008010865,2|0,3:0|0:3,0:3:0:0:
160,288,71575,2,0,B|120:240|152:170|152:170|56:112,1,210.000008010865,2|0,3:0|0:0,0:0:0:0:
256,24,72355,2,0,L|256:248,1,210.000008010865,2|0,3:0|0:0,3:0:0:0:
256,352,73134,6,0,B|256:320|256:320|240:312|240:312|272:312|272:312|240:304|240:304|272:304|272:304|240:296|240:296|272:296|272:296|240:288|240:288|272:288|272:288|240:280|240:280|272:280|272:280|256:272|256:272|256:168,1,420.000016021729,0|2,0:0|0:0,0:0:0:0:
96,256,74303,1,0,0:0:0:0:
72,112,74692,2,0,B|72:96|88:80|80:56|136:48|144:112|144:120|160:80|160:80|184:112|192:104|160:56|256:56|344:72,1,315.000012016297
456,80,75472,2,0,L|456:296,2,210.000008010865,2|0|0,0:0|0:0|0:0,0:0:0:0:
208,80,76640,5,0,0:0:0:0:
24,272,77030,2,0,B|80:344|80:344|136:280|200:224|248:288,1,210.000008010865,2|0,3:0|0:0,0:0:0:0:
192,120,77809,2,0,B|248:48|248:48|304:112|368:168|416:104,1,210.000008010865,2|0,3:0|0:0,0:0:0:0:
360,272,78588,2,0,B|416:344|416:344|472:280|536:224|584:288,1,210.000008010865,2|0,3:0|0:0,0:0:0:0:
360,184,79368,6,0,B|304:208|304:208|272:168|272:168|232:160|232:160,1,140
224,80,79952,1,0,0:0:0:0:
104,80,80147,2,0,B|152:120|152:120|168:136|168:136|160:192,1,140,0|8,0:0|0:2,0:0:0:0:
96,224,80731,1,0,0:0:0:0:
96,312,80926,2,0,L|0:312,2,70
184,312,81511,1,0,0:0:0:0:
264,312,81705,2,0,B|320:312|320:312|352:224,1,140,0|8,0:0|0:2,0:0:0:0:
280,112,82485,6,0,B|264:64|264:64|146:64,1,140
208,192,83069,1,0,0:0:0:0:
280,272,83264,2,0,B|264:320|264:320|174:319,1,140,0|8,0:0|0:2,0:0:0:0:
120,256,83848,1,0,0:0:0:0:
64,192,84043,2,0,L|-16:192,2,70
120,128,84627,1,0,0:0:0:0:
200,120,84822,2,0,B|200:160|184:216|280:248,1,140,0|8,0:0|0:2,0:0:0:0:
432,96,85407,5,0,0:0:0:0:
352,96,85601,2,0,B|336:105|336:105|320:136|320:136|320:72|320:72|312:104|312:104|296:88|240:64|168:128,1,280,0|4,0:0|0:0,0:0:0:0:
96,280,86965,5,0,0:0:0:0:
168,320,87159,2,0,B|184:312|184:312|200:280|200:280|200:344|200:344|208:312|208:312|224:328|280:352|352:288,1,280,0|4,0:0|0:0,0:0:0:0:
112,40,88524,5,0,0:0:0:0:
168,88,88718,2,0,B|216:112|216:112|184:128|184:128|192:120|192:104|264:48|360:184,1,280
296,360,89887,1,4,0:3:0:0:
128,248,90277,1,4,0:3:0:0:
232,80,90666,1,4,0:3:0:0:
408,160,91056,1,4,0:3:0:0:
168,112,91835,6,0,B|126:137|126:137|117:197|117:197|67:228,1,167.999994873047
256,56,92420,1,0,0:0:0:0:
344,112,92614,2,0,B|385:137|385:137|394:197|394:197|444:228,1,167.999994873047,0|8,0:0|0:2,0:0:0:0:
128,224,93394,6,0,P|144:272|256:328,1,167.999994873047
256,192,93978,1,0,0:0:0:0:
384,224,94173,2,0,P|368:272|256:328,1,167.999994873047,0|8,0:2|0:2,0:2:0:0:
128,136,94952,2,0,L|128:224,2,83.9999974365235
384,136,95731,2,0,L|384:224,2,83.9999974365235,0|0|8,0:0|0:0|0:2,0:0:0:0:
352,296,96511,2,0,B|392:248|360:200|360:200|432:168,1,167.999994873047
256,144,97096,1,0,0:0:0:0:
160,296,97290,2,0,B|120:248|152:200|152:200|80:168,1,167.999994873047,0|8,0:0|0:2,0:0:0:0:
152,80,98070,6,0,P|136:128|24:184,1,167.999994873047
256,192,98654,1,0,0:0:0:0:
360,80,98848,2,0,P|376:128|488:184,1,167.999994873047,0|8,0:0|0:2,0:0:0:0:
96,240,99627,6,0,B|112:296|112:296|144:312|232:328,1,167.999994873047
256,184,100212,1,0,0:0:0:0:
416,120,100407,2,0,B|400:64|400:64|368:48|280:32,1,167.999994873047,0|8,0:0|0:2,0:0:0:0:
256,192,101186,12,0,101965,0:0:0:0:
256,320,102355,5,4,0:3:0:0:
104,184,102744,1,4,0:3:0:0:
264,64,103134,1,4,0:3:0:0:
456,192,103524,2,0,B|336:112|280:336|152:176,1,335.999989746094
80,64,104887,5,2,0:0:0:0:
232,192,105277,2,2,L|232:304,1,83.9999974365235,2|14,0:0|0:0,0:0:0:0:
432,272,105861,1,2,0:0:0:0:
256,24,106446,1,2,0:0:0:0:
144,192,106835,2,2,L|232:192,1,83.9999974365235,2|14,0:0|0:0,0:0:0:0:
432,192,107420,5,2,0:0:0:0:
144,88,108004,1,2,0:0:0:0:
304,216,108394,2,2,L|376:280,1,83.9999974365235,2|14,0:0|0:0,0:0:0:0:
256,104,108978,1,2,0:0:0:0:
24,192,109563,1,2,0:0:0:0:
224,192,109952,2,14,L|112:192,1,83.9999974365235,2|14,0:0|0:0,0:0:0:0:
392,80,110537,5,4,0:0:0:0:
160,80,116770,6,0,B|80:104|80:104|120:144|152:240,1,210.000008010865,4|2,2:2|0:1,2:2:0:0:
376,320,117550,2,0,B|456:296|456:296|416:256|384:160,1,210.000008010865,4|2,0:0|0:1,0:0:0:0:
256,32,118329,2,0,L|256:152,1,105.000004005432
256,264,118718,1,0,0:0:0:0:
256,264,118913,1,0,0:0:0:0:
256,264,119108,2,0,B|312:232|384:272|384:272|368:248|376:192|416:168,1,210.000008010865,0|2,0:0|0:1,0:0:0:0:
160,88,119887,6,0,B|112:112|112:112|120:128|152:152|80:280,1,210.000008010865,0|2,0:0|0:1,0:0:0:0:
352,88,120666,2,0,B|400:112|400:112|392:128|360:152|432:280,1,210.000008010865,0|2,0:0|0:1,0:0:0:0:
256,304,121251,1,0,0:0:0:0:
256,304,121446,1,0,0:0:0:0:
368,208,121835,2,0,B|400:144|400:144|448:152|448:152|480:128|440:48,2,210.000008010865,0|4|4,0:0|0:0|0:0,0:0:0:0:
160,64,123004,6,0,B|96:128|80:216|112:288,1,210.000008010865,0|2,0:0|0:1,0:0:0:0:
240,184,123783,2,0,P|312:208|480:232,1,210.000008010865,0|2,0:0|0:1,0:0:0:0:
456,152,124563,1,0,0:0:0:0:
368,64,124757,1,0,0:0:0:0:
240,48,124952,1,0,0:0:0:0:
120,80,125147,1,0,0:0:0:0:
72,200,125342,2,0,L|128:304,1,105.000004005432
240,328,125731,2,0,B|302:198|136:221|249:108,2,210.000008010865
256,40,126900,1,4,0:0:0:0:
256,296,127290,5,0,0:0:0:0:
256,208,127485,1,0,0:0:0:0:
256,120,127679,1,0,0:0:0:0:
416,48,128069,2,0,B|464:104|464:104|416:112|384:192|424:248,1,210.000008010865,0|2,0:0|0:1,0:0:0:0:
256,296,128848,2,0,B|184:288|184:288|176:240|128:216|32:240,2,210.000008010865,2|4|0,0:1|0:0|0:0,0:0:0:0:
248,80,130017,6,0,B|312:72|384:72|408:208,1,210.000008010865,4|0,0:0|0:0,0:0:0:0:
208,336,130796,1,0,0:0:0:0:
208,336,130991,1,0,0:0:0:0:
208,336,131186,1,0,0:0:0:0:
136,264,131381,1,0,0:0:0:0:
80,176,131575,2,0,B|136:120|136:120|152:104|136:168|264:208,1,210.000008010865,4|2,0:0|0:1,0:0:0:0:
416,64,132355,2,0,B|368:96|368:96|400:88|400:88|416:88|440:128|400:216,1,210.000008010865,4|2,0:0|0:1,0:0:0:0:
256,336,133134,1,4,0:0:0:0:
128,88,133718,5,4,0:0:0:0:
128,200,133913,2,4,L|304:56,1,210.000008010865
440,192,134692,2,4,L|248:352,1,210.000008010865
108,193,135472,6,0,B|75:270|75:270|131:265|225:302,1,210.000008010865,0|2,0:0|0:1,0:0:0:0:
431,182,136252,2,0,B|464:105|464:105|407:110|313:73,1,210.000008010865,0|2,0:0|0:1,0:0:0:0:
96,128,137031,2,0,B|71:159|71:159|112:240,1,105.000004005432
168,320,137420,1,0,0:0:0:0:
288,288,137615,1,0,0:0:0:0:
200,200,137810,2,0,B|222:139|303:123|303:123|275:115|245:67|260:23,1,210.000008010865
112,104,138588,2,0,B|80:208|112:256|112:256|184:216|240:280|240:280|296:288|328:208,1,420.000016021729
440,344,139757,5,0,0:0:0:0:
440,248,139952,1,0,0:0:0:0:
440,152,140147,1,0,0:0:0:0:
368,72,140342,1,0,0:0:0:0:
280,128,140537,2,0,B|336:152|336:152|288:168|272:208|232:280,2,210.000008010865
152,56,141705,6,0,B|45:85|45:85|56:104|104:184|104:184|51:266|51:266|144:336,1,420.000016021729,4|2,0:0|0:1,0:0:0:0:
256,152,142874,1,0,0:0:0:0:
360,56,143264,2,0,B|466:85|466:85|456:104|408:184|408:184|460:266|460:266|456:280,1,315.000012016297,4|0,0:0|0:0,0:0:0:0:
416,272,144043,1,2,0:1:0:0:
256,176,144432,1,0,0:0:0:0:
256,64,144822,2,0,L|256:288,1,210.000008010865,4|0,0:0|0:0,0:0:0:0:
160,288,145601,2,0,B|120:240|153:170|153:170|56:112,1,210.000008010865,2|0,3:0|0:3,0:3:0:0:
352,288,146380,2,0,B|392:240|360:170|360:170|456:112,1,210.000008010865,2|0,3:0|0:0,0:0:0:0:
256,24,147160,2,0,B|312:104|176:192|288:248,1,210.000008010865,2|0,3:0|0:0,3:0:0:0:
64,288,147939,6,0,B|95:287|95:287|104:303|104:303|103:271|103:271|112:303|112:303|111:271|111:271|120:303|120:303|119:271|119:271|128:302|128:302|127:270|127:270|136:302|136:302|135:270|135:270|143:286|143:286|248:288,1,420.000016021729,4|2,0:0|0:1,0:0:0:0:
416,288,149108,1,0,0:0:0:0:
440,112,149498,2,0,B|440:96|424:80|432:56|376:48|368:112|368:120|352:80|352:80|328:112|320:104|352:56|256:56|168:72,1,315.000012016297,4|2,0:0|0:1,0:0:0:0:
56,80,150277,2,0,L|56:296,2,210.000008010865,2|0|0,0:0|0:0|0:0,0:0:0:0:
304,80,151445,5,0,0:0:0:0:
184,248,151835,2,0,B|128:320|128:320|72:256|8:200|-40:264,1,210.000008010865,2|0,3:0|0:0,0:0:0:0:
272,120,152614,2,0,B|328:48|328:48|384:112|448:168|496:104,1,210.000008010865,2|0,3:0|0:0,0:0:0:0:
416,280,153393,2,0,B|360:352|360:352|304:288|240:232|192:296,1,210.000008010865,2|0,3:0|0:0,0:0:0:0:
88,32,168199,6,0,B|24:88|24:88|152:136,1,210.000008010865,4|2,0:2|0:1,0:0:0:0:
370,252,168978,6,0,B|488:296|488:296|424:352,1,210.000008010865,4|2,0:2|0:1,0:0:0:0:
224,192,169757,2,0,L|112:192,2,105.000004005432,2|0|0,0:0|0:0|0:0,0:0:0:0:
224,64,170342,1,0,0:0:0:0:
328,136,170537,2,0,B|368:208|280:256|352:352,2,210.000008010865,0|2|2,0:0|0:1|0:1,0:0:0:0:
224,64,171705,1,0,0:0:0:0:
96,96,172095,2,0,P|56:144|80:296,1,210.000008010865,4|0,0:0|0:0,0:0:0:0:
128,192,172679,5,0,0:0:0:0:
160,288,172874,2,0,B|222:281|262:347|262:347|364:300,1,210.000008010865,2|4,0:1|0:0,0:0:0:0:
160,96,173653,2,0,B|222:102|262:36|262:36|364:83,1,210.000008010865,2|2,0:1|0:1,0:0:0:0:
248,192,174433,6,0,L|416:48,1,210.000008010865
248,192,175212,2,0,L|72:336,1,210.000008010865
248,192,175991,1,0,0:0:0:0:
344,72,176381,1,0,0:0:0:0:
424,168,176575,1,0,0:0:0:0:
368,280,176770,1,0,0:0:0:0:
248,312,176965,1,0,0:0:0:0:
136,264,177160,2,0,P|72:208|136:104,3,210.000008010865
368,64,178718,5,0,0:0:0:0:
232,112,178913,2,0,L|176:64,2,52.5000020027161
328,200,179303,2,0,L|376:240,2,52.5000020027161
208,232,179692,2,0,L|144:288,2,52.5000020027161
264,176,180082,1,0,0:0:0:0:
152,120,180277,6,0,L|152:336,1,210.000008010865
336,104,181056,2,0,B|416:160|416:160|400:232|464:272|480:288,1,210.000008010865
328,296,181640,1,0,0:0:0:0:
328,296,181835,1,0,0:0:0:0:
96,192,182225,2,0,L|224:192,2,105.000004005432
96,64,182809,1,0,0:0:0:0:
224,72,183004,2,0,B|288:120|288:120|200:160|280:248,1,210.000008010865
392,8,183783,6,0,B|488:64|536:144|528:296|360:352,1,420.000016021729
40,192,185147,5,0,0:0:0:0:
152,144,185342,2,0,B|176:16|288:152|320:16,1,210.000008010865
416,272,186121,2,0,L|208:160,1,210.000008010865
456,56,186900,6,0,B|376:80|376:80|416:120|448:216,1,210.000008010865,4|2,2:2|0:1,2:2:0:0:
192,256,187680,2,0,B|272:232|272:232|232:192|200:96,1,210.000008010865,4|2,0:0|0:1,0:0:0:0:
464,144,188459,2,0,L|312:144,1,105.000004005432
240,96,188848,1,0,0:0:0:0:
240,96,189043,1,0,0:0:0:0:
240,96,189238,2,0,B|184:128|112:87|112:87|128:112|120:168|80:191,1,210.000008010865,0|2,0:0|0:1,0:0:0:0:
336,56,190017,6,0,B|288:80|288:80|296:96|328:120|256:248,1,210.000008010865,0|2,0:0|0:1,0:0:0:0:
80,56,190796,2,0,B|128:80|128:80|120:96|88:120|160:248,1,210.000008010865,0|2,0:0|0:1,0:0:0:0:
256,304,191381,1,0,0:0:0:0:
256,304,191576,1,0,0:0:0:0:
368,208,191965,2,0,B|400:144|400:144|448:152|448:152|480:128|440:48,2,210.000008010865,0|4|4,0:0|0:0|0:0,0:0:0:0:
152,328,193134,54,0,B|45:299|45:299|56:280|104:200|104:200|51:118|51:118|144:48,1,420.000016021729,4|2,0:0|0:1,0:0:0:0:
256,232,194303,1,0,0:0:0:0:
360,328,194693,2,0,B|466:299|466:299|456:280|408:200|408:200|460:118|460:118|456:104,1,315.000012016297,4|0,0:0|0:0,0:0:0:0:
416,112,195472,1,2,0:1:0:0:
256,208,195861,1,0,0:0:0:0:
256,320,196251,2,0,L|256:96,1,210.000008010865,4|0,0:0|0:0,0:0:0:0:
160,96,197030,2,0,B|120:144|153:214|153:214|56:272,1,210.000008010865,2|0,3:0|0:3,0:3:0:0:
352,96,197809,2,0,B|392:144|360:214|360:214|456:272,1,210.000008010865,2|0,3:0|0:0,0:0:0:0:
256,360,198589,2,0,B|312:280|176:192|288:136,1,210.000008010865,2|0,3:0|0:0,3:0:0:0:
80,144,199368,6,0,B|136:64|248:8|384:48|472:176,1,420.000016021729,4|2,0:0|0:1,0:0:0:0:
256,312,200537,1,0,0:0:0:0:
80,144,200926,2,0,L|232:144|424:144,1,315.000012016297,4|2,0:0|0:1,0:0:0:0:
432,144,201705,1,0,0:0:0:0:
280,344,202095,2,0,P|152:336|104:240,2,210.000008010865,0|4|0,0:0|0:0|0:0,0:0:0:0:
256,152,203264,6,0,L|88:312,1,210.000008010865,2|0,3:0|0:0,0:0:0:0:
256,96,204043,6,0,L|424:256,1,210.000008010865,2|0,3:0|0:0,0:0:0:0:
256,48,204822,6,0,L|88:208,1,210.000008010865,2|0,3:0|0:0,0:0:0:0:
256,336,205601,6,0,B|176:336|136:336|136:336|184:264|96:224|120:232,1,210.000008010865,4|2,0:0|0:1,0:0:0:0:
256,48,206381,2,0,B|176:48|136:48|136:48|184:120|96:160|120:152,1,210.000008010865,4|2,0:0|0:1,0:0:0:0:
160,192,207160,1,0,0:0:0:0:
288,192,207355,1,0,0:0:0:0:
416,192,207550,1,0,0:0:0:0:
416,64,207744,1,0,0:0:0:0:
288,64,207939,2,0,B|251:83|251:83|232:32|152:24|104:120,1,210.000008010865,2|0,0:1|0:0,0:0:0:0:
320,240,208718,6,0,B|218:264|218:264|142:195|137:163,1,210.000008010865,2|0,0:1|0:0,0:0:0:0:
24,272,209498,2,0,B|80:344|80:344|136:280|200:224|248:288,1,210.000008010865,2|0,3:0|0:0,0:0:0:0:
192,120,210277,2,0,B|248:48|248:48|304:112|368:168|416:104,1,210.000008010865,2|0,3:0|0:0,0:0:0:0:
360,272,211056,2,0,B|416:344|416:344|472:280|536:224|584:288,1,210.000008010865,2|0,3:0|0:0,0:0:0:0:
352,80,211835,6,0,B|432:104|432:104|392:144|360:240,1,210.000008010865,4|2,2:2|0:1,2:2:0:0:
136,320,212615,2,0,B|56:296|56:296|96:256|128:160,1,210.000008010865,4|2,0:0|0:1,0:0:0:0:
336,64,213394,2,0,L|336:184,1,105.000004005432
208,168,213783,1,0,0:0:0:0:
208,168,213978,1,0,0:0:0:0:
208,168,214173,2,0,B|152:136|80:176|80:176|96:152|88:96|48:72,1,210.000008010865,2|0,0:1|0:0,0:0:0:0:
208,168,214952,2,0,L|384:296,1,210.000008010865,2|0,0:1|0:0,0:0:0:0:
400,144,215731,6,0,P|328:58|225:77,1,210.000008010865,2|0,3:0|0:0,0:0:0:0:
112,240,216511,6,0,P|183:325|286:306,1,210.000008010865,2|0,3:0|0:0,0:0:0:0:
440,192,217290,6,0,B|385:91|312:24|149:59|88:136,1,420.000016021729,2|0,3:0|0:0,0:0:0:0:
