osu file format v12

[General]
AudioFilename: I Knew You Were Trouble.mp3
AudioLeadIn: 0
PreviewTime: 40493
Countdown: 0
SampleSet: Soft
StackLeniency: 0.5
Mode: 0
LetterboxInBreaks: 1
EpilepsyWarning: 1

[Editor]
Bookmarks: 9519,10882
DistanceSpacing: 1
BeatDivisor: 4
GridSize: 8

[Metadata]
Title:I Knew You Were Trouble
TitleUnicode:I Knew You Were Trouble
Artist:Taylor Swift
ArtistUnicode:Taylor Swift
Creator:Rolled
Version:Hard
Source:
Tags:
BeatmapID:210409
BeatmapSetID:73996

[Difficulty]
HPDrainRate:6
CircleSize:3
OverallDifficulty:7
ApproachRate:8
SliderMultiplier:2.3
SliderTickRate:2

[Events]
//Background and Video events
0,0,"taylor.png",0,0
//Break Periods
2,78290,79872
//Storyboard Layer 0 (Background)
//Storyboard Layer 1 (Fail)
//Storyboard Layer 2 (Pass)
//Storyboard Layer 3 (Foreground)
//Storyboard Sound Samples
//Background Colour Transformations
3,100,163,162,255

[TimingPoints]
3285.24503311258,389.610993377483,4,2,1,40,1,0
40687,-133.333333333333,4,2,1,25,0,0
52960,-100,4,2,1,35,0,0
64064,-100,4,2,1,5,0,0
65428,-100,4,1,1,40,0,0
65623,-100,4,1,1,40,0,1
77408,-100,4,1,1,26,0,1
77993,-100,4,2,1,40,0,0
78869,-100,4,2,1,40,0,0

[Colours]
Combo1 : 0,117,36
Combo2 : 251,210,14
Combo3 : 220,22,21
SliderBorder : 0,0,0
SliderTrackOverride : 255,255,255

[HitObjects]
96,40,3285,2,0,B|0:112|0:184|0:288|104:344,1,345,14|8,0:0|0:0,0:0:0:0:
256,240,4064,1,2,0:0:0:0:
256,240,4454,5,8,0:0:0:0:
256,128,4648,1,0,0:0:0:0:
416,40,4843,2,0,B|512:112|512:184|512:288|408:344,1,345,10|8,0:0|0:0,0:0:0:0:
328,296,5622,1,2,0:0:0:0:
280,296,5817,1,0,0:0:0:0:
232,296,6012,1,8,0:0:0:0:
184,296,6207,1,0,0:0:0:0:
85,332,6402,6,0,B|0:288|0:184|0:112|96:40,1,345,14|8,0:0|0:0,0:0:0:0:
96,192,7181,2,0,B|104:112|168:88|248:136|256:40,1,230,2|8,0:0|0:0,0:0:0:0:
256,128,7765,1,0,0:0:0:0:
426,332,7960,6,0,B|512:288|512:184|512:112|416:40,1,345,10|8,0:0|0:0,0:0:0:0:
400,136,8739,2,0,B|432:192|424:224|384:256,1,115,2|0,0:0|0:0,0:0:0:0:
344,304,9129,1,8,0:0:0:0:
264,328,9325,1,0,0:0:0:0:
96,40,9519,6,0,B|0:112|0:184|0:288|104:344,1,345,14|8,0:0|0:0,0:0:0:0:
136,272,10298,1,2,0:0:0:0:
376,112,10687,1,8,0:0:0:0:
376,112,10882,1,0,0:0:0:0:
416,40,11077,6,0,B|512:112|512:184|512:288|408:344,1,345,14|8,0:0|0:0,0:0:0:0:
376,272,11856,1,2,0:0:0:0:
136,272,12246,1,8,0:0:0:0:
136,272,12441,1,0,0:0:0:0:
85,332,12635,6,0,B|0:288|0:184|0:112|96:40,1,345,14|8,0:0|0:0,0:0:0:0:
128,128,13415,2,0,L|232:80,1,115,2|0,0:0|0:0,0:0:0:0:
280,80,13804,2,0,L|384:128,1,115,10|0,0:0|0:0,0:0:0:0:
384,184,14194,2,0,L|280:232,1,115,10|0,0:0|0:0,0:0:0:0:
232,232,14583,2,0,L|128:184,1,115,2|8,0:0|0:0,0:0:0:0:
256,152,14973,1,2,0:0:0:0:
464,352,15363,5,8,0:0:0:0:
464,272,15557,1,0,0:0:0:0:
464,192,15752,2,0,B|464:112|480:48|472:-8|384:-16|304:0|320:112,1,345,14|8,0:0|0:0,0:0:0:0:
312,168,16532,2,0,B|312:240|312:320|280:344|216:344,1,230,2|8,0:0|0:0,0:0:0:0:
136,344,17116,1,0,0:0:0:0:
48,344,17311,6,0,B|48:264|32:200|40:144|128:136|208:152|192:264,1,345,10|8,0:0|0:0,0:0:0:0:
192,160,18090,2,0,P|128:136|88:80,1,115,2|0,0:0|0:0,0:0:0:0:
40,40,18480,1,8,0:0:0:0:
40,40,18674,1,0,0:0:0:0:
168,48,18869,6,0,B|240:16|320:0|440:24|512:64,1,345,14|8,0:0|0:0,0:0:0:0:
288,136,19648,2,0,B|208:168|112:176|24:104,1,230,2|8,0:0|0:0,0:0:0:0:
24,200,20233,1,0,0:0:0:0:
168,200,20428,6,0,B|256:200|400:232|512:368,1,345,10|8,0:0|0:0,0:0:0:0:
480,248,21207,1,2,0:0:0:0:
480,168,21402,1,0,0:0:0:0:
480,88,21596,1,8,0:0:0:0:
480,8,21791,1,0,0:0:0:0:
344,96,21986,6,0,P|344:160|368:232,1,115,14|0,0:0|0:0,0:0:0:0:
296,152,22376,2,0,P|296:88|264:40,1,115,2|8,0:0|0:0,0:0:0:0:
270,45,22765,1,2,0:0:0:0:
270,45,23155,5,8,0:0:0:0:
168,176,23350,1,0,0:0:0:0:
168,176,23545,2,0,P|168:240|192:312,1,115,12|0,0:0|0:0,0:0:0:0:
120,232,23935,2,0,P|120:168|88:120,1,115,2|8,0:0|0:0,0:0:0:0:
94,125,24324,1,2,0:0:0:0:
94,125,24713,5,8,0:0:0:0:
256,192,24908,1,0,0:0:0:0:
417,125,25103,2,0,P|432:56|472:8,2,115,14|0|2,0:0|0:0|0:0,0:0:0:0:
360,208,25687,1,8,0:0:0:0:
280,288,25882,2,0,P|176:272|144:256,1,115,2|0,0:0|0:0,0:0:0:0:
8,272,26272,2,0,L|104:352,1,115,10|0,0:0|0:0,0:0:0:0:
320,384,26661,2,0,B|408:368|496:280|464:184,1,230,10|2,0:0|0:0,0:0:0:0:
280,288,27246,1,8,0:0:0:0:
192,272,27441,2,0,B|182:215|254:135|342:119,1,230,2|10,0:0|0:0,0:0:0:0:
424,120,28025,1,0,0:0:0:0:
240,144,28220,6,0,B|176:216|48:232|-16:152,1,230,4|2,0:0|0:0,0:0:0:0:
120,112,28804,2,0,B|176:40|288:16|360:96,1,230,4|0,0:0|0:0,0:0:0:0:
424,120,29389,1,8,0:0:0:0:
272,240,29778,6,0,B|336:168|464:152|528:232,1,230,4|2,0:0|0:0,0:0:0:0:
392,272,30362,2,0,B|336:344|224:368|152:288,1,230,4|0,0:0|0:0,0:0:0:0:
88,264,30947,1,8,0:0:0:0:
440,48,31337,6,0,L|312:48,1,115,4|0,0:0|0:0,0:0:0:0:
208,48,31726,1,2,0:0:0:0:
64,144,31921,2,0,L|192:144,1,115,4|0,0:0|0:0,0:0:0:0:
296,144,32311,2,0,L|432:144,2,115,0|8|0,0:0|0:0|0:0,0:0:0:0:
224,232,32895,5,4,0:0:0:0:
112,232,33090,2,0,L|-8:232,2,115,0|2|4,0:0|0:0|0:0,0:0:0:0:
168,320,33674,1,0,0:0:0:0:
280,328,33869,2,0,L|400:328,1,115,0|8,0:0|0:0,0:0:0:0:
512,328,34259,1,0,0:0:0:0:
432,216,34454,6,0,B|352:176|288:88|296:16,1,230,4|2,0:0|0:0,0:0:0:0:
408,136,35038,2,0,P|296:96|176:120,1,230,4|0,0:0|0:0,0:0:0:0:
80,152,35622,2,0,L|24:48,1,115,8|0,0:0|0:0,0:0:0:0:
160,232,36012,6,0,B|240:272|304:336|328:384,1,230,4|2,0:0|0:0,0:0:0:0:
280,280,36596,2,0,B|240:192|256:96|296:48,1,230,4|0,0:0|0:0,0:0:0:0:
368,80,37181,1,4,0:0:0:0:
408,152,37376,1,0,0:0:0:0:
176,192,37571,6,0,P|96:208|56:240,2,115,4|0|2,0:0|0:0|0:0,0:0:0:0:
256,136,38155,1,4,0:0:0:0:
304,248,38350,2,0,P|384:264|424:296,2,115,0|0|8,0:0|0:0|0:0,0:0:0:0:
208,304,38934,1,0,0:0:0:0:
304,248,39129,2,0,B|328:160|392:112|464:88,1,230,4|2,0:0|0:0,0:0:0:0:
328,144,39713,2,0,B|272:200|176:224|88:208,1,230,4|0,0:0|0:0,0:0:0:0:
208,304,40298,1,8,0:0:0:0:
16,112,40687,6,0,B|144:16|248:0|352:16|432:64|488:112|512:128,1,517.500019741059,4|0,0:0|0:0,0:0:0:0:
496,272,42246,6,0,B|368:368|264:384|160:368|80:320|24:272|0:256,1,517.500019741059,4|0,0:0|0:0,0:0:0:0:
16,112,43804,6,0,B|144:16|248:0|352:16|432:64|488:112|512:128,1,517.500019741059,4|0,0:0|0:0,0:0:0:0:
256,152,45168,1,0,0:0:0:0:
80,192,45363,6,0,B|144:216|192:272|192:320,1,172.500006580353,4|0,0:0|0:0,0:0:0:0:
256,240,45947,1,0,0:0:0:0:
320,313,46142,2,0,B|320:272|368:216|432:192,2,172.500006580353,4|0|4,0:0|0:0|0:0,0:0:0:0:
256,240,47116,5,0,0:0:0:0:
192,168,47311,2,0,P|144:240|64:240,2,172.500006580353
256,240,48285,1,0,0:0:0:0:
320,168,48480,2,0,P|368:96|448:96,1,172.500006580353,4|0,0:0|0:0,0:0:0:0:
448,176,49064,1,0,0:0:0:0:
448,256,49259,1,0,0:0:0:0:
448,256,49454,1,0,0:0:0:0:
448,336,49648,6,0,B|360:320|240:336|152:368|16:328,1,431.250016450883
128,304,50817,2,0,B|184:264|224:192|240:144,1,172.500006580353
256,88,51402,1,0,0:0:0:0:
360,136,51597,6,0,L|464:144,1,86.2500032901765,4|0,0:0|0:0,0:0:0:0:
312,216,51986,1,0,0:0:0:0:
226,209,52181,1,0,0:0:0:0:
144,200,52376,2,0,L|40:192,1,86.2500032901765,4|0,0:0|0:0,0:0:0:0:
104,272,52765,1,0,0:0:0:0:
472,344,53155,6,0,B|432:288|432:168|472:112,1,230,12|2,0:0|0:0,0:0:0:0:
408,224,53739,2,0,B|408:296|360:368|240:352,1,230,2|0,0:0|0:0,0:0:0:0:
256,240,54324,1,2,0:0:0:0:
40,40,54713,6,0,B|80:96|80:216|40:272,1,230,12|2,0:0|0:0,0:0:0:0:
104,160,55297,2,0,B|104:88|152:16|272:32,1,230,2|0,0:0|0:0,0:0:0:0:
256,144,55882,1,2,0:0:0:0:
256,240,56077,1,0,0:0:0:0:
96,344,56272,6,0,P|208:320|336:328,1,230,12|2,0:0|0:0,0:0:0:0:
483,250,56856,2,0,P|367:263|243:234,1,230,2|0,0:0|0:0,0:0:0:0:
104,160,57441,2,0,P|56:104|24:80,1,115,2|0,0:0|0:0,0:0:0:0:
272,40,57830,5,4,0:0:0:0:
344,128,58025,1,0,0:0:0:0:
232,144,58220,1,8,0:0:0:0:
304,232,58415,1,0,0:0:0:0:
208,296,58610,2,0,B|144:240|40:240|-16:304,2,230,4|8|4,0:0|0:0|0:0,0:0:0:0:
368,336,59584,5,0,0:0:0:0:
304,232,59778,2,0,B|272:128|280:64|312:0,1,230,8|4,0:0|0:0,0:0:0:0:
256,160,60363,2,0,P|216:224|152:272,2,115,2|8|2,0:0|0:0|0:0,0:0:0:0:
360,96,60947,2,0,B|416:56|480:88|504:168|456:224,1,230,4|8,0:0|0:0,0:0:0:0:
400,320,61532,2,0,P|344:336|240:320,1,115,0|4,0:0|0:0,0:0:0:0:
176,296,61921,1,2,0:0:0:0:
104,208,62116,2,0,B|184:144|160:40|80:0,1,230,10|8,0:0|0:0,0:0:0:0:
256,160,62895,5,2,0:0:0:0:
304,224,63090,1,8,0:0:0:0:
472,336,63480,1,2,0:0:0:0:
496,256,63674,1,8,0:0:0:0:
256,192,64064,12,0,65233,0:0:0:0:
32,88,65623,6,0,B|168:64|272:144|384:136|488:96,1,460,4|6,0:0|0:0,0:0:0:0:
464,328,66986,1,0,0:0:0:0:
464,328,67181,2,0,B|352:280|264:384|104:320,1,345,4|0,0:0|0:0,0:0:0:0:
8,320,67960,1,6,0:0:0:0:
256,192,68545,5,0,0:0:0:0:
257,316,68739,2,0,B|329:308|369:244|377:180|353:108|313:76|249:68,1,345,4|0,0:0|0:0,0:0:0:0:
160,192,69519,1,2,0:0:0:0:
64,192,69713,1,0,0:0:0:0:
256,192,70103,5,0,0:0:0:0:
392,80,70298,2,0,P|400:144|432:200,1,115,2|0,0:0|0:0,0:0:0:0:
360,232,70590,2,0,P|376:296|376:352,1,115,2|0,0:0|0:0,0:0:0:0:
304,368,70882,1,2,0:0:0:0:
112,320,71077,2,0,B|72:384|-32:376|-56:280|-48:224|-8:184|64:192,1,345,8|8,0:0|0:0,0:0:0:0:
176,232,71856,6,0,B|256:200|336:120|432:72|480:72,1,345,4|0,0:0|0:0,0:0:0:0:
320,104,72636,2,2,B|216:144|112:136|32:104|-8:48,1,345
128,160,73415,2,0,B|232:200|336:288|400:336|432:336,1,345,4|0,0:0|0:0,0:0:0:0:
320,232,74194,2,2,B|272:184|264:88|336:32|416:16|480:80,1,345
264,152,74973,2,0,B|224:232|152:272|72:272,1,230,4|0,0:0|0:0,0:0:0:0:
8,336,75558,1,0,0:0:0:0:
96,352,75752,2,0,L|216:352,1,115,2|0,0:0|0:0,0:0:0:0:
440,304,76337,5,0,0:0:0:0:
296,232,76532,2,0,L|176:192,1,115,2|0,0:0|0:0,0:0:0:0:
80,152,76824,2,0,P|120:88|120:32,1,115,2|0,0:0|0:0,0:0:0:0:
224,16,77116,1,2,0:0:0:0:
440,48,77311,1,12,0:0:0:0:
440,112,77506,5,0,0:0:0:0:
440,176,77700,1,0,0:0:0:0:
440,240,77895,1,0,0:0:0:0:
440,304,78090,1,0,0:0:0:0:
256,88,80622,5,0,0:0:0:0:
256,112,80720,1,0,0:0:0:0:
256,136,80817,1,0,0:0:0:0:
256,160,80914,1,0,0:0:0:0:
256,184,81012,1,0,0:0:0:0:
256,208,81109,1,0,0:0:0:0:
256,232,81207,2,0,P|392:232|488:296,1,230,12|2,0:0|0:0,0:0:0:0:
304,328,81791,2,0,P|176:328|72:280,1,230,8|0,0:0|0:0,0:0:0:0:
152,192,82376,2,0,L|64:96,1,115,8|0,0:0|0:0,0:0:0:0:
40,64,82668,1,0,0:0:0:0:
96,64,82765,6,0,B|144:120|240:120|312:64,1,230,8|0,0:0|0:0,0:0:0:0:
488,144,83350,2,0,B|432:184|392:232|400:296|416:360,1,230,8|0,0:0|0:0,0:0:0:0:
352,352,83837,1,0,0:0:0:0:
296,352,83934,2,0,L|168:352,1,115,8|0,0:0|0:0,0:0:0:0:
0,296,84324,5,12,0:0:0:0:
88,216,84519,1,0,0:0:0:0:
144,120,84713,1,2,0:0:0:0:
144,8,84908,1,12,0:0:0:0:
144,120,85103,2,0,B|168:192|224:240|272:240|328:248,1,230,2|8,0:0|0:0,0:0:0:0:
504,216,85687,1,0,0:0:0:0:
512,296,85882,5,12,0:0:0:0:
424,216,86077,1,0,0:0:0:0:
368,120,86271,1,2,0:0:0:0:
368,8,86466,1,12,0:0:0:0:
368,120,86661,2,0,B|344:192|288:240|240:240|184:248,1,230,2|8,0:0|0:0,0:0:0:0:
8,216,87245,1,0,0:0:0:0:
216,344,87441,5,12,0:0:0:0:
288,344,87636,1,0,0:0:0:0:
194,246,87830,1,2,0:0:0:0:
304,248,88025,1,12,0:0:0:0:
176,152,88220,2,0,P|160:80|120:32,1,115,2|0,0:0|0:0,0:0:0:0:
336,152,88610,2,0,P|352:80|375:47,1,115,10|0,0:0|0:0,0:0:0:0:
256,128,88999,2,0,L|256:8,2,115,10|0|2,0:0|0:0|0:0,0:0:0:0:
256,128,89584,1,8,0:0:0:0:
152,336,89778,2,0,P|248:296|368:344,1,230,2|10,0:0|0:0,0:0:0:0:
488,272,90363,5,0,0:0:0:0:
368,200,90558,2,0,B|352:136|368:64|432:40|496:48,1,230,12|2,0:0|0:0,0:0:0:0:
336,80,91142,2,0,P|208:96|112:56,1,230,8|0,0:0|0:0,0:0:0:0:
8,24,91726,2,0,L|8:144,1,115,8|0,0:0|0:0,0:0:0:0:
8,200,92019,1,0,0:0:0:0:
8,264,92116,6,0,B|96:256|168:296|192:384,1,230,8|2,0:0|0:0,0:0:0:0:
136,248,92700,2,0,B|80:200|80:96|136:32,1,230,8|0,0:0|0:0,0:0:0:0:
240,80,93285,1,8,0:0:0:0:
336,136,93480,6,0,L|432:56,1,115,0|12,0:0|0:0,0:0:0:0:
336,136,93869,1,0,0:0:0:0:
280,240,94064,2,0,P|240:304|192:336,2,115,2|8|0,0:0|0:0|0:0,0:0:0:0:
392,232,94649,1,0,0:0:0:0:
384,320,94843,2,0,B|456:336|496:264|504:192|432:144,1,230,8|8,0:0|0:0,0:0:0:0:
336,136,95428,5,0,0:0:0:0:
224,104,95623,1,2,0:0:0:0:
128,40,95817,1,8,0:0:0:0:
8,16,96012,2,0,P|32:144|40:272,1,230,0|8,0:0|0:0,0:0:0:0:
39,243,96597,1,0,0:0:0:0:
16,344,96791,5,12,0:0:0:0:
128,280,96986,1,0,0:0:0:0:
256,256,97181,1,2,0:0:0:0:
384,280,97376,1,12,0:0:0:0:
496,344,97571,1,0,0:0:0:0:
256,256,97960,2,0,L|256:136,1,115,8|0,0:0|0:0,0:0:0:0:
497,54,98350,5,12,0:0:0:0:
385,118,98545,1,0,0:0:0:0:
257,142,98740,1,2,0:0:0:0:
129,118,98935,1,12,0:0:0:0:
17,54,99130,1,0,0:0:0:0:
