osu file format v9

[General]
AudioFilename: Enchanted.mp3
AudioLeadIn: 500
PreviewTime: 13041
Countdown: 0
SampleSet: Soft
StackLeniency: 0.7
Mode: 0
LetterboxInBreaks: 0

[Editor]
DistanceSpacing: 1
BeatDivisor: 6
GridSize: 4

[Metadata]
Title:Enchanted
Artist:Taylor Swift
Creator:-Baby Strawberry-
Version:Hard
Source:
Tags:Speak Now RoxasGrylls94

[Difficulty]
HPDrainRate:6
CircleSize:4
OverallDifficulty:5
ApproachRate:7
SliderMultiplier:2.5
SliderTickRate:2

[Events]
//Background and Video events
0,0,"Taylor BG.jpg"
//Break Periods
2,118993,123528
2,218535,229146
2,265378,275989
//Storyboard Layer 0 (Background)
//Storyboard Layer 1 (Fail)
//Storyboard Layer 2 (Pass)
//Storyboard Layer 3 (Foreground)
//Storyboard Sound Samples
//Background Colour Transformations
3,100,163,162,255

[TimingPoints]
1685,731.927317073171,4,2,1,60,1,0
15591,-100,4,2,2,40,0,0
15682,-100,4,2,1,60,0,0
18519,-100,4,2,2,40,0,0
18610,-100,4,2,1,60,0,0
24374,-100,4,2,2,40,0,0
24465,-100,4,2,1,60,0,0
40110,-200,4,2,1,60,0,0
40476,-200,4,2,2,40,0,0
40568,-200,4,2,1,60,0,0
41940,-200,4,2,2,40,0,0
42032,-200,4,2,1,60,0,0
43404,-200,4,2,2,40,0,0
43496,-200,4,2,1,60,0,0
44868,-100,4,2,1,60,0,0
75243,-200,4,2,1,60,0,0
75609,-200,4,2,2,40,0,0
75700,-200,4,2,1,60,0,0
77073,-200,4,2,2,40,0,0
77164,-200,4,2,1,60,0,0
78537,-200,4,2,2,40,0,0
78628,-200,4,2,1,60,0,0
80732,-100,4,2,1,60,0,0
86954,-200,4,2,1,60,0,0
87320,-200,4,2,2,40,0,0
87411,-200,4,2,1,60,0,0
88784,-200,4,2,2,40,0,0
88875,-200,4,2,1,60,0,0
90247,-200,4,2,2,40,0,0
90339,-200,4,2,1,60,0,0
91711,-100,4,2,1,80,0,0
95371,-100,4,2,1,80,0,1
113303,-100,4,2,1,20,0,1
115499,-200,4,2,1,60,0,1
116231,-100,4,2,1,20,0,1
118793,-100,4,2,2,60,0,0
124648,-100,4,2,1,70,0,0
151729,-100,4,2,2,50,0,0
151821,-100,4,2,1,70,0,0
153193,-100,4,2,2,50,0,0
153285,-100,4,2,1,70,0,0
154657,-100,4,2,2,50,0,0
154749,-100,4,2,1,70,0,0
163440,-100,4,2,2,50,0,0
163532,-100,4,2,1,70,0,0
164904,-100,4,2,2,50,0,0
164995,-100,4,2,1,70,0,0
166368,-100,4,2,2,50,0,0
166459,-100,4,2,1,70,0,0
171491,-100,4,2,1,80,0,1
177347,-200,4,2,1,60,0,1
177713,-100,4,2,1,60,0,1
178079,-100,4,2,1,80,0,1
200768,-200,4,2,1,60,0,1
201134,-100,4,2,1,60,0,1
201500,-100,4,2,1,80,0,1
212845,-100,4,2,1,20,0,1
215041,-200,4,2,1,60,0,1
215407,-100,4,2,1,60,0,1
215773,-100,4,2,1,20,0,1
218335,-100,4,2,2,60,0,0
230046,-200,4,2,1,80,0,0
230686,-200,4,2,1,5,0,0
230777,-200,4,2,1,80,0,0
231418,-200,4,2,1,5,0,0
231509,-200,4,2,1,80,0,0
232150,-200,4,2,1,5,0,0
232241,-200,4,2,1,80,0,0
232882,-133.333333333333,4,2,1,5,0,0
232973,-133.333333333333,4,2,1,80,0,0
233614,-133.333333333333,4,2,1,5,0,0
233705,-133.333333333333,4,2,1,80,0,0
234346,-133.333333333333,4,2,1,5,0,0
234437,-133.333333333333,4,2,1,80,0,0
235078,-133.333333333333,4,2,1,5,0,0
235169,-133.333333333333,4,2,1,80,0,0
235809,-100,4,2,1,5,0,0
235901,-100,4,2,1,80,0,0
236541,-100,4,2,1,5,0,0
236633,-100,4,2,1,80,0,0
237273,-100,4,2,1,5,0,0
237365,-100,4,2,1,80,0,0
238005,-100,4,2,1,5,0,0
238097,-100,4,2,1,80,0,0
238737,-100,4,2,1,5,0,0
238829,-100,4,2,1,80,0,0
241756,-100,4,2,1,80,0,1
256395,-200,4,2,1,60,0,0
262616,-200,4,2,1,5,0,0
265178,-200,4,2,2,60,0,0
276889,-100,4,2,1,60,0,0
288600,-100,4,2,1,80,0,1
311930,-100,4,2,1,60,0,0
312021,-100,4,2,1,60,0,1
329954,-100,4,2,1,20,0,1
332149,-200,4,2,1,60,0,0
332881,-200,4,2,1,20,0,0
336175,-200,4,2,1,50,0,0
344226,-200,4,2,1,5,0,0

[Colours]
Combo1 : 255,183,217
Combo2 : 255,159,162

[HitObjects]
256,192,1685,2,0,B|217:180|166:219|166:257,1,125
184,384,2416,2,0,B|222:395|273:356|273:316,1,125,2|0
256,192,3148,2,0,B|244:230|283:281|321:281,1,125
448,264,3880,2,0,B|459:225|420:174|380:174,1,125,2|0
256,192,4612,6,0,B|294:203|345:164|345:126,1,125
328,0,5344,2,0,B|289:-11|238:27|238:67,1,125,2|0
256,192,6076,2,0,B|267:153|228:102|190:102,1,125
64,120,6808,2,0,B|52:158|91:209|131:209,1,125,2|0
256,192,7540,6,0,B|295:180|346:219|346:257,1,125
328,384,8272,2,0,B|290:395|239:356|239:316,1,125,2|0
256,192,9004,2,0,B|218:203|167:164|167:126,1,125
188,8,9736,2,0,B|227:-3|278:35|278:75,1,125,2|0
256,192,10468,6,0,B|268:230|229:281|191:281,1,125
64,264,11200,2,0,B|53:225|92:174|132:174,1,125,2|0
256,192,11931,2,0,B|245:153|284:102|322:102,1,125
448,120,12663,2,0,B|460:158|421:209|381:209,1,125,2|0
256,192,13395,5,0
336,296,13761,1,0
208,312,14127,2,0,B|168:317|123:272|127:233,1,125,2|0
256,192,14859,1,0
240,64,15225,2,0,B|322:36|412:127|384:211,1,250
256,192,16323,5,0
176,88,16689,1,0
304,72,17055,2,0,B|343:66|388:111|383:151,1,125,2|0
256,192,17787,1,0
272,320,18153,2,0,B|189:347|99:256|127:172,1,250
256,192,19251,5,0
126,172,19617,1,0
208,80,19983,1,2
256,192,20349,1,0
304,304,20715,1,0
385,211,21081,1,0
256,192,21447,6,0,B|224:136|152:112|80:136|48:192,1,250,2|0
152,256,22544,1,0
256,192,22910,1,2
360,256,23276,1,0
464,192,23642,1,0
464,193,24008,2,0,B|432:136|360:112|288:136|256:192,1,250
256,64,25106,5,0
152,128,25472,1,0
256,192,25838,2,0,B|291:248|359:251,1,125,2|0
360,124,26570,2,0,B|324:67|256:64,1,125
152,128,27302,1,2
256,192,27668,1,0
256,320,28034,5,0
360,256,28400,1,0
256,192,28766,2,0,B|220:135|152:132,1,125,2|0
151,259,29498,2,0,B|187:316|255:319,1,125
360,256,30230,1,2
256,192,30596,1,0
160,112,30962,6,0,B|208:64|280:72,1,125
373,148,31694,2,0,B|390:214|347:272,1,125,2|0
234,315,32425,2,0,B|169:297|140:231,1,125
160,112,33157,2,0,B|208:64|280:72|280:72|280:72,2,125,2|0|0
256,192,34255,5,0
192,304,34621,2,0,B|256:328|320:304,2,125,2|0|0
136,192,35719,1,0
192,80,36085,2,0,B|256:56|320:80,1,125,2|0
376,192,36817,5,0
256,224,37183,1,0
344,312,37549,1,2
464,280,37915,1,0
376,192,38281,2,0,B|360:128|416:80,1,125,0|0
504,168,39013,1,2
416,80,39379,2,0,B|376:40|328:32|328:32|312:48,1,125,0|0
192,56,40111,6,0,B|144:56|112:88|120:136|120:136|80:168|80:216|120:248|120:248|112:296|144:328|192:328,1,375
312,328,42672,2,0,B|360:328|392:296|384:248|384:248|424:216|424:168|384:136|384:136|392:88|360:56|316:56,1,375,0|2
256,180,45234,1,0
216,312,45600,21,0
144,208,45966,1,0
240,288,46332,37,2
216,168,46698,1,0
272,288,47064,37,0
296,168,47430,1,0
296,312,47796,37,2
368,208,48162,1,0
416,88,48528,6,0,B|448:128|440:208,1,125
392,328,49260,2,0,B|360:288|368:208,1,125,2|0
256,152,49992,1,0
192,256,50358,1,0
320,256,50724,1,2
256,152,51090,1,0
144,208,51456,6,0,B|152:288|120:328,1,125
72,208,52187,2,0,B|64:128|96:88,1,125,2|0
200,152,52919,2,0,B|256:152|344:216|256:280|168:216|256:152|312:152,1,250,0|2
256,40,54017,1,0
312,152,54383,6,0,B|392:264,1,125
424,376,55115,2,0,B|312:312,1,125,2|0
196,313,55847,2,0,B|88:376,1,125
127,253,56579,2,0,B|200:152,1,125,2|0
280,72,57311,5,0
376,160,57677,1,0
352,280,58043,1,2
232,312,58409,1,0
136,224,58775,1,0
160,104,59141,1,0
280,72,59507,1,2
96,56,60056,5,0
72,64,60239,2,0,B|48:186,1,125
56,312,60971,2,0,B|128:304|152:240,1,125,2|0
272,264,61703,2,0,B|289:193|237:149,1,125
154,244,62434,2,0,B|136:314|188:358,1,125,2|0
312,376,63166,5,0
400,288,63532,1,0
272,264,63898,2,0,B|296:192|240:152,1,125,2|0
200,32,64630,2,0,B|128:48|119:115,1,125
40,208,65362,2,0,B|88:264|152:236,1,125,2|0
240,152,66094,5,0
320,56,66460,1,0
376,32,66643,1,0
440,40,66826,1,2
376,152,67192,1,0
376,152,67558,2,0,B|432:192|448:256,1,125
320,248,68290,2,0,B|325:316|286:370,1,125,2|0
168,336,69022,6,0,B|131:286|137:217,1,125
112,104,69754,2,0,B|161:67|230:73,1,125,2|0
344,48,70486,2,0,B|380:97|374:166,1,125
400,280,71218,2,0,B|350:316|281:310,1,125,2|0
256,192,71950,5,0
256,64,72315,1,0
256,192,72681,1,2
192,296,73047,2,0,B|256:328|320:296,2,125
128,192,74145,1,2
90,63,74511,2,0,B|160:56|208:96,1,125,0|0
320,48,75243,6,0,B|312:88|328:120|360:136|360:136|384:136|384:136|360:168|360:216|384:248|384:248|360:248|360:248|328:264|312:296|320:336,1,375
192,336,77805,2,0,B|200:296|184:264|152:248|152:248|128:248|128:248|152:216|152:168|128:136|128:136|152:136|152:136|184:120|200:88|192:48,1,375,0|0
256,160,80367,2,0,B|256:224,1,62.5,2|0
376,192,81099,5,0
320,304,81465,1,2
192,304,81831,1,0
136,192,82197,1,0
200,88,82562,2,0,B|240:88|256:64|256:64|272:88|312:88,1,125,0|2
256,192,83294,1,0
256,320,83660,6,0,B|232:256|168:232,1,125
256,320,84392,2,0,B|280:256|344:232,1,125,2|0
432,148,85124,1,0
368,40,85490,1,0
256,96,85856,1,2
144,40,86222,1,0
80,148,86588,1,0
116,256,86954,6,0,B|124:292|164:292|172:268|172:268|180:244|220:244|228:268|228:268|236:292|276:292|284:268|284:268|292:244|332:244|340:268|340:268|348:292|388:292|396:268|396:268|400:252,1,375
396,128,89516,2,0,B|388:92|348:92|340:116|340:116|332:140|292:140|284:116|284:116|276:92|236:92|228:116|228:116|220:140|180:140|172:116|172:116|164:92|124:92|116:116|116:116|112:132,1,375
112,129,92078,1,2
192,224,92443,6,0,B|146:265|75:254,1,125
315,231,93175,38,0,B|374:250|400:316,1,125,2|0
260,120,93907,38,0,B|247:60|291:4,1,125
256,192,94639,37,2
256,192,95371,6,0,B|256:320,1,125,4|0
368,256,96103,1,0
368,128,96469,1,0
256,64,96835,2,0,B|256:192,1,125,2|0
144,256,97567,1,0
144,128,97933,1,0
40,192,98299,6,0,B|16:128|40:64,1,125,2|0
144,128,99031,2,0,B|195:83|264:84,1,125
320,192,99763,2,0,B|336:256,1,62.5,2|0
288,288,100129,2,0,B|280:216,1,62.5
230,225,100495,2,0,B|224:288,1,62.5,2|0
176,252,100861,2,0,B|192:192,1,62.5
256,184,101227,5,4
256,184,101959,2,0,B|207:212|147:195|147:195|136:169,1,125,2|0
200,72,102690,2,0,B|232:64|256:40|256:40|280:64|312:72,1,125
369,183,103422,2,0,B|364:195|364:195|304:212|256:184,1,125,2|0
176,280,104154,1,0
256,376,104520,1,0
336,280,104886,37,2
256,184,105252,1,0
200,72,105618,2,0,B|143:121|183:183,1,125
328,183,106350,2,0,B|368:121|312:72,1,125,2|0
256,56,106899,1,0
256,120,107082,5,4
424,304,107814,2,0,B|389:355|316:355,1,125,2|0
304,232,108546,2,0,B|272:224|256:192|256:192|240:224|208:232,1,125
195,355,109278,2,0,B|122:355|88:304,1,125,2|0
100,180,110010,2,0,B|132:124,1,62.5
188,140,110376,2,0,B|236:76,1,62.5
292,92,110742,2,0,B|329:142,1,62.5,2|0
386,127,111108,2,0,B|417:181,1,62.5
360,216,111474,37,2
265,298,111840,1,0
157,233,112206,1,2
185,111,112571,1,0
310,100,112937,1,4
256,192,113303,12,0,115133
256,160,115499,6,0,B|256:222,1,62.5,2|4
256,192,116231,12,4,118793
352,136,124648,5,0
256,56,125014,1,0
160,136,125380,2,0,B|168:207|103:243,1,125,2|0
32,144,126112,1,0
107,241,126478,2,0,B|120:304|184:336,1,125,0|2
256,224,127210,1,0
328,336,127576,6,0,B|392:304|404:241,1,125
480,144,128308,1,2
404,241,128674,2,0,B|343:207|352:136,1,125
256,56,129406,1,0
160,136,129772,1,2
256,216,130138,2,0,B|256:344,1,125
152,272,130870,5,0
112,224,131053,1,0
56,208,131236,1,2
80,88,131602,1,0
80,88,131968,2,0,B|128:48|200:48,1,125
320,48,132699,2,0,B|387:47|435:87,1,125,2|0
456,208,133431,5,0
456,208,133797,1,0
400,224,133980,1,0
360,272,134163,1,2
256,192,134529,1,0
152,256,134895,2,0,B|128:192|152:128,1,125
362,133,135627,2,0,B|384:192|360:256,1,125,2|0
256,328,136359,6,0,B|216:280|144:272,1,125
80,168,137091,2,0,B|134:199|200:183,1,125,2|0
320,224,137823,1,0
368,112,138189,1,0
256,32,138555,1,2
152,96,138921,1,0
256,32,139287,6,0,B|296:80|368:88,1,125
432,192,140019,2,0,B|377:160|311:176,1,125,2|0
192,136,140751,1,0
144,248,141117,1,0
256,328,141483,1,2
368,176,142032,6,0,B|432:152,1,62.5
312,96,142581,1,0
256,72,142763,1,0
200,96,142946,1,2
256,208,143312,1,0
376,248,143678,2,0,B|344:248|344:280|344:280|344:307|344:307|344:344|312:336,1,125
192,336,144410,2,0,B|166:342|166:306|166:306|166:278|166:278|166:246|134:246,1,125,2|0
80,136,145142,6,0,B|168:48,1,125
256,136,145874,2,0,B|344:48,1,125,2|0
432,136,146606,2,0,B|344:48,1,125
256,136,147338,2,0,B|168:48,1,125,2|0
112,160,148070,6,0,B|144:224|88:272,1,125,4|0
208,240,148802,2,0,B|221:312|292:316,1,125,2|0
328,192,149534,2,0,B|367:132|436:156,1,125
416,280,150266,1,2
292,316,150632,2,0,B|221:312|208:240,1,125
287,106,151364,38,0,B|264:0|412:-56|528:-28|548:120|524:220|416:288|328:296|256:372|256:372|180:300|100:292|0:212|-32:120|0:8|100:-52|248:0|232:108,1,1375,2|0
160,184,155755,2,0,B|152:312,1,125,0|2
256,192,156487,2,0,B|256:320,1,125
352,184,157219,2,0,B|359:308,1,125,0|2
464,240,157951,5,0
448,120,158317,2,0,B|384:112|344:56,1,125
224,88,159049,2,0,B|256:88|352:160|256:256|160:160|256:88|288:88,1,250,2|4
168,56,160147,2,0,B|128:112|64:120,1,125,0|2
96,240,160879,1,0
192,320,161245,2,0,B|320:320,1,125
416,240,161977,1,2
312,172,162343,2,0,B|276:229|204:221,1,125
228,100,163074,38,0,B|244:-8|96:-60|-4:0|-36:112|-4:204|96:284|176:292|252:364|252:364|324:288|412:280|520:212|544:112|524:-36|408:-64|260:-8|283:98,1,1375,2|0
376,160,167466,1,0
288,248,167832,2,0,B|216:256|176:192,1,125,2|0
136,80,168564,21,0
270,28,168930,1,0
393,102,169296,37,2
411,245,169662,1,0
309,347,170028,37,0
166,329,170394,1,0
92,206,170760,37,2
293,67,171492,6,0,B|355:96|374:158,1,125,4|0
256,192,172224,1,2
341,283,172590,1,0
220,316,172955,2,0,B|157:286|138:224,1,125
256,192,173687,1,2
171,101,174053,1,0
88,192,174419,5,0
204,144,174785,1,0
256,32,175151,1,2
308,144,175517,1,0
424,192,175883,2,0,B|396:208|384:240,1,62.5
324,228,176249,2,0,B|316:264|328:296,1,62.5
288,340,176615,2,0,B|256:332|224:340,1,62.5,2|0
186,289,176981,2,0,B|196:264|188:228,1,62.5
128,240,177347,6,0,B|116:208|88:192,1,62.5
128,72,178079,1,4
256,288,178811,1,0
384,72,179543,1,2
320,180,179909,2,0,B|256:160|196:180,1,125
256,288,180641,1,0
132,308,181007,6,0,B|160:252|160:188,1,125,2|0
192,68,181739,2,0,B|256:88|316:68,1,125
351,187,182471,2,0,B|352:252|380:308,1,125,2|0
380,308,183019,1,0
380,308,183202,5,4
136,252,183934,2,0,B|124:192|136:128,1,125,2|0
256,128,184666,2,0,B|243:192|255:252,1,125
384,256,185398,2,0,B|372:196|384:132,1,125,2|0
332,20,186130,1,0
284,60,186313,1,0
224,80,186496,1,0
160,84,186679,1,0
100,64,186862,5,2
144,108,187045,1,0
156,168,187228,1,0
140,232,187411,1,0
104,280,187594,2,0,B|153:320|220:314,1,125
344,344,188326,2,0,B|384:295|378:228,1,125,2|0
408,104,189058,6,0,B|359:64|292:70,1,125
168,40,189790,2,0,B|128:89|134:156,1,125,2|0
128,292,190522,2,0,B|192:292|240:244,1,125
356,320,191254,2,0,B|356:256|308:207,1,125,2|0
384,92,191986,2,0,B|320:92|272:139,1,125
156,64,192718,2,0,B|156:127|203:176,1,125,2|0
128,292,193449,5,0
356,320,193815,1,0
384,92,194181,1,2
156,64,194547,1,0
256,192,194913,1,4
256,192,195645,5,2
341,101,196011,1,0
220,68,196377,2,0,B|157:98|138:160,1,125
256,192,197109,1,2
171,283,197475,1,0
88,192,197841,1,0
204,240,198207,1,0
256,352,198573,1,2
308,240,198939,1,0
424,192,199305,6,0,B|396:176|384:144,1,62.5
324,156,199671,2,0,B|316:120|328:88,1,62.5
288,44,200037,2,0,B|256:52|224:44,1,62.5,2|0
186,95,200403,2,0,B|196:120|188:156,1,62.5
128,144,200769,6,0,B|116:176|88:192,1,62.5
128,312,201501,1,4
256,96,202233,1,0
384,312,202965,1,2
320,204,203330,2,0,B|256:224|196:204,1,125
256,96,204062,1,0
132,76,204428,6,0,B|160:132|160:196,1,125,2|0
192,316,205160,2,0,B|256:296|316:316,1,125
351,197,205892,2,0,B|352:132|380:76,1,125,2|0
380,76,206441,1,0
380,76,206624,5,4
136,132,207356,2,0,B|124:192|136:256,1,125,2|0
256,256,208088,2,0,B|243:192|255:132,1,125
384,128,208820,2,0,B|372:188|384:252,1,125,2|0
332,364,209552,1,0
284,324,209735,1,0
224,304,209918,1,0
160,300,210101,1,0
100,320,210284,5,2
144,276,210467,1,0
156,216,210650,1,0
152,152,210833,1,0
112,100,211016,2,0,B|170:74|233:98,1,125
400,284,211748,2,0,B|342:310|279:286,1,125,2|0
256,192,212480,1,4
256,192,212846,12,0,214675
256,160,215041,6,0,B|256:224,1,62.5,2|4
256,192,215773,12,4,218335
150,130,230046,54,0,B|172:188|126:230,1,109.375,4|0
132,244,230778,2,0,B|190:222|232:268,1,109.375,2|0
242,256,231510,2,0,B|220:198|266:156,1,109.375
256,144,232242,2,0,B|198:166|156:120,1,109.375,2|0
145,110,232974,38,0,B|178:198|108:261,1,164.062495110557
117,282,233705,2,0,B|205:249|268:318,1,164.062495110557,2|0
283,300,234437,2,0,B|250:213|318:150,1,164.062495110557
304,132,235169,2,0,B|217:165|154:95,1,164.062495110557,2|0
136,84,235901,38,0,B|180:200|88:284,1,218.75
100,312,236633,2,0,B|216:268|300:360,1,218.75,2|0
320,336,237365,2,0,B|276:220|368:136,1,218.75
348,112,238097,2,0,B|232:156|148:64,1,218.75,2|0
120,80,238829,37,0
360,56,239561,1,2
396,304,240293,1,0
152,332,241025,1,2
120,80,241757,37,4
120,80,242489,1,0
260,108,242855,1,0
340,196,243221,2,0,B|308:192|280:208,1,62.5
252,276,243586,2,0,B|256:244|240:216,1,62.5
172,188,243952,2,0,B|204:192|232:176,1,62.5,2|0
260,108,244318,2,0,B|256:140|272:168,1,62.5
360,56,244684,37,4
360,56,245416,1,0
344,192,245782,1,0
252,280,246148,2,0,B|240:272|240:272|232:244|232:244|220:228,1,62.5
168,192,246514,2,0,B|176:180|176:180|204:172|204:172|220:160,1,62.5
256,104,246880,2,0,B|268:112|268:112|276:140|276:140|288:156,1,62.5,2|0
344,192,247246,2,0,B|336:204|336:204|308:212|308:212|292:224,1,62.5
396,304,247612,37,4
396,304,248344,1,0
229,274,248710,1,0
236,156,249076,2,0,B|281:113,1,62.5
296,176,249442,2,0,B|338:221,1,62.5
276,232,249808,2,0,B|230:274,1,62.5,2|0
216,212,250174,2,0,B|173:166,1,62.5
152,332,250540,37,4
152,332,251272,1,0
280,276,251638,1,0
340,168,252004,2,0,B|308:156|276:168,1,62.5
231,108,252370,2,0,B|220:140|230:169,1,62.5
172,216,252736,2,0,B|204:228|236:216,1,62.5,2|0
280,276,253102,2,0,B|292:244|281:214,1,62.5
396,304,253467,5,4
396,304,254199,1,0
280,208,254565,1,0
280,208,254931,2,0,B|308:192|340:196,1,62.5
232,176,255297,2,0,B|204:192|172:188,1,62.5
240,216,255663,2,0,B|256:244|252:276,1,62.5,2|0
272,168,256029,2,0,B|256:140|260:108,1,62.5
320,132,256395,6,0,B|344:160|344:224|320:252,1,125,4|2
190,249,257859,2,0,B|168:224|168:160|192:132,1,125,0|2
304,192,259323,6,0,B|344:176|384:208|432:192,2,125,0|0|2
144,224,261519,2,0,B|124:192|144:160,1,62.5,0|2
256,192,262617,12,4,265178
92,64,276889,5,4
92,316,277621,1,2
236,112,278353,2,0,B|328:112|328:112|348:116|352:132,1,125
352,256,279085,2,0,B|348:272|328:276|328:276|236:276,1,125,2|0
144,192,279817,5,0
168,192,280549,1,2
192,192,281281,1,0
216,192,282013,1,2
420,64,282745,5,4
420,316,283477,1,2
276,112,284208,2,0,B|184:112|184:112|164:116|160:132,1,125
160,256,284940,2,0,B|164:272|184:276|184:276|276:276,1,125,2|0
368,192,285672,5,0
344,192,286038,1,0
320,192,286404,1,2
256,192,287136,1,2
256,192,287868,12,4,288600
96,132,289332,6,0,B|74:96|84:47|123:19,1,125,2|0
220,148,290064,2,0,B|226:107|266:75|312:79,1,125
324,220,290796,2,0,B|355:193|405:194|439:227,1,125,2|0
364,328,291528,1,0
324,220,291894,1,0
220,148,292260,1,2
96,132,292626,1,0
164,236,292992,5,0
356,210,293358,1,0
185,118,293723,1,2
269,293,294089,1,0
304,102,294455,1,4
416,132,295187,6,0,B|437:96|427:47|388:19,1,125,2|0
292,148,295919,2,0,B|285:107|245:75|199:79,1,125
188,220,296651,2,0,B|156:193|106:194|72:227,1,125,2|0
148,328,297383,1,0
188,220,297749,1,0
292,148,298115,1,2
416,132,298481,1,0
348,240,298847,5,0
208,284,299213,1,0
164,144,299579,1,2
304,100,299945,1,0
304,100,300128,1,0
304,100,300311,5,4
84,220,301043,2,0,B|128:268|196:268,1,125,2|0
320,268,301775,2,0,B|388:268|432:220,1,125
316,168,302507,2,0,B|280:168|256:180|256:180|228:168|192:168,1,125,2|0
60,144,303239,1,0
104,100,303422,1,0
160,72,303605,1,0
220,56,303788,1,0
284,56,303970,5,2
344,72,304153,1,0
400,100,304336,1,0
444,144,304519,1,0
480,196,304702,1,2
32,196,305068,1,2
400,284,305434,1,2
112,284,305800,1,0
260,144,306166,2,0,B|328:72|420:132|420:224|356:304|256:336|256:336|156:304|92:224|92:132|184:72|248:144,1,750,4|0
256,232,308728,1,0
256,332,309094,5,0
408,188,309460,1,0
256,44,309826,1,2
104,188,310192,1,0
268,280,310558,5,0
344,180,310741,1,0
244,104,310924,1,2
168,204,311107,1,0
312,236,311290,5,0
300,136,311473,1,0
200,148,311656,1,2
212,248,311839,1,0
256,192,312022,5,4
256,192,312754,2,0,B|268:272|268:272|284:292|308:292,1,125,2|0
316,132,313486,2,0,B|276:108|236:108|196:132,1,125
206,291,314217,2,0,B|228:292|244:272|244:272|256:192,1,125,2|0
376,224,314949,1,0
368,164,315132,1,0
352,104,315315,1,0
312,56,315498,1,0
256,32,315681,5,2
200,56,315864,1,0
160,104,316047,1,0
144,164,316230,1,0
136,224,316413,1,0
371,236,316779,1,0
188,87,317145,1,2
249,316,317511,1,0
334,95,317877,5,4
256,192,318609,2,0,B|244:112|244:112|228:92|204:92,1,125,2|0
196,252,319341,2,0,B|236:276|276:276|316:252,1,125
305,92,320073,2,0,B|284:92|268:112|268:112|256:192,1,125
256,228,320622,2,0,B|256:292,1,62.5
256,290,321171,1,0
396,242,321537,5,2
229,45,321903,1,0
142,288,322269,1,0
277,308,322635,1,2
346,115,323001,1,0
144,152,323367,1,0
256,192,323733,1,4
372,220,324464,6,0,B|344:280|284:312,1,125
222,77,325196,2,0,B|288:71|341:105,1,125
173,278,325928,2,0,B|135:224|137:160,1,125,2|0
256,120,326660,1,0
328,108,326843,1,0
356,176,327026,1,0
316,240,327209,1,0
256,288,327392,5,2
196,240,327575,1,0
156,176,327758,1,0
184,108,327941,1,0
256,120,328124,2,0,B|292:104|328:104|328:104|352:128|352:152,1,125,0|2
256,264,328856,2,0,B|220:280|184:280|184:280|160:256|160:232,1,125
256,192,329588,1,4
256,192,329954,12,0,331784
256,224,332150,6,0,B|256:160,1,62.5,0|4
256,192,332882,12,2,335443
256,192,336175,5,2
384,116,336907,2,0,B|412:172|412:236,1,125,0|2
280,308,338371,1,0
268,252,339103,1,2
256,192,339835,2,0,B|236:68,1,125,0|2
128,116,341299,38,0,B|100:172|100:236,1,125,0|2
384,268,342763,2,0,B|412:212|412:148,1,125,0|2
256,192,344226,12,0,348618
