osu file format v9

[General]
AudioFilename: Floating Darkness.mp3
AudioLeadIn: 0
PreviewTime: 89102
Countdown: 0
SampleSet: Soft
StackLeniency: 0.7
Mode: 0
LetterboxInBreaks: 1

[Editor]
Bookmarks: 46904,52179,82509
DistanceSpacing: 1
BeatDivisor: 4
GridSize: 8

[Metadata]
Title:Floating Darkness
Artist:Tatsh feat. Tsukiko
Creator:macponpon
Version:Hard
Source:Touhou
Tags:nue Backfire

[Difficulty]
HPDrainRate:5
CircleSize:4
OverallDifficulty:6
ApproachRate:7
SliderMultiplier:1.4
SliderTickRate:1

[Events]
//Background and Video events
0,0,"bgimage.jpg"
//Break Periods
2,47098,51269
2,78746,81599
//Storyboard Layer 0 (Background)
//Storyboard Layer 1 (Fail)
//Storyboard Layer 2 (Pass)
//Storyboard Layer 3 (Foreground)
//Storyboard Sound Samples
//Background Colour Transformations
3,100,163,162,255

[TimingPoints]
15250,329.67032967033,4,2,0,70,1,0
25799,-100,4,2,0,70,0,0
46898,-100,4,1,0,70,0,0
78553,-133.333333333333,4,1,0,70,0,0
82503,-133.333333333333,4,2,0,70,0,0
86459,-133.333333333333,4,2,0,70,0,0
87448,-100,4,2,0,70,0,0
87778,-100,4,1,0,70,0,0
89432,-100,4,1,0,70,0,1
110201,-100,4,1,0,70,0,0

[Colours]
Combo1 : 128,255,255
Combo2 : 255,255,255
Combo3 : 5,5,240
Combo4 : 240,5,5

[HitObjects]
152,192,15249,2,0,B|152:280|152:280|240:328,2,140
256,96,16239,1,0
360,192,16568,2,0,B|360:280|360:280|272:328,2,140
256,96,17557,1,0
160,192,17887,6,0,B|176:128|256:40|336:128|352:192,1,280
256,280,18876,1,0
400,280,19206,2,0,B|448:280|448:240,2,70
336,152,19865,1,0
192,152,20195,1,0
64,216,20524,6,0,B|64:72,2,140
152,320,21513,1,0
256,232,21843,2,0,B|336:232,1,70
320,160,22173,2,0,B|408:160,1,70
440,112,22502,1,0
440,112,22832,1,0
304,96,23162,5,0
176,160,23491,1,0
248,280,23821,1,0
368,216,24151,1,0
304,96,24480,2,0,B|216:96,3,70
168,88,25140,5,0
152,92,25222,1,0
136,104,25304,1,0
124,120,25387,1,0
120,140,25469,1,0
120,156,25552,1,0
120,172,25634,1,0
120,188,25717,1,0
120,204,25799,6,0,B|152:276|232:276,1,140,8|0
256,144,26459,1,0
256,144,26788,1,0
384,208,27118,2,0,B|352:280|264:280,1,140,8|0
256,144,27778,1,0
112,144,28107,1,0
192,256,28437,6,0,B|216:280|256:296|296:280|320:256,1,140,8|0
368,208,28931,1,0
320,160,29096,2,0,B|296:136|256:120|216:136|192:160,1,140,8|0
56,192,29756,5,8
120,320,30085,1,0
256,272,30415,2,0,B|280:296,2,35,0|0|0
256,200,30745,2,0,B|280:224,2,35,0|0|0
216,144,31074,6,0,B|216:48|328:48,1,140,8|0
368,72,31569,1,0
336,136,31734,1,0
384,192,31898,1,0
336,248,32063,1,0
272,280,32228,1,0
200,280,32393,6,0,B|120:280,1,70,8|0
96,216,32723,2,0,B|176:216,1,70,0|0
144,144,33052,1,8
144,72,33217,1,0
144,72,33382,1,0
272,80,33712,6,0,B|352:80,1,70,8|0
376,144,34041,2,0,B|472:144,1,70,0|0
448,216,34371,2,0,B|360:216,1,70,8|0
352,280,34701,2,0,B|256:280,1,70,0|0
208,280,35030,5,8
88,208,35360,1,8
208,136,35690,1,8
208,136,35772,1,0
208,136,35854,1,0
208,136,35937,1,0
208,136,36019,1,0
336,72,36349,6,0,B|408:104|368:128|440:168,2,140,8|0|8
256,192,37338,1,0
176,72,37668,2,0,B|104:104|144:128|72:168,2,140,8|0|8
256,192,38657,1,0
136,256,38986,6,0,B|208:312,1,70,8|0
264,304,39316,2,0,B|336:304,1,70
352,232,39646,2,0,B|264:232,2,70,8|0|0
352,88,40305,1,8
208,88,40635,1,0
72,88,40964,1,8
296,248,41624,6,0,B|216:248|184:160,1,140,8|0
200,104,42118,1,0
264,88,42283,1,0
320,128,42448,1,0
384,152,42613,1,0
424,208,42778,1,0
432,280,42942,6,0,B|344:280,1,70,8|0
328,344,43272,2,0,B|232:344,1,70
224,280,43602,2,0,B|144:280,1,70,0|0
120,216,43931,2,0,B|32:216,1,70
256,192,44261,12,4,46239
256,192,46898,5,0
152,136,52173,6,0,B|208:128|208:88|280:72,2,140,8|0|0
152,280,53162,1,0
296,280,53492,2,0,B|368:344,2,70,8|0|8
344,224,53986,1,0
384,168,54151,2,0,B|320:112,3,70,0|0|0|0
264,104,54810,6,0,B|264:160|232:208|184:232,1,140,8|0
136,240,55304,1,0
104,304,55470,1,0
104,304,55552,1,0
104,304,55635,1,0
168,328,55799,2,0,B|264:328,1,70,0|0
272,264,56129,6,0,B|192:264,1,70,8|0
200,192,56459,1,0
256,144,56624,1,0
256,144,56788,2,0,B|256:200,8,35,0|0|0|0|0|0|0|0|4
256,96,58767,5,8
360,192,59096,1,0
256,288,59426,1,8
152,192,59756,1,0
256,96,60085,6,0,B|256:184|360:184,2,140,8|0|8
400,96,61074,1,0
416,232,61404,2,0,B|344:232,1,70,8|0
320,296,61734,2,0,B|240:296,1,70,0|0
176,296,62063,2,0,B|176:360,2,35,8|0|0
104,296,62393,2,0,B|104:344,2,35
144,240,62723,6,0,B|144:168,1,70,8|0
192,120,63052,1,0
256,96,63217,1,0
320,120,63382,2,0,B|400:120,1,70,8|0
416,184,63712,2,0,B|320:184,1,70
344,256,64041,6,0,B|312:320|216:320,1,140,8|0
192,264,64536,1,0
168,200,64701,1,8
112,248,64865,1,0
96,176,65030,1,0
184,64,65360,6,0,B|184:160,1,70,8|0
248,112,65690,2,0,B|248:200,1,70,0|0
296,232,66019,1,8
248,280,66184,1,0
192,232,66349,1,0
128,104,66679,5,8
128,240,67008,1,8
256,192,67338,1,8
256,192,67420,1,0
256,192,67503,1,0
256,192,67585,1,0
256,192,67668,1,0
120,184,67997,6,0,B|120:120|152:88|200:88,1,140,8|0
272,88,68492,1,0
304,152,68657,1,8
368,120,68821,1,0
368,192,68986,2,0,B|368:272,1,70
304,232,69316,6,0,B|304:312,1,70,8|0
232,296,69646,1,0
136,192,69975,1,8
224,88,70305,1,0
192,224,70635,6,0,B|240:280|336:240,1,140,8|0
320,176,71129,1,0
384,208,71294,2,0,B|488:112,2,140,8|0|8
256,264,72283,1,8
136,192,72613,6,0,B|96:192,2,35,8|8|0
208,192,72942,2,0,B|264:192,2,35
208,120,73272,6,0,B|112:120|96:208,1,140
104,264,73767,1,0
168,232,73931,2,0,B|208:168|296:192,1,140,8|0
336,136,74426,1,0
400,168,74591,6,0,B|344:224,1,70,8|0
408,248,74920,2,0,B|352:304,1,70
296,328,75250,1,8
224,328,75415,1,0
152,328,75580,1,0
208,200,75909,6,0,B|288:192|288:144|336:144,2,140,8|0|8
136,80,76898,1,0
48,184,77228,2,0,B|48:240,3,35
64,248,77558,2,0,B|96:288,3,35
112,296,77887,2,0,B|144:312,4,35
248,320,78546,1,0
136,192,82503,5,0
200,112,82832,1,0
304,112,83162,1,0
376,192,83492,1,0
296,264,83821,2,0,B|296:336|216:336,2,104.999996870756,4|0|0
216,192,84810,1,0
128,136,85140,6,0,B|128:64|56:64,2,104.999996870756
128,240,86129,1,0
128,328,86459,2,0,B|272:328,1,140
272,240,87448,1,0
400,288,87777,6,0,B|400:328,16,35
448,152,89426,6,0,B|384:200,1,70,8|0
336,144,89756,1,0
280,96,89920,1,0
224,144,90085,1,8
168,96,90250,6,0,B|112:144,1,70
112,216,90580,2,0,B|160:272,1,70,0|8
216,232,90909,1,0
280,200,91074,6,0,B|304:160|360:144|408:176,1,140,0|8
456,224,91569,1,0
440,296,91734,2,0,B|392:368|296:344,1,140,0|8
248,328,92228,1,0
192,280,92393,2,0,B|112:280,1,70,0|0
120,208,92723,2,0,B|216:208,1,70,8|0
200,136,93052,5,0
200,136,93217,1,0
264,104,93382,2,0,B|264:192,1,70,8|0
328,136,93712,1,8
400,136,93876,1,0
448,192,94041,1,8
408,248,94206,1,8
360,304,94371,1,2
344,304,94453,1,0
328,304,94536,1,0
256,312,94701,6,0,B|256:232,1,70,8|0
216,184,95030,2,0,B|152:216|160:248|88:272,1,140,0|8
72,328,95525,1,0
144,336,95690,2,0,B|224:312|208:272|264:248,1,140,0|8
288,192,96184,1,0
352,224,96349,2,0,B|424:224,1,70,0|0
448,288,96679,2,0,B|376:288,1,70,8|0
328,336,97008,5,0
280,288,97173,1,0
232,336,97338,1,8
184,288,97503,1,0
144,232,97668,6,0,B|120:192|144:152,1,70,0|0
200,128,97997,2,0,B|224:160|200:200,1,70,8|0
264,224,98327,2,0,B|304:224,16,35,0|0|0|0|0|0|0|0|0|0|0|0|0|0|0|0|4
336,104,99975,6,0,B|296:32|192:32,1,140,8|0
160,72,100470,1,0
112,128,100635,1,8
96,200,100799,1,0
112,272,100964,2,0,B|192:320,1,70,0|0
208,248,101294,2,0,B|288:264,1,70,8|0
304,200,101624,5,0
304,200,101788,1,0
272,136,101953,1,8
272,136,102118,1,0
336,104,102283,2,0,B|368:168|408:112|448:192,1,140,0|8
416,248,102777,1,0
368,304,102942,1,0
296,304,103107,6,0,B|232:352,1,70,0|8
216,280,103437,1,0
160,232,103602,2,0,B|224:184,1,70,0|0
232,120,103931,2,0,B|312:168,1,70,8|0
344,104,104261,6,0,B|408:80,1,70,0|0
448,136,104591,1,8
448,208,104756,1,0
416,272,104920,2,0,B|320:272,1,70,0|0
280,296,105250,5,8
280,296,105415,1,0
216,272,105580,2,0,B|160:208|224:144,1,140,0|8
256,88,106074,1,0
296,144,106239,2,0,B|360:216|288:288,1,140,0|8
256,304,106734,1,0
256,232,106898,6,0,B|168:256,1,70,0|0
160,184,107228,2,0,B|232:168,1,70,8|0
296,160,107558,1,0
408,80,107887,1,8
480,200,108217,1,0
368,280,108547,1,8
256,192,108876,6,0,B|256:248,16,35,0|0|0|0|0|0|0|0|0|0|0|0|0|0|0|0|4
