osu file format v9

[General]
AudioFilename: Floating Darkness.mp3
AudioLeadIn: 0
PreviewTime: 89102
Countdown: 0
SampleSet: Soft
StackLeniency: 0.7
Mode: 0
LetterboxInBreaks: 1

[Editor]
Bookmarks: 46904,52179,82509
DistanceSpacing: 0.8
BeatDivisor: 4
GridSize: 8

[Metadata]
Title:Floating Darkness
Artist:Tatsh feat. Tsukiko
Creator:macponpon
Version:Easy
Source:Touhou
Tags:nue Backfire

[Difficulty]
HPDrainRate:3
CircleSize:3
OverallDifficulty:3
ApproachRate:3
SliderMultiplier:1.1
SliderTickRate:1

[Events]
//Background and Video events
0,0,"bgimage.jpg"
//Break Periods
2,78087,81062
//Storyboard Layer 0 (Background)
//Storyboard Layer 1 (Fail)
//Storyboard Layer 2 (Pass)
//Storyboard Layer 3 (Foreground)
//Storyboard Sound Samples
//Background Colour Transformations
3,100,163,162,255

[TimingPoints]
15250,329.67032967033,4,2,0,100,1,0
25805.978021978,-100,4,2,0,100,0,0
31074,-133.333333333333,4,2,0,100,0,0
46898,-133.333333333333,4,1,0,100,0,0
78553,-133.333333333333,4,1,0,100,0,0
82508,-133.333333333333,4,2,0,100,0,0
87784,-100,4,1,0,100,0,0
89178,-100,4,1,0,100,0,1
89755,-133.333333333333,4,1,0,100,0,1
110201,-133.333333333333,4,1,0,100,0,0

[Colours]
Combo1 : 128,255,255
Combo2 : 255,255,255
Combo3 : 5,5,240
Combo4 : 240,5,5

[HitObjects]
88,144,15249,2,0,B|88:40|88:40|208:40,1,220
256,208,16568,1,0
376,80,17228,1,0
424,240,17887,6,0,B|424:344|424:344|304:344,1,220
256,176,19206,1,0
136,304,19865,1,0
256,216,20524,6,0,B|288:280|336:304|392:280|424:216,2,220
256,32,22502,1,0
256,216,23162,6,0,B|224:280|176:304|120:280|88:216,2,220
256,64,25140,1,0
256,64,25799,5,0
120,192,27118,1,0
256,312,28436,1,0
392,192,29755,1,0
184,312,31074,6,2,B|256:392|328:304,2,164.999995082617
136,192,33052,1,0
288,112,33711,6,0,B|224:176,1,82.4999975413085,0|8
224,240,34370,2,0,B|296:288,1,82.4999975413085,0|8
320,344,35030,2,2,B|312:376|256:408|200:376|184:336,1,164.999995082617,8|0
80,216,36348,6,0,B|96:176|144:144|192:176|208:216,1,164.999995082617
336,216,37667,2,0,B|352:248|400:288|448:248|472:208,1,164.999995082617
408,104,38986,2,0,B|256:32|80:96,1,329.999990165234
72,160,40634,1,0
72,224,40964,1,8
184,296,41623,6,0,B|224:288|272:296,1,82.4999975413085
328,304,42282,1,8
304,176,42942,6,0,B|336:168|392:176,1,82.4999975413085
448,184,43601,1,8
256,192,44260,12,0,46239
192,136,46898,6,0,B|224:56|256:240|288:56|328:136,1,164.999995082617
448,192,48217,1,8
448,192,48546,1,0
448,192,48876,1,8
320,248,49535,6,0,B|288:328|256:144|224:328|184:248,1,164.999995082617
64,192,50854,1,8
64,192,51184,1,0
64,192,51513,1,8
208,192,52173,6,0,B|208:240|256:272,1,82.4999975413085,8|0
312,264,52832,1,8
376,264,53162,1,0
440,264,53491,2,0,B|440:312|400:336,2,82.4999975413085,8|0|8
416,200,54480,5,0
368,152,54810,1,8
320,200,55140,1,0
256,200,55469,2,0,B|208:184|208:136,1,82.4999975413085,8|0
256,192,56129,12,0,57447
256,104,58766,5,0
256,168,59096,1,0
256,232,59425,1,0
144,296,60085,2,0,B|192:336|256:352|320:336|376:296,1,247.499992623925
373,297,61403,1,0
373,297,61733,1,0
373,297,62063,1,0
416,168,62722,6,2,B|248:168,1,164.999995082617,8|0
152,80,64041,2,2,B|328:80,1,164.999995082617,8|0
376,200,65359,5,8
352,264,65689,1,0
288,240,66019,1,8
256,296,66348,1,0
192,272,66678,2,0,B|152:296|112:272,2,82.4999975413085,8|0|8
120,160,67997,5,8
160,104,68326,1,0
224,80,68656,2,0,B|256:56|304:80,1,82.4999975413085,8|0
360,104,69315,2,2,B|360:280,1,164.999995082617
256,184,70634,5,8
208,224,70964,1,0
152,264,71293,1,8
88,264,71623,2,0,B|88:168,2,82.4999975413085
88,264,72612,1,8
192,168,73271,6,2,B|368:168,1,164.999995082617
288,280,74590,2,2,B|112:280,1,164.999995082617
184,168,75909,5,8
320,168,76568,1,8
256,288,77228,1,8
256,288,77557,1,0
256,288,77887,1,8
152,232,82502,5,0
256,312,83162,1,0
360,232,83821,1,4
408,112,84480,6,0,B|384:80|336:56|288:80|264:112,1,164.999995082617
136,112,85799,1,0
136,240,86458,2,0,B|136:344|240:344,1,164.999995082617
256,192,87777,12,0,89096
336,64,89755,6,0,B|336:152,2,82.4999975413085,8|0|8
232,144,91074,2,0,B|232:240,2,82.4999975413085,8|0|8
336,232,92392,2,0,B|336:328,2,82.4999975413085,8|0|8
208,240,93711,6,0,B|120:240,2,82.4999975413085
256,192,94700,1,0
256,128,95030,2,0,B|288:96|328:72|368:96|400:128,1,164.999995082617
424,256,96348,5,0
376,304,96678,2,0,B|344:344|304:344,1,82.4999975413085
248,224,97667,2,0,B|160:224,1,82.4999975413085
96,224,98326,5,0
200,144,98986,1,8
320,200,99645,6,0,B|424:200|424:320,2,164.999995082617,8|0|0
280,144,101293,1,8
232,96,101623,6,0,B|144:96,1,82.4999975413085,0|8
104,144,102282,2,0,B|73:169|40:216|72:256|104:288,1,164.999995082617,8|0
224,232,103601,5,8
320,144,104260,1,0
376,184,104590,2,0,B|392:224|376:264,1,82.4999975413085
256,200,105579,5,8
128,184,106239,2,0,B|112:224|128:264,1,82.4999975413085
176,312,106898,1,0
192,184,107557,2,0,B|208:152|256:120|304:152|328:184,1,164.999995082617
256,192,108876,12,4,110195
