osu file format v6

[General]
AudioFilename: Floating Darkness.mp3
AudioLeadIn: 0
PreviewTime: 89090
Countdown: 0
SampleSet: Normal
StackLeniency: 0.7
Mode: 0
LetterboxInBreaks: 1

[Editor]
Bookmarks: 25619,46717,57267,78036,89080,91882
DistanceSpacing: 1
BeatDivisor: 4
GridSize: 8

[Metadata]
Title:Floating Darkness
Artist:Tatsh feat. Tsukiko
Creator:Bibendum
Version:Hard
Source:Touhouseireisen
Tags:touhou nue

[Difficulty]
HPDrainRate:7
CircleSize:5
OverallDifficulty:7
SliderMultiplier:1.4
SliderTickRate:1

[Events]
//Background and Video events
0,0,"back.png"
//Break Periods
2,78081,81597
//Storyboard Layer 0 (Background)
//Storyboard Layer 1 (Fail)
//Storyboard Layer 2 (Pass)
//Storyboard Layer 3 (Foreground)
//Storyboard Sound Samples
//Background Colour Transformations
3,100,163,162,255

[TimingPoints]
4695,329.67032967033,4,1,1,100,1,0
35848,-100,4,1,0,70,0,0
36178,-100,4,1,1,100,0,0
41123,-100,4,1,0,71,0,0
41453,-100,4,1,1,100,0,0
45409,-100,4,1,0,49,0,0
45738,-100,4,1,0,71,0,0
46068,-100,4,1,0,88,0,0
46727,-100,4,1,1,100,0,0
56700,-100,4,1,1,71,0,0
56865,-100,4,1,1,83,0,0
57030,-100,4,1,1,100,0,0
62304,-100,4,1,0,71,0,0
62469,-100,4,1,1,100,0,0
67497,-100,4,1,0,69,0,0
67826,-100,4,1,1,100,0,0
77057,-100,4,1,0,71,0,0
77387,-100,4,1,0,71,0,0
77716,-100,4,1,0,91,0,0
82332,-200,4,2,1,100,0,0
83651,-200,4,2,1,70,0,0
83980,-200,4,2,1,100,0,0
84969,-200,4,2,1,71,0,0
85299,-200,4,2,1,100,0,0
85711,-200,4,2,1,70,0,0
85958,-200,4,2,1,100,0,0
86947,-200,4,2,1,70,0,0
87277,-200,4,2,1,100,0,0
87607,-100,4,1,1,61,0,0
88019,-100,4,1,1,71,0,0
88348,-100,4,1,1,80,0,0
88596,-100,4,1,1,89,0,0
88925,-100,4,1,1,100,0,0
107634,-100,4,1,1,81,0,0
107799,-100,4,1,1,61,0,0
107964,-100,4,1,1,39,0,0
108129,-100,4,1,1,19,0,0
108293,-100,4,1,0,100,0,0
108623,-100,4,1,0,94,0,0
109118,-100,4,1,0,85,0,0
109612,-100,4,1,0,76,0,0
110107,-100,4,1,0,70,0,0

[Colours]
Combo1 : 255,255,125
Combo2 : 0,128,255
Combo3 : 202,202,202
Combo4 : 255,140,85

[HitObjects]
64,40,25793,2,0,B|152:40,1,70,0|0
136,112,26123,2,0,B|136:192,1,70,2|0
208,184,26453,2,0,B|280:184,1,70,0|0
344,184,26782,1,2
344,184,26947,1,0
416,184,27112,2,0,B|472:208|472:264|408:296,3,140,0|2|0|2
288,344,28431,2,0,B|232:280|232:280|208:344|208:344|168:240|136:360|80:296,1,280,0|0
64,264,29255,1,0
64,192,29420,2,0,B|112:152|112:88|32:64,2,140,2|0|2
192,128,30409,5,8
240,176,30574,1,0
288,224,30738,1,8
336,272,30903,2,0,B|392:328,1,70
456,320,31233,5,0
472,248,31398,2,0,B|528:208|448:184,1,70,2|0
408,168,31727,2,0,B|352:128|432:104,1,70
360,56,32057,2,0,B|336:8|280:48,1,70,2|0
224,56,32387,2,0,B|144:40|88:104,1,140,0|2
32,216,33046,2,0,B|8:296|88:344,1,140,0|2
216,336,33705,5,0
216,264,33870,1,0
216,192,34035,2,0,B|216:136,2,35,2|0|0
288,192,34365,2,0,B|392:176|392:176|416:208,1,140,0|2
320,312,35024,2,0,B|216:352|216:352|192:320,2,140,0|2|0
448,264,36013,1,4
432,120,36343,6,0,B|416:144|392:152|368:136|352:104,2,70,0|0|2
296,88,37002,2,0,B|232:72|216:112,2,70,0|0|2
256,224,37662,2,0,B|288:256|264:288,2,70,0|0|2
160,328,38321,2,0,B|128:296|96:320,2,70,0|0|2
64,224,38980,5,0
120,176,39145,1,0
64,128,39310,1,2
120,80,39475,1,0
120,80,39640,2,0,B|168:48|224:152|264:64,1,140,0|2
384,48,40299,2,0,B|416:120,1,70
456,168,40629,2,0,B|392:216,1,70,2|0
336,248,40958,1,0
232,152,41288,1,4
88,144,41618,6,0,B|168:152|56:248|112:208|144:272|216:200|192:304|88:304|216:360,1,280
344,328,42607,1,2
448,232,42936,2,0,B|488:208|504:176|480:144|432:120,2,140,0|2|0
448,232,43925,1,2
368,112,44255,1,0
256,24,44585,2,0,B|176:64,1,70,2|0
152,112,44914,2,0,B|216:160,1,70,0|0
256,208,45244,1,2
256,344,45574,5,4
448,64,45903,1,0
96,64,46233,1,4
88,272,46892,6,0,B|144:344,1,70
176,272,47222,2,0,B|232:344,1,70,8|0
264,272,47552,2,0,B|320:344,1,70
352,272,47881,2,0,B|408:344,1,70,8|0
448,280,48211,2,0,B|504:248|488:192|456:168|416:176,1,140,0|8
368,160,48705,1,0
296,152,48870,2,0,B|240:120|256:64|288:40|328:48,1,140,0|8
168,72,49530,6,0,B|118:141,1,70
128,128,49859,1,8
128,128,50024,1,0
200,136,50189,2,0,B|264:184,1,70
256,178,50519,1,8
256,178,50684,1,0
312,216,50848,1,0
424,128,51178,1,8
424,264,51508,1,0
368,312,51673,1,0
312,360,51837,1,8
176,312,52167,6,0,B|120:312|192:360|128:360,1,70
88,312,52497,2,0,B|40:296|104:280|112:248|48:280,1,70,8|0
144,240,52826,2,0,B|112:216|192:224|136:176,1,70
208,152,53156,2,0,B|192:176|256:160|216:208,1,70,8|0
280,232,53486,2,0,B|312:216|328:264|320:264|352:232,1,70
392,200,53815,2,0,B|424:216|408:168|448:160|464:192,1,70,8|0
424,112,54145,2,0,B|408:88|464:72|400:56,3,70,0|0|8|0
424,112,54804,5,0
288,80,55134,1,8
152,104,55464,1,0
96,152,55629,1,0
40,200,55793,2,0,B|0:256|128:248|24:336,1,140,8|0
176,352,56453,1,8
304,304,56782,1,0
368,280,56947,1,0
432,256,57112,1,8
392,120,57442,6,0,B|312:56,1,70
272,40,57771,1,2
208,72,57936,1,0
152,112,58101,1,0
32,192,58431,1,0
168,216,58760,6,0,B|168:304,1,70
168,216,59090,2,0,B|256:216,1,70,2|0
168,216,59420,2,0,B|168:120,1,70
168,216,59749,2,0,B|80:216,1,70,2|0
32,248,60079,5,0
160,304,60409,2,0,B|232:352,1,70,2|0
288,344,60738,2,0,B|376:344,2,70,0|0|2
288,344,61398,1,0
288,344,61727,2,0,B|368:320|192:320|320:288|408:288|176:280|320:256,1,140,2|0
288,120,62387,1,4
288,120,62716,6,0,B|360:56|432:136,1,140,0|2
288,120,63376,2,0,B|360:176|280:240,1,140,0|2
288,120,64035,2,0,B|216:184|144:104,1,140,0|2
288,120,64695,2,0,B|216:64|296:0,1,140,0|2
160,64,65354,6,0,B|64:80|224:128|136:128|168:176|56:144|56:168|56:192|208:224|128:240|24:208|16:232|72:288,1,280
168,344,66343,1,2
288,272,66673,1,0
328,216,66837,1,0
376,272,67002,1,2
424,216,67167,1,0
472,272,67332,1,0
376,168,67662,1,4
376,24,67991,5,0
376,96,68156,1,0
376,168,68321,1,2
232,168,68651,1,0
160,168,68815,1,0
88,168,68980,1,2
160,48,69310,1,0
120,104,69475,1,0
88,168,69640,1,2
160,288,69969,1,0
120,232,70134,1,0
88,168,70299,1,2
224,168,70629,6,0,B|328:168,1,70
224,168,70958,1,2
224,304,71288,2,0,B|128:304,1,70
224,304,71618,1,2
360,304,71947,2,0,B|456:304,1,70
360,304,72277,1,2
296,176,72607,2,0,B|296:136,2,35,8|0|0
296,248,72936,2,0,B|296:288,2,35,8|0|0
232,216,73266,5,0
160,216,73431,1,0
88,216,73596,1,2
16,96,73925,1,0
88,96,74090,1,0
88,96,74255,2,0,B|136:64|192:168|232:80,1,140,2|0
352,56,74914,2,0,B|336:88|400:88|376:128,1,70,2|0
448,144,75244,2,0,B|456:184|408:176|424:216,1,70
376,256,75574,1,2
256,336,75903,5,0
256,336,76068,1,0
256,336,76233,1,2
256,192,76563,1,0
256,192,76892,1,2
256,48,77222,5,4
80,336,77552,1,0
432,336,77881,1,4
56,208,82497,5,2
192,208,82826,1,0
192,208,83156,2,0,B|352:208,1,140,2|4
472,208,84145,1,0
472,208,84475,2,0,B|472:296,2,70,2|0|4
392,96,85464,1,0
392,96,85629,1,0
392,96,85793,1,4
384,232,86123,2,0,B|312:152|280:312|176:216,1,210,2|4
56,232,87442,1,0
16,336,87771,5,0
88,336,87936,1,0
160,336,88101,1,0
232,336,88266,1,0
304,336,88431,1,0
328,336,88513,1,0
352,336,88596,1,0
376,336,88678,1,0
400,336,88760,2,0,B|464:336|496:312|488:248,1,140
424,128,89420,6,0,B|408:56|296:40,1,140,8|0
248,40,89914,1,0
184,64,90079,2,0,B|200:152|88:160,1,140,8|0
56,208,90574,1,0
104,256,90738,2,0,B|120:320|224:336,1,140,8|0
280,352,91233,1,0
352,352,91398,2,0,B|432:352,2,70,8|0|0
352,352,92057,5,8
352,352,92387,2,0,B|448:304|264:272|344:256|280:192|392:192,1,210
352,128,93046,1,0
304,72,93211,1,0
240,40,93376,2,0,B|144:24|112:80|104:96,1,140,8|0
64,128,93870,1,0
32,192,94035,1,8
32,216,94118,1,0
32,240,94200,1,0
32,264,94282,1,0
32,288,94365,2,0,B|32:344|64:352|104:368|136:336,1,140,0|8
272,344,95024,5,0
296,344,95107,1,0
320,344,95189,2,0,B|464:344,1,140
460,344,95684,1,4
456,200,96013,1,8
440,176,96096,1,0
424,152,96178,1,0
392,152,96260,1,0
360,152,96343,2,0,B|120:152,1,210,0|0
150,152,97002,1,4
264,72,97332,6,0,B|264:144|240:216|304:256|400:256|432:248,1,280,0|8
304,344,98321,2,0,B|264:256|160:288,2,140,0|8|0
304,344,99145,1,0
304,344,99227,1,0
304,344,99310,1,8
424,272,99640,6,0,B|448:216|448:216|424:192,1,70,0|0
368,200,99969,2,0,B|328:160|328:160|360:120,1,70,8|0
400,120,100299,2,0,B|416:112|416:112|384:56,1,70
320,88,100629,2,0,B|264:104|264:104|232:72,2,70,8|0|0
456,80,101288,2,0,B|464:232,1,140,8|0
472,288,101782,1,0
400,304,101947,1,8
368,304,102030,1,0
336,304,102112,2,0,B|248:304,1,70
128,304,102607,1,8
72,176,102936,5,0
88,152,103019,1,0
104,128,103101,2,0,B|136:88|184:128|208:176|208:208,1,140
232,248,103596,1,0
288,288,103760,2,0,B|360:296|392:208,1,140
328,168,104255,2,0,B|272:120,1,70
296,56,104585,2,0,B|376:32,1,70,8|0
432,24,104914,1,0
440,48,104997,1,0
448,72,105079,2,0,B|480:160,1,70,0|8
376,240,105574,5,0
376,240,105656,1,0
376,240,105738,1,0
376,240,105821,1,0
376,240,105903,2,0,B|376:336|304:352|224:328|200:304|200:216,1,280,0|4
192,104,106892,1,0
168,112,106975,1,0
144,120,107057,2,0,B|56:152,1,70,0|0
72,216,107387,1,0
136,240,107552,2,0,B|136:280|160:304|184:320|216:320|256:320|288:320|320:304|336:264|336:224,1,280,0|0
256,192,108376,12,4,110189
