osu file format v6

[General]
AudioFilename: Floating Darkness.mp3
AudioLeadIn: 0
PreviewTime: 89090
Countdown: 0
SampleSet: Normal
StackLeniency: 0.7
Mode: 0
LetterboxInBreaks: 1

[Editor]
Bookmarks: 24804,89090
DistanceSpacing: 1
BeatDivisor: 4
GridSize: 8

[Metadata]
Title:Floating Darkness
Artist:Tatsh feat. Tsukiko
Creator:Bibendum
Version:Easy
Source:Touhouseireisen
Tags:touhou nue

[Difficulty]
HPDrainRate:4
CircleSize:3
OverallDifficulty:3
SliderMultiplier:1
SliderTickRate:1

[Events]
//Background and Video events
0,0,"back.png"
//Break Periods
2,78081,81057
//Storyboard Layer 0 (Background)
//Storyboard Layer 1 (Fail)
//Storyboard Layer 2 (Pass)
//Storyboard Layer 3 (Foreground)
//Storyboard Sound Samples
//Background Colour Transformations
3,100,163,162,255

[TimingPoints]
4695,329.67032967033,4,1,1,100,1,0
44667,-100,4,1,1,79,0,0
45162,-100,4,1,1,61,0,0
45656,-100,4,1,1,41,0,0
46151,-100,4,1,1,28,0,0
46727,-100,4,1,1,100,0,0
56370,-100,4,1,1,81,0,0
56700,-100,4,1,1,70,0,0
57030,-100,4,1,1,60,0,0
57277,-100,4,1,1,100,0,0
77799,-100,4,1,1,68,0,0
82332,-100,4,2,1,100,0,0
83651,-100,4,2,1,70,0,0
83980,-100,4,2,1,100,0,0
87607,-100,4,2,1,29,0,0
88760,-100,4,1,1,100,0,0
108293,-100,4,1,0,89,0,0
108953,-100,4,1,0,81,0,0
109612,-100,4,1,0,69,0,0

[Colours]
Combo1 : 255,255,125
Combo2 : 0,128,255
Combo3 : 202,202,202
Combo4 : 255,140,85

[HitObjects]
160,96,25793,1,0
256,96,26123,1,2
352,96,26453,1,0
336,296,27112,2,0,B|312:360|184:360|168:280,2,200,0|2|0
456,136,29090,1,2
256,136,29749,2,0,B|256:208,4,50,0|0|2|0|0
176,320,31068,6,0,B|40:280|56:160,3,200,2|0|2|0
256,168,33705,2,0,B|352:96|440:184,3,200,2|0|2|0
256,272,36343,6,0,B|336:312|272:352,1,100,0|2
104,248,37332,1,0
48,160,37662,2,0,B|-8:112|64:72,1,100,0|2
248,40,38651,1,2
344,48,38980,2,0,B|408:32|432:96,1,100,0|2
408,280,39969,1,2
320,320,40299,2,0,B|264:352|200:344,2,100,0|2|0
144,224,41618,6,0,B|96:152|176:72|248:136|248:208|328:232|368:192|368:160|376:112|360:80|336:64,1,400,2|0
360,272,43596,1,2
360,272,44255,2,0,B|296:328|296:328|264:248|192:296,3,200
384,192,46892,6,0,B|456:80|312:96|288:240|240:112|232:24,1,300,0|0
136,40,48211,2,0,B|24:40,3,100,8|0|8|0
32,136,49530,6,0,B|56:272|160:120|200:144|256:280,1,300,0|0
344,240,50848,2,0,B|344:344,3,100,8|0|8|0
240,344,52167,5,0
64,248,52826,1,0
240,160,53486,2,0,B|344:160|440:152|440:96|376:64|304:56,1,300,0|4
208,56,54804,5,0
56,192,55464,1,0
256,216,56123,2,0,B|360:216|456:224|456:280|392:312|320:320,1,300,0|0
224,320,57442,6,0,B|120:320,3,100,0|2|0|2
64,240,58760,2,0,B|168:240,3,100,0|2|0|2
264,240,60079,1,0
440,152,60738,1,2
256,64,61398,2,0,B|168:72|168:72|200:120|200:120|136:128,1,200,0|2
48,304,62716,6,0,B|152:216|192:376|344:296,1,300,0|2
416,248,64035,2,0,B|472:200|488:144|440:104|376:72|280:88,1,300,0|2
192,88,65354,2,0,B|152:136|200:192,1,100,0|2
208,280,66013,1,0
112,296,66343,2,0,B|56:264|16:312,3,100,2|0|2|0
64,112,67991,6,0,B|184:40|184:40|192:144|192:144|280:96|280:96|296:168,1,400
288,248,69640,1,2
328,336,69969,1,0
424,304,70299,1,2
424,200,70629,2,0,B|424:88,3,100,0|2|0|2
320,96,71947,2,0,B|256:48|184:72|280:192,1,200,0|2
112,304,73266,6,0,B|224:304,1,100,0|2
312,304,73925,2,0,B|424:304,1,100,0|2
400,200,74585,2,0,B|280:200,1,100,0|2
200,200,75244,2,0,B|88:200,1,100,0|2
56,112,75903,2,0,B|104:48|200:56|232:112,1,200,0|2
408,192,77222,2,0,B|408:264|400:304|320:320|280:320,1,200,0|4
80,112,82497,5,2
256,208,83156,1,2
432,112,83815,1,4
312,272,84475,2,0,B|320:368|192:376|208:256,2,200,2|0|2
208,96,86453,2,0,B|200:0|328:-8|312:112,2,200,2|0|4
392,248,89090,6,0,B|408:208|448:232|464:248|472:312|416:344|352:320,1,200,0|0
224,328,90244,1,0
224,328,90409,1,4
96,168,91068,2,0,B|80:208|40:184|24:168|16:104|72:72|136:96,1,200,0|4
312,48,92387,6,0,B|432:136|208:136|320:208,1,200,0|0
408,200,93376,1,0
472,280,93705,2,0,B|464:336|400:336,1,100
304,336,94365,1,4
160,192,95024,6,0,B|264:192,2,100,0|0|0
360,208,96343,2,0,B|360:328,2,100,0|0|4
232,48,97662,6,0,B|232:104|232:136|208:160|160:176|104:176,1,200,0|0
117,175,98980,1,4
248,328,99640,6,0,B|296:288|296:288|272:248,1,100,0|8
368,216,100299,2,0,B|424:248|424:248|464:224,1,100,0|8
424,136,100958,2,0,B|368:88|368:88|336:104,1,100,0|8
248,136,101618,1,0
160,176,101947,1,8
72,216,102277,1,0
240,320,102936,6,0,B|344:248|432:336,1,200,0|0
432,224,103925,1,0
408,128,104255,1,0
312,88,104585,2,0,B|232:88|240:24,1,100,0|4
160,224,105574,6,0,B|96:320,2,100,0|0|4
360,192,106892,2,0,B|424:96,2,100,0|0|4
256,192,107881,12,4,110189
