osu file format v9

[General]
AudioFilename: TatshMusicCircle - FOUR SEASONS OF LONELINESS.mp3
AudioLeadIn: 1996
PreviewTime: 63985
Countdown: 0
SampleSet: Soft
StackLeniency: 0.7
Mode: 0
LetterboxInBreaks: 1

[Editor]
Bookmarks: 54547,63985,85558,108480,205558,227131,250053,299940
DistanceSpacing: 1
BeatDivisor: 4
GridSize: 8

[Metadata]
Title:FOUR SEASONS OF LONELINESS
Artist:Tatsh feat. Sariyajin
Creator:ouranhshc
Version:Lunatic
Source:Touhou
Tags:Emotional Skyscraper Cosmic Mind gowww FAR EAST OF EAST II

[Difficulty]
HPDrainRate:7
CircleSize:4
OverallDifficulty:8
ApproachRate:8
SliderMultiplier:1.8
SliderTickRate:1

[Events]
//Background and Video events
0,0,"ouran.jpg"
//Break Periods
2,11601,21438
2,108680,118516
2,205758,227730
//Storyboard Layer 0 (Background)
//Storyboard Layer 1 (Fail)
//Storyboard Layer 2 (Pass)
//Storyboard Layer 3 (Foreground)
//Storyboard Sound Samples
//Background Colour Transformations
3,100,163,162,255

[TimingPoints]
615,337.078651685393,4,2,1,100,1,0
63227,-100,4,1,1,80,0,0
63648,-100,4,1,1,100,0,0
63985,-100,4,2,1,100,0,1
85558,-100,4,2,0,65,0,0
86907,-100,4,2,1,100,0,1
106794,-100,4,2,0,90,0,1
106963,-100,4,2,0,80,0,1
107131,-100,4,2,0,70,0,1
107300,-100,4,2,0,60,0,1
107468,-100,4,2,0,50,0,1
107637,-100,4,2,0,40,0,1
107806,-100,4,2,0,30,0,1
107974,-100,4,2,0,20,0,1
108143,-100,4,2,0,10,0,1
108311,-100,4,2,0,0,0,1
108480,-100,4,1,0,100,0,0
118929,-100,4,2,1,100,0,0
128620,-100,4,1,0,80,0,0
128789,-100,4,2,1,100,0,0
128957,-100,4,1,0,80,0,0
129126,-100,4,2,1,100,0,0
138058,-100,4,1,1,90,0,0
138227,-100,4,2,1,100,0,0
138395,-100,4,1,1,90,0,0
138564,-100,4,2,1,100,0,0
138732,-100,4,1,1,90,0,0
138901,-100,4,2,1,100,0,0
139070,-100,4,1,1,90,0,0
140755,-100,4,2,1,100,0,0
161064,-100,4,2,1,100,0,1
182300,-100,4,2,1,100,0,0
183985,-100,4,2,1,100,0,1
194013,-100,4,1,1,75,0,1
194435,-100,4,1,1,85,0,1
194772,-100,4,2,1,100,0,1
204379,-100,4,1,1,90,0,0
205558,-100,4,1,1,90,0,0
205811,-100,4,2,1,100,0,0
227121,-125,4,2,2,80,0,0
250053,-100,4,2,1,100,0,1
271289,-100,4,2,0,100,0,0
272974,-100,4,2,1,100,0,1
292862,-100,4,2,1,60,0,0
294884,-100,4,1,1,90,0,0
295895,-100,4,2,1,100,0,1
295980,-100,4,2,1,100,0,0
305923,-100,4,1,1,70,0,0
306682,-100,4,2,1,100,0,1
306766,-100,4,2,1,100,0,0
317468,-100,4,2,1,80,0,1
317553,-100,4,2,1,80,0,0

[Colours]
Combo1 : 255,192,98
Combo2 : 131,252,131
Combo3 : 149,149,253
Combo4 : 253,138,138

[HitObjects]
104,48,615,1,4
184,96,783,1,0
232,168,952,1,2
272,248,1120,2,0,B|280:336|352:352|400:344,1,180
368,248,1626,1,2
464,248,1794,2,0,B|456:160|384:144|336:152,1,180
360,64,2300,2,0,B|272:64,1,90,2|0
88,40,2806,5,0
48,120,2974,1,0
136,112,3143,1,0
96,192,3311,2,0,B|152:216|192:176,2,90,4|0|2
48,272,3817,2,0,B|72:376|176:376,1,180
256,336,4322,1,2
336,375,4491,2,0,B|440:376|464:272,1,180
376,272,4997,1,2
288,280,5165,2,0,B|311:176|415:176,1,180
504,176,5671,1,2
504,176,5839,1,0
488,88,6008,6,0,B|400:88,1,90
448,16,6345,2,0,B|360:16,1,90,2|0
264,24,6682,2,0,B|224:56|240:104,2,90,0|0|2
328,88,7188,1,0
328,176,7356,2,0,B|328:264,2,90,0|0|2
248,216,7862,1,0
168,256,8030,2,0,B|168:344,2,90,0|0|2
88,296,8536,1,0
40,216,8704,6,0,B|40:144|112:144|112:56,1,180,4|2
202,56,9210,2,0,B|202:143|274:143|274:215,1,180
368,216,9716,2,0,B|368:128,1,90,2|0
456,120,10053,6,0,B|456:32,2,90,0|0|2
512,192,10558,1,0
456,264,10727,2,0,B|456:352,2,90,0|0|2
512,192,11232,1,0
512,192,11317,1,0
512,192,11401,5,4
88,32,22188,5,0
88,32,22525,5,8
59,128,22693,1,2
127,196,22862,1,0
223,167,23030,1,2
252,71,23199,1,8
152,96,23367,2,0,B|104:280,1,180,2|0
48,336,23873,1,8
136,352,24041,2,0,B|320:352,2,180,2|2|2
48,336,24884,6,0,B|-8:248|48:168,1,180,2|8
160,72,25390,2,0,B|216:160|160:240,1,180,2|0
159,240,25895,1,10
240,328,26064,5,2
328,352,26232,1,0
304,264,26401,1,2
240,328,26570,1,8
328,352,26738,2,0,B|432:344|448:240,2,180,2|0|2
328,352,27581,5,4
312,176,27918,6,0,B|344:128|312:88,1,90,10|0
200,176,28255,2,0,B|168:128|200:88,1,90,2|0
256,24,28592,1,10
256,24,28761,5,2
424,192,29098,1,2
256,360,29435,1,2
88,192,29772,1,2
256,192,30109,5,2
200,120,30277,2,0,B|144:168|160:256|232:280,1,180,2|8
256,192,30783,1,2
312,120,30952,2,0,B|368:168|352:256|280:280,1,180,2|8
200,120,31626,6,0,B|112:80|24:120,1,180,2|8
80,32,32131,2,0,B|120:120|80:208,1,180,2|0
40,288,32637,1,10
104,352,32806,1,0
184,312,32974,1,6
336,192,33311,6,0,B|352:144|336:104,1,90,10|0
256,144,33648,1,2
176,192,33817,2,0,B|160:144|176:104,1,90,0|8
256,56,34154,2,0,B|336:0|424:56,1,180,2|0
256,144,34828,2,0,B|336:200|424:144,1,180,2|0
512,176,35334,1,8
472,256,35502,1,2
384,280,35671,6,0,B|200:280,1,180,2|8
256,352,36176,2,0,B|72:352,1,180,2|0
24,176,36850,5,2
80,104,37019,2,0,B|168:64|256:104,1,180,2|8
344,224,37525,2,0,B|256:264|168:224,1,180,2|0
169,224,37946,1,0
169,224,38030,1,8
169,224,38367,5,4
48,96,38704,5,10
16,184,38873,1,0
104,160,39041,1,2
80,248,39210,1,0
169,224,39379,1,8
248,192,39547,2,0,B|432:192,1,180,2|0
368,120,40053,1,10
280,120,40221,2,0,B|384:272,1,180,2|0
288,264,40727,1,10
288,264,40895,1,2
224,328,41064,6,0,B|160:392,1,90,2|0
32,280,41401,2,0,B|95:343,1,90,10|0
224,224,41738,2,0,B|160:287,1,90,2|0
32,168,42075,1,10
64,200,42159,1,0
96,232,42244,1,0
136,152,42412,6,0,B|288:48,1,180,2|8
376,232,42918,2,0,B|224:336,2,180,2|0|2
256,192,43761,5,4
112,80,44098,6,0,B|64:160,1,90,10|0
112,272,44435,2,0,B|160:192,1,90,2|0
208,120,44772,1,10
208,120,44940,2,0,B|296:64|376:128,1,180,2|0
440,192,45446,1,10
374,256,45614,2,0,B|296:320|208:264,2,180,2|0|0
374,256,46457,5,2
336,32,46794,5,10
160,64,47131,2,0,B|248:88,2,90,2|0|10
160,64,47637,1,4
384,120,47974,1,4
104,176,48311,1,4
464,248,48648,1,2
384,280,48817,1,10
384,280,48901,1,0
384,280,48985,1,2
416,360,49154,5,6
240,376,49491,5,10
112,248,49828,1,2
120,160,49997,1,0
192,208,50165,1,10
112,248,50334,5,4
352,96,50671,1,6
256,360,51008,1,6
160,96,51345,1,4
400,248,51682,1,6
328,296,51850,6,0,B|240:328|152:296,1,180,2|8
72,192,52356,2,0,B|160:160|248:192,1,180,2|0
248,192,52862,1,10
328,232,53030,5,2
328,232,53114,1,0
328,232,53199,2,0,B|384:144|328:64,1,180,2|8
184,152,53704,2,0,B|128:240|184:320,1,180,2|0
184,320,54210,1,10
272,168,54547,6,0,B|272:80,1,90,10|0
208,16,54884,1,10
120,16,55053,2,0,B|24:40|8:144,1,180,2|0
88,184,55558,1,10
8,232,55727,2,0,B|23:334|119:358,1,180,2|0
119,358,56232,1,8
296,296,56570,5,2
400,64,56907,1,10
224,64,57244,2,0,B|344:208,1,180,2|8
400,272,57749,1,2
456,200,57918,2,0,B|272:200,1,180,2|8
144,200,58423,5,2
152,288,58592,2,0,B|192:368|304:368,1,180,2|8
392,344,59098,1,2
448,272,59266,1,2
256,192,59350,12,0,61120
256,192,61289,5,4
256,192,61457,1,0
160,40,61794,1,4
384,88,62131,1,4
72,160,62468,2,0,B|32:240|72:336,1,180,4|0
160,360,62974,6,0,B|200:336,2,45,2|0|0
352,360,63311,2,0,B|312:336,3,45,0|0|0|0
312,288,63648,2,0,B|350:264,3,45,0|0|0|0
352,216,63985,6,0,B|368:120|304:48,1,180,2|8
160,168,64491,2,0,B|144:264|208:336,1,180,2|0
296,360,64997,1,10
384,352,65165,6,0,B|488:320|480:216,1,180,2|0
456,128,65671,1,10
456,128,65839,1,2
392,64,66008,1,0
304,40,66176,2,0,B|120:40,1,180,2|0
32,128,66682,5,2
32,216,66850,2,0,B|16:264|48:304,1,90,0|10
104,175,67188,2,0,B|126:221|177:226,1,90,0|2
173,226,67525,1,2
339,158,67862,1,2
256,320,68199,5,0
296,240,68367,1,8
216,240,68536,1,0
328,152,68704,1,0
184,152,68873,1,0
360,64,69041,1,8
152,64,69210,1,0
256,0,69379,6,0,B|256:88,1,90,2|0
296,240,69716,2,0,B|256:160,1,90,10|0
216,240,70053,1,2
216,240,70221,1,0
72,352,70558,6,0,B|0:272|72:192,1,180,2|0
16,120,71064,2,0,B|96:80,1,90,10|0
232,111,71401,2,0,B|152:152,1,90,2|0
256,304,71907,6,0,B|424:216,1,180,2|0
496,176,72412,1,10
416,136,72581,1,0
336,96,72749,2,0,B|248:64|160:96,1,180,2|8
72,216,73255,2,0,B|160:248|248:216,1,180,2|0
248,216,73761,5,8
456,344,74098,1,0
448,104,74435,5,10
448,104,74603,1,0
360,112,74772,2,0,B|312:96|264:112,1,90,2|0
312,192,75109,1,10
360,272,75277,2,0,B|312:288|264:272,1,90,0|2
271,274,75614,1,2
80,352,75952,6,0,B|0:288|16:192,1,180,2|0
160,128,76457,2,0,B|240:192|224:288,1,180,10|0
224,286,76963,1,2
376,192,77300,5,2
376,192,77468,1,2
424,48,77637,1,0
304,136,77806,1,10
448,136,77974,1,0
328,48,78143,1,2
376,192,78311,1,0
424,48,78480,1,10
304,136,78648,2,0,B|272:192|288:264|368:280,1,180,2|0
208,248,79322,2,0,B|240:192|224:120|144:104,1,180,0|0
151,105,79828,5,10
64,112,79997,1,2
16,184,80165,2,0,B|16:272,1,90,2|0
64,368,80502,2,0,B|64:280,1,90,10|0
112,184,80839,2,0,B|112:272,1,90,2|0
272,352,81345,6,0,B|312:264|272:176,2,180,2|0|2
360,368,82188,2,0,B|448:368,1,90,2|0
448,192,82693,5,2
368,240,82862,1,2
368,144,83030,1,0
448,192,83199,1,10
448,280,83367,2,0,B|400:368|296:344,1,180,2|0
216,296,83873,1,10
296,88,84210,1,2
256,192,84294,12,0,85390
256,192,85558,5,4
256,208,86232,1,4
256,224,86907,6,0,B|256:312,1,90,2|0
336,360,87244,2,0,B|336:272,2,90,10|0|0
464,232,87918,5,10
400,176,88086,1,2
336,120,88255,2,0,B|152:120,2,180,2|8|0
176,200,89266,5,10
136,280,89435,1,2
176,360,89603,2,0,B|264:392|352:360,1,180,2|8
264,280,90109,1,2
176,200,90277,2,0,B|265:167|353:199,2,180,2|8|0
176,360,91289,1,10
104,192,91626,5,2
408,192,91963,1,10
320,32,92300,2,0,B|328:128|256:192|256:192|184:256|192:360,1,360,2|0
316,252,93311,1,2
136,192,93648,5,2
196,252,93817,1,0
196,132,93985,1,10
256,312,94154,1,0
256,72,94322,1,2
256,72,94491,1,0
256,192,94828,12,0,96345
256,16,97019,5,2
256,368,97356,1,2
152,64,97693,6,0,B|48:88|8:192|48:296|152:320,1,360,2|0
256,192,98704,1,10
359,320,99041,2,0,B|464:296|504:192|464:88|360:64,1,360,2|0
256,192,100053,5,10
256,192,100221,1,2
312,120,100390,1,2
344,216,100558,1,0
256,288,100727,1,10
168,216,100895,1,0
200,120,101064,1,2
256,192,101232,1,0
256,376,101570,6,0,B|72:376,1,180,2|0
0,288,102075,2,0,B|88:288,1,90,10|0
160,200,102412,1,2
72,200,102581,2,0,B|16:200|-8:144|16:88|72:88,1,180,2|0
160,88,103086,6,0,B|344:88,1,180,2|8
488,192,103761,1,2
424,344,104098,1,10
336,360,104266,1,2
248,360,104435,2,0,B|136:368|96:272,2,180,2|8|0
400,264,105446,1,10
448,192,105614,1,2
400,112,105783,6,0,B|312:80|224:112,1,180,6|8
128,240,106289,2,0,B|216:272|304:240,1,180,6|0
256,192,106794,12,4,108480
80,88,119266,5,2
32,160,119435,2,0,B|-16:240,2,90,2|8|2
104,328,120109,2,0,B|152:248,2,90,2|8|2
312,224,120783,2,0,B|264:304,2,90,2|8|2
384,384,121457,2,0,B|432:304,2,90,2|8|2
336,304,121963,5,2
392,240,122131,1,2
440,168,122300,2,0,B|352:168,1,90,8|2
200,64,122806,1,2
288,64,122974,1,8
200,64,123143,1,2
192,240,123480,1,2
104,240,123648,1,8
192,240,123817,1,2
320,360,124154,2,0,B|416:360,2,90,2|8|2
232,360,124659,6,0,B|128:376|96:272,1,180,2|8
192,280,125165,2,0,B|296:296|328:192,1,180,2|0
232,200,125671,2,0,B|144:200,1,90,10|0
48,48,126176,1,2
136,48,126345,1,8
224,48,126513,1,2
384,128,126850,1,2
296,128,127019,1,8
208,128,127188,1,2
120,128,127356,6,0,B|184:296,1,180,2|8
336,368,127862,2,0,B|272:200,1,180,2|0
352,96,128367,2,0,B|384:184,1,90,10|0
368,272,128704,6,0,B|320:280|296:232,1,90
144,272,129041,2,0,B|192:280|216:232,1,90
256,152,129379,2,0,B|216:128,3,45
256,104,129716,2,0,B|296:80,3,45
256,64,130053,5,4
434,25,130390,5,10
472,104,130558,1,0
384,96,130727,2,0,B|296:96,1,90,2|0
256,176,131064,1,10
168,176,131232,2,0,B|168:248|248:288|304:248,2,180,2|0|2
112,104,132075,1,2
24,136,132244,2,0,B|24:224,2,90,0|10|0
40,48,132749,6,0,B|216:8,1,180,2|8
320,104,133255,2,0,B|144:144,1,180,2|0
144,143,133761,1,10
112,288,133929,5,2
184,344,134098,2,0,B|280:376|352:312,1,180,2|8
384,192,134603,2,0,B|288:160|216:224,1,180,2|0
216,223,135025,1,0
216,223,135109,1,10
216,223,135446,5,4
256,48,135783,6,0,B|336:8,1,90,10|0
400,72,136120,2,0,B|320:112,1,90,2|2
136,104,136626,2,0,B|104:192|136:280,1,180,2|2
376,280,137300,2,0,B|408:192|376:104,1,180,2|2
296,56,137806,1,10
296,144,137974,1,0
376,104,138143,5,0
448,56,138311,1,0
376,104,138480,1,0
472,88,138648,1,0
376,104,138817,1,0
480,128,138985,1,0
376,104,139154,6,0,B|288:104,1,90
200,56,139491,6,0,B|104:96|96:192,1,180,0|0
208,296,139997,2,0,B|304:256|312:160,2,180
208,296,140839,5,4
56,192,141176,5,10
128,144,141345,1,0
216,160,141513,1,2
304,176,141682,1,0
376,128,141850,1,10
464,144,142019,2,0,B|488:240|408:304,2,180,2|2|2
288,112,143030,2,0,B|104:112,1,180,2|0
108,112,143536,5,2
56,280,143873,5,10
216,368,144210,1,2
256,288,144379,1,0
296,368,144547,1,10
176,296,144716,5,2
368,240,145053,1,2
160,192,145390,1,2
384,136,145727,1,2
312,88,145895,1,8
312,88,145980,1,0
312,88,146064,1,0
392,48,146232,5,4
232,128,146570,6,0,B|144:128,1,90,10|0
80,192,146907,1,2
142,256,147075,1,0
80,192,147244,1,10
56,280,147412,2,0,B|72:352|168:368|208:312,1,180,2|0
456,280,148086,2,0,B|440:352|344:368|304:312,1,180,2|0
256,256,148592,1,10
216,176,148761,1,0
256,96,148929,6,0,B|344:56|432:96,1,180,2|8
375,9,149435,2,0,B|336:96|376:184,1,180,2|0
408,272,149940,1,10
360,344,150109,5,2
360,344,150193,1,0
360,344,150277,2,0,B|200:264,1,180,2|8
168,352,150783,2,0,B|240:368|288:328|296:256,1,180,2|0
264,176,151289,1,10
264,176,151373,1,0
264,176,151457,1,2
168,128,151626,6,0,B|208:40,1,90,2|0
320,104,151963,2,0,B|408:144,1,90,10|0
344,256,152300,2,0,B|304:344,1,90,2|0
192,280,152637,2,0,B|104:240,1,90,10|0
216,152,152974,6,0,B|216:104|168:80,1,90,2|0
296,152,153311,2,0,B|296:104|344:80,1,90,10|0
256,16,153648,1,0
256,128,153817,1,2
256,128,153901,1,0
256,128,153985,1,10
256,240,154154,1,2
256,240,154238,1,0
256,240,154322,6,0,B|240:312|320:360|368:344,1,180,2|8
352,248,154828,1,2
448,256,154997,2,0,B|464:184|384:136|336:152,1,180,2|8
256,104,155502,5,2
168,112,155671,2,0,B|80:136,2,90,2|0|10
216,184,156176,1,0
256,192,156345,12,4,158367
152,112,158873,5,4
256,264,159210,1,4
360,112,159547,1,4
256,384,160053,5,2
256,344,160390,1,2
256,304,160727,1,2
256,264,161064,5,2
184,208,161232,1,0
208,120,161401,1,10
304,120,161570,2,0,B|408:104|448:200,1,180,2|0
368,360,162244,6,0,B|264:376|224:280,1,180,2|0
184,208,162749,1,10
112,160,162918,1,0
32,192,163086,1,2
32,192,163255,1,0
128,344,163592,5,2
216,312,163761,1,2
248,224,163929,1,0
296,152,164098,1,10
360,88,164266,2,0,B|408:72|448:88,1,90,0|2
504,160,164603,1,2
504,160,164940,1,2
400,304,165277,5,2
344,232,165446,1,8
304,312,165614,1,2
248,240,165783,1,0
248,240,165867,1,0
248,240,165952,1,2
184,304,166120,2,0,B|144:256|160:208,1,90,8|2
192,136,166457,6,0,B|264:80,1,90,2|0
391,96,166794,2,0,B|320:152,1,90,10|0
248,208,167131,1,2
304,280,167300,2,0,B|456:160,1,180,2|0
416,344,167974,5,2
416,256,168143,1,8
392,168,168311,1,2
328,104,168480,1,0
248,72,168648,1,2
160,80,168817,1,10
96,136,168985,6,0,B|40:216|96:304,1,180,2|0
208,344,169491,2,0,B|208:256,1,90,10|0
232,120,169828,2,0,B|312:120|312:192|392:192,1,180,2|8
392,120,170334,2,0,B|312:120|312:192|232:192,1,180,2|0
144,192,170839,5,8
304,336,171176,1,0
360,128,171513,5,10
280,88,171682,1,2
360,40,171850,2,0,B|416:40|440:88,1,90,2|0
360,216,172188,2,0,B|304:216|280:168,1,90,10|0
360,128,172525,1,2
440,168,172693,1,0
376,336,173030,6,0,B|192:360,1,180,2|0
240,280,173536,2,0,B|152:264,1,90,10|0
216,200,173873,2,0,B|136:160,1,90,2|0
256,24,174379,5,2
168,16,174547,1,2
88,56,174716,1,0
56,144,174884,1,10
64,232,175053,1,0
120,304,175221,2,0,B|192:368,2,90,2|0|10
64,232,175727,1,2
192,104,176064,5,0
256,272,176401,1,0
64,232,176738,1,2
128,168,176907,5,10
104,80,177075,1,2
168,16,177244,1,2
168,16,177412,1,0
256,48,177581,1,10
256,48,177749,1,0
280,136,177918,2,0,B|280:224,1,90,2|0
440,312,178423,6,0,B|440:128,1,180,2|0
360,176,178929,2,0,B|320:200|272:176,1,90,10|0
320,96,179266,1,2
320,96,179435,1,0
152,24,179772,5,2
104,104,179940,1,2
112,192,180109,1,2
184,248,180277,1,10
272,264,180446,2,0,B|368:296|448:232,1,180,2|0
442,236,180952,1,10
256,192,181289,12,0,182300
176,120,182637,6,0,B|256:48|336:120,1,180,4|8
256,192,183143,1,2
175,263,183311,2,0,B|256:336|336:264,1,180,2|10
64,128,183985,6,0,B|24:208,1,90,2|0
112,192,184322,2,0,B|88:280,1,90,10|0
168,248,184659,2,0,B|168:336,2,90,2|0|10
192,160,185165,5,2
248,88,185334,1,2
320,32,185502,1,0
408,32,185671,2,0,B|400:88|352:112,2,90,10|0|2
480,80,186176,1,2
496,168,186345,6,0,B|440:176|400:160,1,90,10|0
320,144,186682,2,0,B|192:120|112:152,1,180,2|8
64,192,187188,1,2
80,280,187356,2,0,B|120:368|232:352,1,180,2|8
312,320,187862,1,2
376,256,188030,5,2
136,128,188367,1,8
304,56,188704,5,2
208,328,189041,1,8
24,336,189379,2,0,B|112:296|104:184,2,180,2|8|2
0,160,190390,1,10
64,96,190558,1,2
128,32,190727,6,0,B|208:80,1,90,2|0
229,198,191064,2,0,B|152:152,1,90,10|0
280,128,191401,1,2
360,176,191570,2,0,B|416:256|360:344,1,180,2|0
256,192,192075,12,0,193761
232,40,194098,6,0,B|264:80,3,45,4|0|0|0
192,56,194435,2,0,B|200:104,3,45
144,64,194772,6,0,B|128:248,1,180,2|8
40,272,195277,1,2
80,352,195446,2,0,B|264:352,1,180,2|8
440,144,196120,6,0,B|392:56|288:72,1,180,2|8
176,176,196626,2,0,B|224:264|328:248,1,180,2|0
416,232,197131,1,10
384,320,197300,1,0
296,352,197468,6,0,B|208:368,2,90,2|0|10
312,264,197974,1,2
224,256,198143,1,0
152,208,198311,2,0,B|96:120|168:40,1,180,2|0
24,152,198985,5,2
24,240,199154,1,8
64,320,199322,1,2
144,352,199491,2,0,B|232:352,2,90,2|0|10
64,320,199997,6,0,B|0:248|24:152,1,180,2|0
80,80,200502,2,0,B|168:80,2,90,10|0|2
112,168,201008,1,0
200,168,201176,2,0,B|288:168,1,90,10|0
376,176,201513,6,0,B|448:256|376:336,1,180,2|8
272,256,202019,2,0,B|200:176|272:96,1,180,2|0
376,32,202525,1,10
376,32,202693,1,0
464,48,202862,6,0,B|400:216,1,180,2|8
264,344,203367,2,0,B|328:175,1,180,2|0
288,48,203873,2,0,B|224:216,1,180,10|0
80,328,204547,5,0
80,304,204631,1,0
80,280,204716,1,0
80,256,204800,1,0
80,232,204884,1,0
48,144,205053,2,0,B|8:120,2,45,0|0|0
128,96,205390,1,0
128,96,205474,1,0
128,96,205558,5,4
112,96,228480,6,0,B|80:240,1,144,0|0
144,336,228985,2,0,B|176:192,1,144
256,72,229659,2,0,B|336:48|392:96,1,144
391,95,230081,1,0
391,95,230165,1,0
416,168,230334,1,0
408,240,230502,1,0
432,312,230671,2,0,B|344:320|328:232,1,144
296,168,231176,6,0,B|224:168,1,72
256,104,231513,2,0,B|184:104,1,72
216,40,231850,1,0
144,40,232019,2,0,B|0:40,1,144
32,184,232693,5,0
40,256,232862,1,0
104,288,233030,1,0
96,216,233199,1,0
88,144,233367,1,0
152,176,233536,1,0
160,248,233704,1,0
216,352,233873,6,0,B|368:336,1,144
432,328,234379,1,0
384,264,234547,2,0,B|296:272,1,72
240,280,234884,1,0
168,272,235053,6,0,B|112:224|112:144,2,144
216,208,235895,1,0
256,144,236064,1,0
352,40,236401,6,0,B|432:64|432:152,1,144
432,264,236907,2,0,B|368:256|360:208,1,72
320,184,237244,2,0,B|256:136|184:152,1,144
136,248,237749,2,0,B|200:296|272:280,1,144
271,280,238255,5,0
400,352,238592,1,0
464,224,238929,5,0
464,224,239013,1,0
464,224,239098,1,0
448,144,239266,2,0,B|376:144,1,72
312,216,239603,2,0,B|384:216,1,72
368,136,239940,2,0,B|296:136,1,72
192,32,240446,5,0
64,104,240783,1,0
48,176,240952,1,0
120,152,241120,1,0
192,128,241289,1,0
176,200,241457,1,0
256,320,241794,5,0
328,312,241963,1,0
384,264,242131,1,0
408,192,242300,1,0
384,120,242468,1,0
328,72,242637,2,0,B|256:64,2,72
304,144,243143,2,0,B|160:128,2,144
304,144,243985,1,0
432,360,244322,5,0
360,360,244491,1,0
288,360,244659,2,0,B|216:360,1,72
248,296,244997,2,0,B|176:288,1,72
216,224,245334,2,0,B|144:208,1,72
232,88,245839,6,0,B|296:48|368:88,1,144
408,152,246345,1,0
400,224,246513,1,0
336,256,246682,1,0
264,240,246850,1,0
144,160,247188,5,0
72,160,247356,2,0,B|0:176,1,72
57,239,247693,1,0
24,304,247862,2,0,B|72:368|152:352,1,144
208,312,248367,1,0
256,192,248704,12,0,249716
256,208,250053,5,6
336,168,250221,1,0
416,128,250390,1,10
496,88,250558,2,0,B|544:168|496:264,1,180,2|0
336,336,251232,6,0,B|280:256|336:168,1,180,2|0
336,168,251738,1,10
344,80,251907,1,0
280,16,252075,2,0,B|232:0|192:8,1,90,2|2
40,104,252581,5,2
40,192,252749,2,0,B|40:240|0:272,1,90,2|0
96,264,253086,2,0,B|144:184,1,90,10|0
192,264,253423,1,2
144,344,253592,2,0,B|192:360|240:344,1,90,0|10
320,312,253929,2,0,B|392:240|360:144,1,180,2|0
312,72,254435,5,8
312,72,254603,1,0
384,16,254772,1,0
472,40,254940,1,0
472,40,255025,1,0
472,40,255109,2,0,B|504:80|496:128,1,90,8|0
496,216,255446,6,0,B|432:280,1,90,2|0
344,264,255783,2,0,B|408:200,1,90,10|0
320,184,256120,1,2
264,248,256289,2,0,B|80:248,1,180,2|0
104,72,256963,5,2
144,152,257131,1,8
184,72,257300,1,2
224,152,257468,1,2
224,152,257637,1,2
368,40,257974,6,0,B|464:64|464:176,1,180,2|0
496,256,258480,2,0,B|448:272|408:240,1,90,10|2
368,168,258817,2,0,B|288:112|200:168,1,180,2|8
144,288,259322,2,0,B|224:344|312:288,1,180,2|0
312,287,259828,5,8
256,120,260165,1,0
432,144,260502,5,10
376,216,260671,1,2
344,128,260839,2,0,B|344:72|304:48,1,90,2|0
168,112,261176,2,0,B|168:168|208:192,1,90,10|0
296,200,261513,1,2
256,120,261682,2,0,B|80:192,1,180,2|0
56,368,262356,5,2
144,352,262525,1,8
200,280,262693,1,2
248,200,262862,1,0
328,160,263030,1,2
488,240,263367,5,2
424,304,263536,2,0,B|336:328,1,90,2|0
408,208,263873,2,0,B|312:232,1,90,10|0
264,304,264210,2,0,B|208:264|216:176|272:144,1,180,2|8
312,72,264716,2,0,B|128:72,1,180,2|0
132,72,265221,5,8
40,224,265558,1,0
56,48,265895,6,0,B|48:104|88:136,1,90,10|2
168,144,266232,1,2
168,144,266401,1,0
256,152,266570,2,0,B|304:168|320:224,1,90,10|0
320,304,266907,1,2
320,304,267075,1,2
144,344,267412,6,0,B|48:336|32:224,1,180,2|0
40,136,267918,1,10
40,136,268086,1,0
96,64,268255,2,0,B|128:96|128:152,1,90,2|0
168,224,268592,1,8
224,152,268761,5,2
288,96,268929,2,0,B|336:80|376:104,1,90,0|2
328,176,269266,1,10
416,184,269435,2,0,B|408:256|336:296|256:240,1,180,2|0
282,255,269940,1,10
256,192,270277,12,0,271289
120,64,271626,5,4
392,320,272300,1,4
56,192,272974,6,0,B|144:192,1,90,4|0
160,280,273311,2,0,B|208:264|232:216,2,90,10|0|2
232,336,273817,1,2
320,368,273985,6,0,B|328:320|304:280,1,90,10|0
392,296,274322,2,0,B|368:224|400:112,1,180,2|8
304,200,274828,2,0,B|280:104|184:80,1,180,2|0
256,8,275334,2,0,B|160:8,1,90,10|2
80,32,275671,6,0,B|0:88|40:192,1,180,2|8
128,160,276176,1,2
216,128,276345,2,0,B|296:184|256:288,1,180,2|8
192,352,276850,1,0
104,352,277019,5,0
16,192,277356,1,8
128,56,277693,6,0,B|216:32,1,90,2|0
176,112,278030,2,0,B|264:104,1,90,10|0
208,176,278367,2,0,B|400:176,2,180,2|10|2
24,176,279379,2,0,B|112:176,1,90,10|2
56,248,279716,5,2
112,320,279884,1,0
200,352,280053,1,10
288,344,280221,1,0
360,296,280390,1,2
384,208,280558,1,2
384,208,280895,1,2
256,192,280980,12,8,282749
256,32,283086,5,0
256,352,283423,1,8
80,304,283761,6,0,B|184:304|216:208,1,180,6|8
216,120,284266,2,0,B|112:120|80:216,1,180,2|0
80,304,284772,1,10
136,368,284940,1,0
224,384,285109,2,0,B|408:384,1,180,2|8
404,384,285615,1,2
256,56,286289,5,2
296,192,286457,1,0
192,112,286626,1,0
320,112,286794,1,8
216,192,286963,1,2
256,56,287131,1,0
256,56,287300,2,0,B|256:240,1,180,2|0
96,320,287974,5,2
88,232,288143,1,8
168,272,288311,1,2
160,184,288480,1,0
240,224,288648,2,0,B|240:40,1,180,2|0
320,8,289154,6,0,B|480:96,1,180,2|8
488,184,289659,1,2
408,144,289828,2,0,B|250:57,1,180,2|8
160,56,290334,1,2
72,56,290502,6,0,B|32:136|72:232,2,180,2|10|2
160,216,291513,1,10
256,280,291682,1,2
352,216,291850,2,0,B|408:128|352:48,1,180,2|8
160,47,292356,2,0,B|104:128|160:216,1,180,2|0
256,280,292862,1,10
256,192,292946,12,0,294379
448,184,295221,5,4
424,184,295306,1,0
400,184,295390,1,0
376,184,295474,1,0
352,184,295558,1,0
328,184,295643,1,0
304,184,295727,1,0
280,184,295811,1,0
256,184,295895,6,0,B|144:192|128:88,1,180,6|8
216,96,296401,2,0,B|120:248,1,180,2|0
256,368,297075,2,0,B|352:352|368:240,1,180,6|0
360,152,297581,1,10
360,152,297749,1,0
320,72,297918,2,0,B|280:40|232:48,1,90,2|2
56,32,298423,5,2
56,120,298592,1,4
56,120,298761,1,2
96,200,298929,2,0,B|112:256|176:256,1,90,8|2
248,264,299266,1,4
336,256,299435,2,0,B|400:224|472:280|464:336,1,180,2|0
256,192,299940,12,0,300783
256,264,300952,5,0
336,224,301120,1,0
336,136,301289,2,0,B|248:104|160:136,1,180,0|8
24,48,301794,2,0,B|112:80|200:48,1,180
288,16,302300,1,8
376,8,302468,2,0,B|440:8|496:64|496:120,1,180
496,208,302974,6,0,B|496:296,1,90,8|0
424,352,303311,2,0,B|424:264,1,90
368,192,303648,1,8
400,112,303817,2,0,B|328:88|272:152|288:208,1,180
224,272,304322,6,0,B|192:184,1,90,8|0
104,160,304659,2,0,B|136:248,1,90
160,328,304997,1,8
248,360,305165,2,0,B|432:360,1,180
384,280,305671,1,8
296,280,305839,1,0
256,200,306008,5,0
256,184,306092,1,0
256,168,306176,1,0
256,152,306261,1,0
256,136,306345,1,0
256,120,306429,1,0
256,104,306513,1,0
168,40,306682,6,0,B|96:120|168:200,1,180,6|8
343,200,307188,2,0,B|416:120|344:40,1,180,2|0
256,40,307693,1,10
256,128,307862,2,0,B|256:312,1,180,6|0
320,368,308367,1,10
320,368,308536,1,0
408,368,308704,2,0,B|456:344|456:288,1,90,2|2
280,264,309210,5,2
216,328,309379,2,0,B|184:288|192:240,1,90,4|2
120,304,309716,2,0,B|104:248|120:216,1,90,8|2
168,136,310053,1,6
232,80,310221,2,0,B|320:32|408:88,1,180,2|0
256,192,310727,12,0,311907
216,232,312075,6,0,B|200:280|152:288,2,90,0|0|8
296,232,312581,2,0,B|312:280|360:288,2,90
256,152,313086,1,8
256,64,313255,2,0,B|344:32|432:64,1,180
488,136,313761,5,8
504,224,313929,2,0,B|456:240|384:192|408:112,1,180
328,72,314435,1,8
248,32,314603,1,0
160,24,314772,6,0,B|88:80,2,90,0|0|8
184,112,315277,2,0,B|120:136|104:216|152:272,1,180
216,200,315783,1,8
232,288,315952,1,0
256,192,316120,12,12,317468
