osu file format v5

[General]
AudioFilename: Beatmania IIDX RED 11th Style - [Medieval Choir] Tatsh feat..mp3
AudioLeadIn: 0
AudioHash: e2434ea118c120163e83eb1afcd76187
PreviewTime: -1
Countdown: 1
SampleSet: Soft
EditorBookmarks: 12135,25635,31635,37635,49635,55635,66135,76635,88635,97260,103635

[Metadata]
Title:Sphere
Artist:Tatsh feat. K.Nayuki
Creator:Reikin
Version:Normal

[Difficulty]
HPDrainRate:3
CircleSize:5
OverallDifficulty:5
SliderMultiplier:1
SliderTickRate:4

[Events]
//Background and Video events
0,0,"sphere_bg.png"
//Break Periods
2,49875,54475
2,88875,96100
//Storyboard Layer 0 (Background)
//Storyboard Layer 1 (Failing)
//Storyboard Layer 2 (Passing)
//Storyboard Layer 3 (Foreground)
//Storyboard Sound Samples
//Background Colour Transformations
3,100,163,162,255

[TimingPoints]
-200,375,4,2,0,100

[HitObjects]
256,192,12175,2,2,B|256:192|256:64|128:64,1,200
0,192,13675,2,2,B|0:192|0:320|128:320,1,200
352,320,15175,2,2,B|352:320|480:320|480:192,1,200
256,192,16675,2,2,B|256:192|256:64|384:64,1,200
160,28,18175,6,2,B|160:28|160:128,1,100
160,224,18925,2,2,B|160:224|60:224,1,100
64,320,19675,2,2,B|64:320|160:320,1,100
256,320,20425,2,2,B|256:320|256:224,1,100
256,192,21175,12,6,24175
384,128,25675,6,2,B|384:128|384:64|320:64,1,100
224,64,26425,2,2,B|224:64|160:64|160:128,1,100
160,224,27175,2,2,B|160:224|160:288|224:288,1,100
320,288,27925,2,2,B|320:288|384:288|384:224,1,100
256,192,28675,12,6,30925
128,256,31675,6,2,B|128:256|128:320|192:320,1,100
288,320,32425,2,2,B|288:320|352:320|352:256,1,100
352,160,33175,2,2,B|352:160|352:96|288:96,1,100
192,96,33925,2,2,B|192:96|128:96|128:160,1,100
256,192,34675,12,6,36925
256,192,37675,2,2,B|256:192|256:160|256:128|320:128,1,100
352,224,38425,2,2,B|352:224|352:288|288:288,1,100
192,288,39175,2,2,B|192:288|128:288|128:192,1,100
128,128,39925,2,2,B|128:128|128:96|128:64|192:64,1,100
288,64,40675,2,2,B|288:64|416:64|416:192,1,200
416,288,41800,2,2,B|416:288|416:352|352:352,4,100
320,224,43675,6,2,B|320:224|320:192|320:160|256:160,1,100
256,256,44425,2,2,B|256:256|256:320|320:320,1,100
416,320,45175,2,2,B|416:320|480:320|480:224,1,100
480,160,45925,2,2,B|480:160|480:128|480:96|416:96,1,100
320,96,46675,2,2,B|320:96|192:96|192:224,1,200
64,192,48175,2,2,B|64:192|64:256|128:256,4,100
152,168,55675,6,2,B|152:168|152:40|280:40|408:40|408:168|408:296|280:296|152:296|152:136,1,600
368,168,58675,6,2,B|368:168|368:40|240:40|112:40|112:168|112:296|240:296|368:296|368:136,1,600
176,208,61675,2,4,B|176:208|176:176,4,25
272,208,62425,2,4,B|272:208|272:176,4,25
256,192,63175,12,4,64675
256,192,66175,2,2,B|256:192|256:160|256:128|192:128,1,100
160,224,66925,2,2,B|160:224|160:288|224:288,1,100
320,288,67675,2,2,B|320:288|384:288|384:192,1,100
384,128,68425,2,2,B|384:128|384:96|384:64|320:64,1,100
224,64,69175,2,2,B|224:64|96:64|96:192,1,200
96,288,70300,2,2,B|96:288|96:352|160:352,5,100
256,192,73300,12,6,76675
256,216,77425,6,2,B|256:216|256:176,4,25
256,112,78175,1,2
48,112,78925,6,2,B|48:112|48:144,4,25
48,216,79675,1,2
232,320,80425,6,2,B|232:320|264:320,4,25
336,320,81175,1,2
360,112,81925,6,2,B|360:112|328:112,4,25
256,112,82675,1,2
256,320,83425,6,2,B|256:320|256:352,4,25
176,248,84175,2,2,B|176:248|128:176|128:96|192:32|264:16|336:32|400:104|400:176|368:240|304:288|248:288|208:264,1,600
256,192,87175,12,6,88675
256,192,97675,12,4,103675
