osu file format v5

[General]
AudioFilename: Beatmania IIDX RED 11th Style - [Medieval Choir] Tatsh feat..mp3
AudioLeadIn: 0
AudioHash: e2434ea118c120163e83eb1afcd76187
PreviewTime: -1
Countdown: 1
SampleSet: Soft
EditorBookmarks: 12135,25635,31635,37635,49635,55635,66135,76635,88635,97260,103635

[Metadata]
Title:Sphere
Artist:Tatsh feat. K.Nayuki
Creator:Reikin
Version:Hyper

[Difficulty]
HPDrainRate:2
CircleSize:5
OverallDifficulty:6
SliderMultiplier:1.3
SliderTickRate:4

[Events]
//Background and Video events
0,0,"sphere_bg.png"
//Break Periods
2,49875,54775
2,88875,96775
//Storyboard Layer 0 (Background)
//Storyboard Layer 1 (Failing)
//Storyboard Layer 2 (Passing)
//Storyboard Layer 3 (Foreground)
//Storyboard Sound Samples
//Background Colour Transformations
3,100,163,162,255

[TimingPoints]
-200,375,4,2,0,100

[HitObjects]
120,184,12175,2,2,B|120:184|120:136,1,32.5
144,88,12456,2,2,B|144:88|168:64,1,32.5
224,32,12737,2,2,B|224:32|264:32,11,32.5
352,64,14050,2,2,B|352:64|376:88|392:128|400:176|392:224|368:256|320:296,1,260
280,304,15175,6,2,B|280:304|232:304,1,32.5
184,280,15456,2,2,B|184:280|160:256,1,32.5
128,200,15737,2,2,B|128:200|128:160,11,32.5
160,72,17050,2,2,B|160:72|184:48|224:32|272:24|320:32|352:56|384:112,1,260
384,144,18175,6,2,B|384:144|384:192,1,32.5
360,240,18456,2,2,B|360:240|336:264,1,32.5
280,296,18737,2,2,B|280:296|240:296,11,32.5
192,288,19925,2,2,B|192:288|164:271|140:243|120:208,4,97.5
256,192,21175,12,6,24175
120,152,25675,2,2,C|120:152|128:112|152:80,8,65
168,272,27550,2,2,C|168:272|208:304|248:312,8,65
128,152,29425,1,2
200,48,29800,2,2,C|200:48|216:32|264:24,1,65
256,192,30175,12,4,30925
392,152,31675,2,2,C|392:152|384:112|360:80,8,65
344,272,33550,2,2,C|344:272|304:304|264:312,8,65
384,152,35425,1,2
312,48,35800,2,2,C|312:48|296:32|248:24,1,65
256,192,36175,12,4,36925
120,168,37675,2,2,B|120:168|120:128|136:96|160:64|184:48|216:32|256:24|304:32|328:40|368:80|385:122|400:176,1,390
344,264,39175,2,2,B|344:264|320:296|264:304|224:304|176:288|136:248|120:192|120:128|160:64,1,390
280,40,40675,2,2,B|280:40|316:40|392:46|425:160|427:255|322:296|256:312,1,390
152,256,42175,2,2,B|152:256|128:224|120:200|112:152|128:112,3,130
256,32,43675,2,2,B|256:32|296:32|328:48|360:72|376:96|392:128|400:168|392:216|384:240|344:280|302:297|248:312,1,390
160,256,45175,2,2,B|160:256|128:232|120:176|120:136|136:88|176:48|232:32|296:32|360:72,1,390
384,192,46675,2,2,B|384:192|384:228|378:304|264:337|169:339|128:234|112:168,1,390
168,64,48175,2,2,B|168:64|200:40|232:32|264:24|312:40|352:64|384:112|392:136,2,260
192,48,55675,6,2,B|192:48|152:72|128:112,3,65
128,216,56612,2,2,B|128:216|148:258|192:288,2,65
224,304,57362,2,2,B|224:304|262:311|296:304,2,65
128,208,58112,2,2,B|128:208|122:171|128:128,14,65
144,80,61112,2,2,B|144:80|174:51|208:40,1,65
328,48,61675,6,6,B|328:48|344:56|360:72,4,32.5
400,160,62425,6,6,B|400:160|400:200,4,32.5
344,272,63175,6,6,B|344:272|312:296|264:312|208:296,3,130
256,192,64675,12,6,66175
392,168,67300,1,2
328,56,67675,2,2,B|328:56|288:32|224:32|176:56|136:104,1,195
184,280,68800,2,2,B|184:280|216:296|256:312|312:296|376:232|400:192|392:136|368:80|312:40,1,390
192,48,70300,5,2
120,152,70675,2,2,B|120:152|120:176|128:208|152:256|216:304|240:304,2,195
368,88,72550,1,2
384,216,72925,1,2
296,296,73675,6,2,B|296:296|256:304|192:296|152:256|120:192|128:128,1,260
208,40,74800,1,2
336,56,75175,2,2,B|336:56|368:96|392:152|392:216|352:272|304:296,1,260
136,96,76675,6,2,B|136:96|160:56|216:26|278:23|312:32|364:63|398:116|405:191|376:240,1,390
288,296,78175,2,2,B|288:296|248:304|152:264|120:208|120:128,1,260
208,40,79300,1,2
336,56,79675,2,2,B|336:56|376:96|400:168|384:224|344:288|304:304,1,260
192,288,80800,1,2
120,176,81175,2,2,B|120:176|120:136|136:96|151:45|216:19|288:42|328:40,1,260
384,128,82300,1,2
360,256,82675,2,2,B|360:256|320:288|272:304|208:304|152:256|120:216|128:208,1,260
152,88,83800,1,2
272,40,84175,2,2,B|272:40|320:48|368:88|419:170|360:256,1,260
256,192,85675,12,6,88675
256,192,97675,12,6,103675
