osu file format v7

[General]
AudioFilename: 05 - Tatsh feat. Hatsuki Yura - Eternal Wind.mp3
AudioLeadIn: 0
PreviewTime: 60634
Countdown: 0
SampleSet: Normal
StackLeniency: 0.7
Mode: 0
LetterboxInBreaks: 1

[Editor]
Bookmarks: 29170
DistanceSpacing: 1.20000004768372
BeatDivisor: 4
GridSize: 8

[Metadata]
Title:Eternal Wind
Artist:Tatsh feat. Hatsuki Yura
Creator:happy30
Version:Normal
Source:Touhou
Tags:kochiya sanae faith is for the transient people FAR EAST OF EAST II youngdow

[Difficulty]
HPDrainRate:5
CircleSize:3
OverallDifficulty:4
SliderMultiplier:1
SliderTickRate:1

[Events]
//Background and Video events
0,0,"BG.jpg"
//Break Periods
2,90834,95167
//Storyboard Layer 0 (Background)
//Storyboard Layer 1 (Fail)
//Storyboard Layer 2 (Pass)
//Storyboard Layer 3 (Foreground)
//Storyboard Sound Samples
//Background Colour Transformations
3,100,163,162,255

[TimingPoints]
16000,365.853658536585,4,1,1,50,1,0
17463,-100,4,1,0,60,0,0
29170,-100,4,1,0,60,0,0
52585,-200,4,1,0,60,0,0
58256,-100,4,1,0,60,0,0
62554,-100,4,1,0,70,0,0
64292,-100,4,1,0,60,0,1
90634,-100,4,1,0,60,0,0
96487,-100,4,1,0,60,0,0
99780,-200,4,2,0,60,0,0
102249,-200,4,1,0,60,0,0
102707,-200,4,2,0,60,0,0
105085,-200,4,1,0,60,0,0
105451,-200,4,2,0,60,0,0
106640,-200,4,1,0,60,0,0
106914,-200,4,2,0,60,0,0
108012,-200,4,1,0,60,0,0
108378,-200,4,2,0,60,0,0
109658,-100,4,1,0,60,0,0
123195,-200,4,1,0,60,0,0
128682,-100,4,1,0,60,0,0
134536,-100,4,1,0,60,0,1
160878,-100,4,1,0,60,0,0

[Colours]
Combo1 : 101,175,111
Combo2 : 157,44,40
Combo3 : 208,204,130

[HitObjects]
256,272,16000,2,0,B|256:312,16,25
320,176,17829,6,0,B|296:120|336:64,1,100,0|0
424,152,18560,2,0,B|448:208|408:264,1,100,0|0
336,336,19292,1,0
216,344,19658,1,0
112,280,20024,1,0
80,168,20390,6,0,B|40:88|112:24,2,150,4|8|8
200,184,21853,2,0,B|240:264|168:328,2,150,4|8|8
256,80,23317,5,4
424,144,23865,1,0
280,248,24414,1,0
400,240,24780,2,0,B|408:296|360:344,1,100,4|8
280,248,25512,2,0,B|272:192|320:144,1,100,8|8
256,192,26243,12,4,29170
192,192,29902,6,0,B|144:128|208:40,2,150,0|0|0
72,192,31365,2,0,B|120:256|56:344,2,150,0|0|0
72,72,32829,5,0
184,40,33195,1,0
272,120,33560,2,0,B|296:168|280:224,1,100,0|2
192,304,34292,2,0,B|168:256|184:200,2,100,2|2|4
304,344,35390,5,0
416,296,35756,1,0
448,176,36121,1,0
400,64,36487,1,4
288,104,36853,2,0,B|216:152|128:104,2,150,0|0|0
368,192,38317,5,2
144,280,39048,1,2
256,328,39414,1,0
256,328,39780,1,2
256,208,40146,2,0,B|256:168,8,25,0|0|0|0|0|0|0|0|4
136,200,41243,6,0,B|176:120|112:56,2,150
80,304,42707,1,0
200,272,43073,2,0,B|352:272,2,150
256,168,44536,5,0
376,168,44902,1,0
464,256,45268,2,0,B|472:312|432:352,1,100,0|2
376,168,45999,2,0,B|368:112|408:72,2,100,2|2|4
264,112,47097,6,0,B|96:112,2,150
192,208,48560,1,2
256,312,48926,2,0,B|336:336|408:272,2,150
256,312,50390,5,0
288,200,50756,1,2
256,88,51121,1,0
256,88,51487,1,2
256,208,51853,2,0,B|256:240,8,25
152,312,53134,5,0
152,312,53317,2,0,B|112:208,1,100
168,80,54597,1,0
168,80,54780,2,0,B|208:184,1,100
336,104,56060,5,0
336,104,56243,1,0
416,168,56609,1,0
360,248,56975,2,0,B|200:248,1,150
112,176,58439,5,4
176,80,58804,1,2
280,136,59170,2,0,B|304:192|272:248,1,100
288,352,59902,1,4
408,328,60268,1,2
392,208,60634,2,0,B|368:168|392:96,1,100
472,24,61365,5,4
352,24,61731,1,2
232,24,62097,1,2
112,24,62463,1,2
56,128,62829,2,0,B|48:216|136:264,1,150,2|2
120,254,63560,1,2
352,328,64292,6,0,B|192:328,1,150,4|0
202,328,65024,2,0,B|240:224,1,100
352,192,65756,2,0,B|312:304,2,100,0|2|2
160,56,67219,6,0,B|320:56,1,150,4|0
310,56,67951,2,0,B|272:160,1,100
160,192,68683,2,0,B|200:80,2,100,0|2|2
40,192,69780,2,0,B|72:296,1,100,2|4
176,344,70512,5,0
248,248,70878,2,0,B|408:248,1,150
398,248,71609,1,2
456,144,71975,1,2
376,56,72341,1,2
304,152,72707,1,2
304,152,72890,2,0,B|144:152,1,150,0|4
200,264,73804,6,0,B|80:264,2,100,0|2|2
440,304,75268,2,0,B|416:144,1,150,2|2
417,155,75999,5,4
256,240,76548,1,0
256,240,76731,2,0,B|136:240,1,100
72,160,77463,1,2
128,56,77829,1,0
232,120,78195,1,2
176,224,78560,1,2
128,112,78926,6,0,B|304:112,1,150,4|0
278,112,79658,2,0,B|312:216,1,100
424,240,80390,2,0,B|384:128,2,100,0|2|2
352,336,81487,1,0
240,288,81853,6,0,B|80:288,1,150,4|0
90,288,82585,2,0,B|120:184,1,100
48,96,83317,2,0,B|16:200,2,100,2|2|2
160,136,84414,5,2
160,136,84597,2,0,B|320:136,1,150,6|2
376,240,85512,2,0,B|392:296|368:352,1,100,2|2
256,336,86243,1,4
256,96,86975,1,0
256,192,87707,12,4,90634
256,192,96487,12,4,99414
141,288,100146,6,0,B|229:288,1,75
216,288,100878,1,0
368,192,101609,2,0,B|280:192,1,75
293,192,102341,5,4
208,72,103073,1,0
352,48,103804,2,0,B|376:104,1,50,0|2
480,144,104536,2,0,B|456:88,1,50,0|2
392,216,105268,5,4
256,144,105999,2,0,B|232:176|240:224,1,75,2|2
238,215,106731,1,4
96,264,107463,2,0,B|120:232|112:184,1,75,2|0
113,192,108195,5,0
168,144,108560,1,0
240,152,108926,2,0,B|272:136|272:120,2,37.5,0|2|2
256,208,109658,2,0,B|256:248,16,25
312,296,111487,5,2
384,224,111853,2,0,B|392:176|424:144,1,75,0|2
392,88,112402,1,2
392,88,112585,2,0,B|336:104|280:88,1,100,4|2
216,152,113317,2,0,B|168:144|128:160,1,75,0|2
88,208,113865,5,0
88,208,114048,2,0,B|144:240|112:296|184:328,1,150,4|0
256,264,114963,1,2
256,264,115146,2,0,B|288:208|344:240|376:168,1,150,2|0
416,208,115878,2,0,B|432:264|392:312,2,100,0|2|2
456,112,116975,5,4
376,48,117341,1,2
288,96,117707,2,0,B|256:120|192:120,1,75,0|2
152,88,118256,1,2
152,88,118439,2,0,B|96:112|88:176,1,100,4|2
160,240,119170,2,0,B|168:296|144:328,2,75,0|2|2
184,192,119902,5,4
272,240,120268,1,2
360,192,120634,2,0,B|328:160|328:112,1,75,0|2
344,56,121182,1,2
344,56,121365,1,4
440,64,121731,1,2
488,152,122097,2,0,B|480:200,8,25,0|0|0|0|0|0|0|0|4
424,288,123378,5,0
424,288,123560,2,0,B|336:208,1,100,0|4
176,216,124841,1,0
176,216,125023,2,0,B|264:296,1,100
328,160,126304,5,0
328,160,126487,2,0,B|304:80,1,75
306,88,127219,1,4
208,80,127585,1,0
176,176,127951,1,0
256,240,128317,2,0,B|256:288,1,37.5
272,296,128682,6,0,B|392:298,1,100,4|2
432,216,129414,2,0,B|384:224|352:200,1,75,0|2
320,144,129963,1,2
320,144,130146,2,0,B|200:144,1,100,4|2
152,216,130878,2,0,B|200:208|232:232,1,75,0|2
264,288,131427,5,2
264,288,131609,2,0,B|232:336|168:328,1,100,4|2
8,328,132341,2,0,B|40:280|104:288,1,100,0|2
128,192,133073,2,0,B|160:224|208:200,1,75,0|2
264,176,133621,1,2
264,176,133804,2,0,B|376:176,1,100,6|0
352,56,134536,6,0,B|192:56,1,150,4|0
202,56,135268,2,0,B|240:160,1,100
352,192,136000,2,0,B|312:80,2,100,0|2|2
160,328,137463,6,0,B|320:328,1,150,4|0
310,328,138195,2,0,B|272:224,1,100
160,192,138927,2,0,B|200:304,2,100,0|2|2
40,192,140024,2,0,B|72:88,1,100,2|4
176,40,140756,5,0
248,136,141122,2,0,B|408:136,1,150
398,136,141853,1,2
456,240,142219,1,2
376,328,142585,1,2
304,232,142951,5,2
304,232,143134,2,0,B|144:232,1,150,2|4
200,120,144048,2,0,B|80:120,2,100,0|2|2
440,80,145512,2,0,B|416:240,1,150,2|2
417,229,146243,1,4
256,144,146792,5,0
256,144,146975,2,0,B|136:144,1,100
72,224,147707,1,2
128,328,148073,1,0
232,264,148439,1,2
176,160,148804,1,2
128,272,149170,6,0,B|304:272,1,150,4|0
278,272,149902,2,0,B|312:168,1,100
424,144,150634,2,0,B|392:256,2,100,0|2|2
352,48,151731,1,0
240,96,152097,6,0,B|80:96,1,150,4|0
90,96,152829,2,0,B|120:200,1,100
48,288,153561,2,0,B|8:176,2,100,2|2|2
160,248,154658,5,2
160,248,154841,2,0,B|320:248,1,150,6|2
376,144,155756,2,0,B|392:88|368:32,1,100,2|2
256,136,156487,6,0,B|256:184,16,25,0|0|0|0|0|0|0|0|0|0|0|0|0|0|0|0|4
256,192,158042,12,4,160878
