osu file format v7

[General]
AudioFilename: 05 - Tatsh feat. Hatsuki Yura - Eternal Wind.mp3
AudioLeadIn: 0
PreviewTime: 60634
Countdown: 0
SampleSet: Normal
StackLeniency: 0.7
Mode: 0
LetterboxInBreaks: 1

[Editor]
Bookmarks: 29170
DistanceSpacing: 1.29999995231628
BeatDivisor: 4
GridSize: 8

[Metadata]
Title:Eternal Wind
Artist:Tatsh feat. Hatsuki Yura
Creator:happy30
Version:InSanae
Source:Touhou
Tags:kochiya sanae faith is for the transient people FAR EAST OF EAST II youngdow

[Difficulty]
HPDrainRate:7
CircleSize:4
OverallDifficulty:7
SliderMultiplier:2
SliderTickRate:1

[Events]
//Background and Video events
0,0,"BG.jpg"
//Break Periods
2,89370,98514
2,159614,167295
//Storyboard Layer 0 (Background)
//Storyboard Layer 1 (Fail)
//Storyboard Layer 2 (Pass)
//Storyboard Layer 3 (Foreground)
//Storyboard Sound Samples
//Background Colour Transformations
3,100,163,162,255

[TimingPoints]
0,400,4,2,0,50,1,0
3200,-200,4,2,0,50,0,0
16000,365.853658536585,4,1,1,50,1,0
17463,-100,4,1,0,60,0,0
29170,-100,4,1,0,60,0,0
52585,-200,4,1,0,60,0,0
58256,-100,4,1,0,60,0,0
62554,-100,4,1,0,70,0,0
64292,-100,4,1,0,60,0,1
89170,-100,4,1,0,60,0,0
96487,-200,4,2,0,60,0,0
109567,-100,4,1,0,60,0,0
122829,-200,4,1,0,60,0,0
128499,-100,4,1,0,60,0,0
134536,-100,4,1,0,60,0,1
159414,-100,4,1,0,60,0,0
187219,-200,4,2,0,60,0,0
197829,-100,4,1,0,60,0,0
198926,-100,4,1,0,75,0,1
225268,-100,4,1,0,76,0,0

[Colours]
Combo1 : 101,175,111
Combo2 : 157,44,40
Combo3 : 208,204,130

[HitObjects]
80,344,3200,1,2
80,344,4000,1,2
160,216,4300,1,0
72,96,4600,1,0
72,96,4800,2,0,B|136:8|264:48,1,200,2|2
251,44,6400,5,2
432,344,7200,1,2
352,216,7500,1,0
440,96,7800,1,0
440,96,8000,2,0,B|376:184|248:144,1,200,2|2
260,147,9600,5,2
80,344,10400,1,2
184,232,10700,1,0
296,336,11000,1,0
368,264,11200,2,0,B|304:168|376:56,1,200,2|2
448,136,12800,6,0,B|512:232|440:344,1,200,2|2
451,325,13900,1,0
451,325,14200,1,0
368,272,14400,2,0,B|272:208|168:264,1,200,2|2
80,312,16000,6,0,B|16:352,3,50,0|0|0|0
64,264,16365,2,0,B|-11:266,3,50,0|0|0|0
72,208,16731,2,0,B|5:172,3,50
104,168,17097,2,8,B|64:103,3,50,0|0|0|0
32,112,17463,6,0,B|120:192|224:88,1,200,4|0
256,192,18012,2,0,B|344:112|448:216,1,200
384,344,18560,2,0,B|328:328|315:259,1,100,0|0
384,48,18926,1,6
256,336,19292,1,2
128,48,19658,1,2
256,336,20024,1,2
384,48,20390,6,0,B|480:136|384:224,1,200,4|2
312,160,20939,2,0,B|216:248|312:336,1,200
317,342,21396,1,0
328,352,21487,1,2
424,328,21670,1,0
456,232,21853,2,0,B|464:168|416:120,1,100,4|2
288,64,22219,2,0,B|280:128|328:176,1,100,0|2
288,256,22585,1,0
288,256,22676,1,2
208,192,22859,1,0
208,192,22951,2,0,B|152:224|160:288,1,100,2|2
72,216,23317,6,0,B|128:112|56:24,1,200,4|0
59,28,23865,1,2
232,128,24231,1,2
232,128,24414,2,0,B|176:232|248:320,1,200,0|4
344,344,24963,1,2
352,248,25146,2,0,B|360:192|400:152,1,100,0|2
480,216,25512,2,0,B|472:272|432:312,1,100,2|0
344,344,25878,1,2
248,328,26060,1,2
176,256,26243,6,0,B|96:168|160:48,1,200,4|0
149,70,26792,1,2
336,128,27158,2,0,B|416:216|352:336,1,200,2|2
256,336,27707,5,4
248,320,27798,1,0
240,304,27890,1,0
232,288,27981,1,0
224,272,28073,1,2
232,256,28164,1,0
240,240,28256,1,0
248,224,28347,1,0
256,208,28439,1,0
248,192,28530,1,0
240,176,28621,1,0
232,160,28713,1,0
224,144,28804,1,2
232,128,28896,1,0
240,112,28987,1,0
248,96,29079,1,0
256,80,29170,6,0,B|144:16|72:120,1,200,0|8
79,110,29719,1,0
48,208,29902,2,0,B|160:208,1,100
272,288,30268,2,0,B|160:288,1,100,8|0
336,344,30634,2,0,B|457:299|423:177,1,200,4|8
400,96,31182,1,2
328,160,31365,1,0
256,32,31640,1,2
184,160,31914,1,2
112,96,32097,6,0,B|40:192|112:288,1,200,4|8
328,160,32646,2,0,B|400:256|328:352,1,200,0|0
256,280,33195,2,0,B|184:184|256:88,1,200,8|6
344,48,33743,1,0
440,88,33926,1,2
456,184,34109,1,2
376,248,34292,1,2
376,248,34384,1,0
296,192,34567,1,0
296,192,34658,2,0,B|240:192,3,50,2|0|0|0
216,232,35024,6,0,B|104:240|64:104,1,200,4|8
32,248,35573,2,0,B|72:360,1,100,2|0
328,272,36030,1,2
152,72,36304,1,2
112,248,36487,6,0,B|224:320|288:184,1,200,0|8
384,352,37036,1,2
384,352,37219,1,0
480,96,37493,1,2
216,144,37768,1,2
352,224,37951,6,0,B|432:136|344:24,1,200,4|8
160,160,38682,2,0,B|80:248|168:360,1,200,0|10
256,320,39231,1,0
256,304,39323,1,0
256,288,39414,2,0,B|256:184,1,100,0|0
256,88,39780,1,2
256,88,40146,5,0
256,104,40237,1,0
256,120,40329,1,0
256,136,40420,1,0
256,152,40512,1,0
256,168,40603,1,0
256,184,40695,1,0
256,200,40786,1,0
256,216,40878,6,0,B|376:264|432:152,1,200,4|8
472,248,41426,1,0
408,328,41609,2,0,B|264:328,1,100
192,248,41975,2,0,B|304:248,1,100,8|0
136,344,42341,2,0,B|40:288|72:160,1,200,4|8
96,72,42890,1,2
96,72,43073,1,0
360,32,43347,1,2
264,280,43621,1,2
224,104,43804,6,0,B|352:96|368:240,1,200,4|8
192,344,44353,2,0,B|64:352|48:208,1,200,0|0
64,136,44902,1,8
144,80,45085,1,0
232,128,45268,1,2
232,128,45359,1,0
232,128,45451,1,0
224,224,45634,1,8
224,224,45725,1,0
224,224,45817,1,2
312,272,46000,1,2
312,272,46091,1,0
312,272,46182,1,0
392,216,46365,5,10
368,120,46548,1,8
368,120,46640,1,0
368,120,46731,2,0,B|320:0|160:64,1,200,4|8
203,49,47280,1,2
256,136,47463,1,0
96,352,47737,1,2
24,88,48012,1,2
112,248,48195,2,0,B|232:320|320:200,1,200,4|8
294,230,48743,5,2
256,136,48926,1,0
416,352,49201,1,2
488,88,49475,1,2
400,248,49658,2,0,B|280:320|192:200,1,200,4|8
217,230,50207,1,2
256,136,50390,5,0
152,320,50664,1,2
360,320,50939,1,2
256,232,51121,1,4
256,40,51487,1,2
256,40,51853,5,0
256,56,51945,1,0
256,72,52036,1,0
256,88,52128,1,0
256,104,52219,1,0
256,120,52310,1,0
256,136,52402,1,0
256,152,52493,1,0
256,168,52585,6,0,B|304:240|400:248,1,150,4|0
416,320,53317,2,0,B|304:352,1,100
272,288,53865,1,0
272,288,54048,2,0,B|187:268|112:327,1,150
64,272,54780,2,0,B|96:160,1,100,0|0
176,40,55512,6,0,B|156:124|215:199,1,150
280,200,56243,2,0,B|248:312,1,100,0|0
312,344,56792,1,0
312,344,56975,2,0,B|377:287|373:191,1,150
336,144,57707,2,0,B|232:144,1,100
128,88,58256,5,0
128,88,58347,1,0
128,88,58439,2,0,B|160:200,1,100,4|0
88,296,58804,2,0,B|56:184,1,100,8|0
176,136,59170,2,0,B|208:248,1,100
136,344,59536,2,0,B|104:232,1,100,8|0
224,320,59902,2,0,B|336:368|408:264,1,200,4|8
368,176,60451,5,0
368,176,60542,1,0
368,176,60634,2,0,B|336:80,1,100,0|0
273,191,61000,2,0,B|304:288,1,100,8|0
400,273,61365,1,2
111,110,61731,1,8
400,110,62097,1,2
111,273,62463,1,8
56,192,62646,5,0
56,192,62737,1,0
56,192,62829,1,2
256,192,63103,1,2
456,192,63378,1,2
400,112,63560,1,2
384,296,63926,5,0
384,296,64018,1,0
384,296,64109,1,0
384,296,64201,1,0
384,296,64292,2,0,B|304:368|168:304,1,200,4|8
72,264,64841,1,0
72,264,64932,1,0
72,264,65024,2,0,B|152:192|288:256,1,200,0|8
260,243,65573,1,0
168,328,65756,5,2
224,56,66121,1,2
168,328,66487,1,2
440,264,66853,1,2
352,208,67036,1,2
328,112,67219,6,0,B|208:88|160:224,1,200,4|8
169,201,67768,1,0
40,88,67951,2,0,B|72:304,1,200,0|8
184,328,68500,1,0
184,328,68591,1,0
184,328,68682,1,6
440,224,69048,1,2
184,328,69414,6,0,B|160:208,1,100,2|0
224,104,69780,2,0,B|248:224,1,100,2|2
72,272,70146,2,0,B|8:184|72:64,1,200,4|8
440,112,70878,2,0,B|504:200|440:320,1,200,0|8
449,301,71426,1,0
192,344,71609,6,0,B|112:256|192:152,1,200,6|10
320,40,72341,2,0,B|400:128|320:232,1,200,2|10
192,344,72890,2,0,B|72:344|40:192,1,200,0|0
44,212,73347,1,0
39,197,73439,1,10
48,96,73621,1,0
128,152,73804,5,2
384,152,74170,1,10
304,208,74353,1,0
368,288,74536,1,2
368,288,74719,1,0
368,287,74902,2,0,B|272:343,1,100,10|2
208,272,75268,1,0
192,280,75359,1,0
176,288,75451,1,0
160,296,75542,1,0
144,304,75634,2,0,B|80:336,3,50,10|0|0|0
88,304,76000,6,0,B|32:200|112:104,1,200,4|8
192,160,76548,1,0
192,160,76640,1,0
192,160,76731,2,0,B|296:160,1,100
400,248,77097,5,8
336,320,77280,1,0
336,320,77371,1,0
336,320,77463,2,0,B|232:320,1,100,2|0
136,240,77829,2,0,B|240:240,1,100,2|0
88,336,78195,2,0,B|-8:280|40:120,1,200,2|2
424,48,78926,6,0,B|520:104|472:264,1,200,4|8
408,336,79475,1,0
408,336,79567,1,0
408,336,79658,2,0,B|312:280|360:120,1,200,0|8
256,192,80207,5,0
256,192,80298,1,0
256,192,80390,1,6
112,48,80756,1,2
48,232,81121,1,0
64,240,81213,1,0
80,248,81304,1,0
96,256,81396,1,0
112,264,81487,2,0,B|176:296,3,50,0|0|0|0
144,312,81853,6,0,B|248:368|336:288,1,200,4|8
272,72,82585,2,0,B|168:16|80:96,1,200,0|8
56,184,83134,1,0
120,264,83317,6,0,B|264:264,1,100,6|0
328,168,83682,2,0,B|224:168,1,100,2|0
376,304,84048,2,0,B|472:248|432:112,1,200,2|2
136,80,84597,2,0,B|40:136|80:272,1,200,6|0
75,254,85146,5,2
400,317,85512,1,2
292,4,85878,1,2
76,254,86243,1,0
92,262,86335,1,0
108,270,86426,1,0
124,278,86518,1,0
140,286,86609,1,0
156,294,86701,1,0
172,302,86792,1,0
188,310,86884,1,0
204,318,86975,2,0,B|260:350,8,50,0|0|0|0|0|0|0|0|4
256,192,87798,12,4,89170
88,304,99414,5,4
88,304,100146,1,0
200,328,100420,1,0
288,256,100695,1,0
312,184,100878,2,0,B|304:88|208:48,1,150,0|2
160,48,101609,5,0
64,104,101884,1,0
56,216,102158,1,0
104,272,102341,2,0,B|248:304,1,100,4|0
408,320,102890,2,0,B|264:352,1,100,0|0
256,288,103439,2,0,B|192:200|264:88,1,200,0|0
400,40,104536,1,2
464,176,104902,5,0
400,216,105085,1,0
328,200,105268,2,0,B|240:184|232:48,1,150,4|0
168,120,105999,1,0
64,88,106274,1,2
72,200,106548,1,2
184,288,106731,6,0,B|272:272|280:136,1,150,4|2
344,216,107463,1,0
456,192,107737,1,2
440,304,108012,1,2
256,344,108195,5,4
256,344,108560,1,2
200,208,108926,1,0
304,160,109201,1,2
256,56,109475,1,2
256,56,109658,5,0
256,72,109749,1,0
256,88,109841,1,0
256,104,109932,1,0
256,120,110024,1,0
256,136,110115,1,0
256,152,110207,1,0
256,168,110298,1,0
256,184,110390,1,0
256,200,110481,1,0
256,216,110573,1,0
256,232,110664,1,0
256,248,110756,1,0
256,264,110847,1,0
256,280,110939,1,0
256,296,111030,1,0
256,312,111121,6,0,B|312:344|392:288,1,100,4|0
440,216,111487,2,0,B|384:184|304:240,1,100,8|0
472,304,111853,1,0
400,104,112128,1,0
256,256,112402,1,0
328,320,112585,2,0,B|368:272|328:208,1,100,4|0
200,88,112951,2,0,B|160:136|200:200,1,100,8|0
256,256,113317,5,0
40,304,113591,1,0
112,104,113865,1,0
120,200,114048,2,0,B|112:336|264:352,1,200,4|8
392,184,114597,2,0,B|400:48|248:32,1,200,0|0
285,38,115146,1,8
208,112,115329,1,0
264,200,115512,5,2
264,200,115603,1,0
264,200,115695,1,0
216,288,115878,1,8
216,288,116060,1,2
120,296,116243,1,0
120,296,116335,1,0
120,296,116426,1,2
56,216,116609,1,10
104,128,116792,1,2
104,128,116884,1,0
104,128,116975,2,0,B|192:48|296:112,1,200,0|8
320,240,117524,6,0,B|264:240|232:192,1,100,2|0
376,40,117981,1,2
432,240,118256,1,2
360,312,118439,2,0,B|256:352|168:248,1,200,4|8
180,261,118987,1,2
277,195,119170,1,0
136,40,119445,1,2
80,240,119719,1,2
128,328,119902,6,0,B|240:384|320:288,1,200,4|8
310,299,120451,1,2
310,299,120634,1,0
192,208,120908,1,2
304,112,121182,1,2
256,24,121365,1,4
256,24,121731,1,2
256,184,122097,5,0
256,200,122189,1,0
256,216,122280,1,0
256,232,122371,1,0
256,248,122463,1,0
256,264,122554,1,0
256,280,122646,1,0
256,296,122737,1,0
256,312,122829,6,0,B|336:336|400:280,1,150
440,144,123560,2,0,B|376:152|344:216,1,100
357,193,124109,1,0
280,256,124292,2,0,B|234:186|149:187,1,150,0|0
32,256,125024,2,0,B|48:320|123:333,1,100
96,326,125573,1,0
184,272,125756,6,0,B|240:208|192:88,1,150
304,136,126487,2,0,B|280:80|312:16,1,100
392,216,127219,2,0,B|416:272|384:336,1,100
248,352,127768,1,0
160,232,127951,2,0,B|136:176|168:112,1,100
208,48,128499,5,0
208,48,128591,1,0
208,48,128682,2,0,B|312:48,1,100
392,128,129048,2,0,B|280:128,1,100,8|0
392,48,129414,1,0
496,216,129689,1,0
304,256,129963,1,0
304,128,130146,2,0,B|200:128,1,100
120,208,130512,2,0,B|232:208,1,100,8|0
120,128,130878,1,0
16,296,131152,1,0
200,360,131426,1,0
256,240,131609,5,2
256,240,131975,1,8
256,80,132341,1,2
256,80,132707,1,8
408,120,132890,1,0
408,120,132981,1,0
408,120,133073,1,2
424,312,133347,1,2
232,360,133621,1,2
120,288,133804,1,2
328,272,134170,5,0
312,272,134262,1,0
296,272,134353,1,0
280,272,134445,1,0
264,272,134536,2,0,B|168:200|232:80,1,200,4|8
304,160,135085,1,0
304,160,135176,1,0
304,160,135268,2,0,B|400:232|336:352,1,200,0|8
248,360,135817,1,0
168,304,135999,6,0,B|128:208,1,100,2|0
16,128,136365,2,0,B|56:224,1,100,10|0
216,216,136731,2,0,B|312:144|248:24,1,200,2|10
176,144,137280,1,2
352,192,137463,6,0,B|256:264|320:384,1,200,4|8
216,336,138012,1,0
408,296,138195,2,0,B|504:224|440:104,1,200,0|8
376,48,138743,5,0
376,48,138835,1,0
376,48,138926,1,2
71,160,139292,1,10
320,367,139658,1,2
400,304,139841,1,0
328,232,140024,1,10
392,152,140207,5,2
392,152,140298,1,0
392,152,140390,2,0,B|448:176|448:248,1,100,4|0
328,232,140756,2,0,B|272:208|272:136,1,100,8|0
256,56,141121,1,0
176,336,141487,1,8
112,256,141670,1,0
128,160,141853,6,0,B|168:128|232:144,1,100,2|0
222,141,142219,1,10
448,312,142585,2,0,B|336:376|256:264,1,200,2|10
368,40,143134,6,0,B|416:136|352:240,1,200,6|0
352,248,143591,1,0
344,264,143682,1,10
256,312,143865,1,0
184,232,144048,2,0,B|128:144,1,100,2|0
96,256,144414,2,0,B|152:344,1,100,10|0
256,312,144780,5,2
296,208,144963,1,0
256,104,145146,1,10
256,104,145329,1,2
256,104,145512,5,0
256,120,145603,1,0
256,136,145695,1,0
256,152,145786,1,0
256,168,145878,1,10
256,184,145969,1,0
256,200,146060,1,0
256,216,146152,1,0
256,232,146243,6,0,B|192:336|64:272,1,200,0|8
112,184,146792,1,0
112,184,146975,2,0,B|176:80|72:0,1,200,0|8
32,96,147524,5,0
32,96,147615,1,0
32,96,147707,1,2
256,312,148073,1,10
480,96,148439,1,2
256,312,148804,1,10
184,240,148987,5,2
184,240,149079,1,0
184,240,149170,2,0,B|208:128,1,100,4|0
336,64,149536,2,0,B|312:176,1,100,8|0
312,176,149810,1,0
312,192,149902,2,0,B|344:240|400:216,1,100
296,112,150268,2,0,B|264:64|208:88,1,100,8|0
203,101,150542,1,0
198,115,150634,6,0,B|134:315,1,200,2|10
320,264,151365,1,2
350,168,151548,1,0
355,154,151640,1,0
360,139,151731,1,10
365,125,151823,1,0
370,110,151914,1,0
375,96,152006,1,0
380,82,152097,6,0,B|472:160|408:296,1,200,4|8
328,232,152646,1,0
240,280,152829,2,0,B|148:202|212:66,1,200,0|8
56,128,153378,5,0
56,128,153560,2,0,B|104:344,1,200,2|10
184,224,154292,2,0,B|136:8,1,200,2|10
32,200,154841,2,0,B|32:320|144:360,1,200,6|0
304,264,155390,2,0,B|192:264,1,100,10|2
368,352,155756,1,2
472,184,156121,1,8
328,48,156487,5,0
312,56,156579,1,0
296,64,156670,1,0
280,72,156762,1,0
264,80,156853,1,0
248,88,156945,1,0
232,96,157036,1,0
216,104,157128,1,0
200,112,157219,2,0,B|144:144,8,50,0|0|0|0|0|0|0|0|4
256,192,158042,12,4,159414
256,336,168195,5,0
256,320,168286,1,0
256,304,168378,1,0
256,288,168469,1,0
256,272,168560,1,0
256,256,168652,1,0
256,240,168743,1,0
256,224,168835,1,0
256,208,168926,1,0
256,192,169018,1,0
256,176,169109,1,0
256,160,169201,1,0
256,144,169292,1,0
256,128,169384,1,0
256,112,169475,1,0
256,96,169567,1,0
256,80,169658,6,0,B|376:16|448:160,2,200,4|8|0
368,248,170756,1,8
280,296,170939,1,0
200,232,171121,2,0,B|80:296|8:152,2,200,0|8|0
400,120,172219,6,0,B|424:64,2,50,8|0|0
312,80,172585,1,4
112,232,172951,2,0,B|88:176,2,50,8|0|0
200,192,173317,1,0
256,272,173499,5,0
256,272,173682,2,0,B|256:344,2,50,8|0|0
312,192,174048,1,4
400,240,174231,2,0,B|448:272,2,50,0|0|8
392,136,174597,2,0,B|440:96,2,50,0|0|0
312,192,174963,1,0
240,120,175146,1,8
176,200,175329,1,0
80,168,175512,1,4
80,168,175878,6,0,B|48:216|88:288,1,100,8|0
128,344,176243,1,0
256,192,176609,2,0,B|288:144|248:72,1,100,8|0
208,16,176975,1,4
432,168,177341,6,0,B|464:216|424:288,1,100,8|0
384,344,177707,1,0
296,304,177890,2,0,B|264:256|304:184,1,100,0|8
216,80,178256,2,0,B|248:128|208:200,1,100,0|4
40,160,178804,6,0,B|8:208|48:280,1,100,8|0
72,352,179170,1,0
472,160,179536,2,0,B|504:208|464:280,1,100,8|0
440,352,179902,1,4
360,296,180085,1,0
224,160,180451,1,0
144,216,180634,2,0,B|115:168|147:120,2,100,0|0|8
64,272,181182,5,0
64,272,181274,1,0
64,272,181365,2,0,B|128:368,1,100,4|0
144,216,181731,2,0,B|80:120,1,100,8|0
304,88,182280,1,0
400,96,182463,1,8
456,176,182646,1,0
448,272,182829,2,0,B|384:368,1,100,4|0
368,216,183195,2,0,B|432:120,1,100,8|0
256,320,183743,5,0
256,320,184109,1,0
192,248,184292,2,0,B|168:200|192:144,1,100,4|0
320,64,184658,2,0,B|344:112|320:168,1,100,8|0
192,88,185024,2,0,B|168:136|192:192,1,100
320,272,185390,2,0,B|344:224|320:168,1,100,8|0
256,88,185756,5,0
256,104,185847,1,0
256,120,185939,1,0
256,136,186030,1,0
256,152,186121,1,0
256,168,186213,1,0
256,184,186304,1,0
256,200,186396,1,0
256,216,186487,1,0
256,232,186579,1,0
256,248,186670,1,0
256,264,186762,1,0
256,280,186853,1,0
256,296,186945,1,0
256,312,187036,1,0
256,328,187128,1,0
256,344,187219,6,0,B|104:360,1,150,4|0
128,280,187951,2,0,B|24:208|104:88,1,200,0|4
93,105,189048,1,0
93,105,189414,1,2
256,256,190146,6,0,B|408:272,1,150,0|0
384,192,190878,2,0,B|464:152|416:48,1,150
422,64,191518,1,0
422,64,191609,1,4
422,64,191975,1,0
422,64,192341,1,2
256,152,193073,6,0,B|104:168,1,150,4|0
64,104,193804,2,0,B|-24:184|48:296,1,200,0|4
128,328,194902,1,0
224,296,195268,1,2
256,200,195634,5,0
256,200,195817,2,0,B|272:112|368:80,1,150,4|0
440,112,196731,1,0
480,208,197097,1,0
416,288,197463,1,2
256,272,198195,5,0
256,256,198286,1,0
256,240,198378,1,0
256,224,198469,1,0
256,208,198560,1,0
256,192,198652,1,0
256,176,198743,1,0
256,160,198835,1,0
256,144,198926,6,0,B|272:24|424:32,1,200,4|8
448,200,199475,1,0
416,296,199658,2,0,B|336:376|200:320,1,200,0|8
120,232,200207,1,0
144,80,200390,6,0,B|184:184,1,100,2|0
112,304,200756,2,0,B|72:200,1,100,10|0
40,120,201121,1,2
304,336,201487,5,10
344,216,201670,1,2
392,96,201853,2,0,B|488:160|432:296,1,200,4|8
304,336,202402,1,0
184,296,202585,2,0,B|88:232|144:96,1,200,0|8
256,72,203134,5,0
256,72,203225,1,0
256,72,203317,2,0,B|224:176,1,100,2|0
88,240,203682,2,0,B|120:136,1,100,10|0
272,256,204048,2,0,B|240:360,1,100,2|0
112,344,204414,5,8
104,328,204506,1,0
96,312,204597,1,0
88,296,204689,1,0
80,280,204780,2,0,B|24:176|96:80,1,200,4|8
260,195,205329,1,0
260,195,205420,1,0
260,195,205512,2,0,B|259:263|204:293,1,100
192,152,205878,2,0,B|192:83|247:53,1,100,8|0
328,72,206243,5,2
88,320,206609,1,10
456,240,206975,2,0,B|384:336|264:280,1,200,6|10
88,88,207524,2,0,B|56:200|128:288,1,200,6|0
129,289,207981,1,0
137,301,208073,1,8
232,312,208256,1,0
304,248,208439,2,0,B|336:200|304:136,1,100,2|0
208,48,208804,2,0,B|176:96|208:160,1,100,8|0
256,224,209170,6,0,B|256:120,1,100,6|0
256,24,209536,1,10
208,120,209719,2,0,B|176:168|208:232,1,100,2|0
304,320,210085,2,0,B|336:272|304:208,1,100,0|10
311,224,210451,1,2
408,256,210634,6,0,B|360:160|416:56,1,200,4|8
472,144,211182,1,0
472,144,211274,1,0
472,144,211365,2,0,B|368:184,1,100
232,152,211731,2,0,B|336:112,1,100,8|0
339,111,212006,1,0
353,108,212097,6,0,B|385:156|361:236,1,100,2|0
304,320,212463,2,0,B|272:272|296:192,1,100,10|0
216,72,212829,2,0,B|248:120|224:200,1,100,2|0
167,284,213195,2,0,B|135:236|159:156,1,100,10|0
56,72,213560,6,0,B|4:168|52:264,1,200,4|8
176,224,214109,1,0
176,224,214201,1,0
176,224,214292,2,0,B|227:127|179:31,1,200,0|8
112,144,214841,5,0
112,144,214932,1,0
112,144,215024,2,0,B|144:256,1,100,2|0
264,280,215390,2,0,B|232:168,1,100,10|0
272,88,215756,1,2
368,120,215939,5,0
376,136,216030,1,0
384,152,216121,1,8
392,168,216213,1,0
400,184,216304,1,0
408,200,216396,1,0
416,216,216487,2,0,B|400:352|264:328,1,200,4|8
152,272,217036,1,0
152,272,217128,1,0
152,272,217219,2,0,B|168:136|304:160,1,200,0|8
240,272,217768,1,0
56,224,217951,6,0,B|24:176|48:112,1,100,2|0
152,40,218317,2,0,B|184:88|160:152,1,100,10|0
192,336,218682,2,0,B|168:216|272:160,1,200,2|10
472,200,219231,2,0,B|496:320|392:376,1,200,6|2
208,256,219780,2,0,B|312:256,1,100
111,371,220146,2,0,B|16:320|40:200,1,200,2|10
136,80,220695,1,0
272,64,220878,5,0
288,80,220969,1,0
296,96,221060,1,0
296,112,221152,1,0
296,128,221243,1,0
288,144,221335,1,0
280,160,221426,1,0
264,176,221518,1,0
248,192,221609,1,0
240,208,221700,1,0
232,224,221791,1,0
232,240,221883,1,0
232,256,221974,1,0
240,272,222066,1,0
248,288,222157,1,0
264,304,222249,1,0
280,320,222341,1,4
256,192,222432,12,4,225268
