osu file format v11

[General]
AudioFilename: SINCLIENT_OP.mp3
AudioLeadIn: 0
PreviewTime: 82464
Countdown: 0
SampleSet: Soft
StackLeniency: 0.7
Mode: 0
LetterboxInBreaks: 1

[Editor]
DistanceSpacing: 0.6
BeatDivisor: 4
GridSize: 4

[Metadata]
Title:Kakusei -Fractional Vision-
TitleUnicode:Kakusei -Fractional Vision-
Artist:Tatsh feat. Ayane
ArtistUnicode:Tatsh feat. Ayane
Creator:Takos
Version:Insane
Source:SINCLIENT
Tags:BOOST5 boostfive FLAT visual novel Opening Melophobia wring
BeatmapID:169090
BeatmapSetID:55805

[Difficulty]
HPDrainRate:7
CircleSize:4
OverallDifficulty:8
ApproachRate:9
SliderMultiplier:1.8
SliderTickRate:1

[Events]
//Background and Video events
Video,0,"SINCLIENT_OP.avi"
0,0,"SINCLIENT_OP.jpg"
//Break Periods
//Storyboard Layer 0 (Background)
//Storyboard Layer 1 (Fail)
//Storyboard Layer 2 (Pass)
//Storyboard Layer 3 (Foreground)
//Storyboard Sound Samples
//Background Colour Transformations
3,100,0,0,0

[TimingPoints]
6244,623.700623700624,4,2,1,35,1,0
11389,-100,4,2,1,5,0,0
11701,-100,4,2,1,35,0,0
18873,-100,4,2,1,5,0,0
19185,-100,4,2,1,35,0,0
21056,-100,4,2,1,15,0,0
23707,-100,4,2,1,25,0,0
24331,-100,4,2,1,35,0,0
24955,-100,4,2,1,45,0,0
25266,-100,4,2,1,55,0,0
25578,-100,4,2,1,65,0,0
25890,-100,4,2,1,70,0,0
26202,-100,4,2,1,5,0,0
26669,329.67032967033,4,1,1,60,1,0
26833,-100,4,2,1,80,0,0
28729,-100,4,1,1,60,0,0
29388,-100,4,2,1,80,0,0
31037,-100,4,1,1,60,0,0
32026,-100,4,2,1,80,0,0
34004,-100,4,1,1,60,0,0
34663,-100,4,2,1,80,0,0
35652,-100,4,1,1,60,0,0
37177,-100,4,1,1,60,0,0
49745,329.67032967033,4,2,1,60,1,0
54442,-100,4,1,1,60,0,0
54978,-100,4,2,1,60,0,0
58975,-100,4,1,1,60,0,0
60253,-100,4,2,1,60,0,0
60335,-100,4,1,1,60,0,0
60706,-100,4,2,1,60,0,0
60871,-100,4,1,1,60,0,0
61530,-100,4,1,1,65,0,0
72080,-100,4,1,1,55,0,0
77437,-100,4,1,1,60,0,0
82052,-100,4,1,1,5,0,0
82547,-100,4,1,1,70,0,1
124662,-200,4,1,1,70,0,1
124745,-200,4,1,1,70,0,0
124992,-200,4,2,1,5,0,0
125157,-200,4,1,1,70,0,0
125321,-200,4,2,1,5,0,0
125486,-200,4,1,1,70,0,0
125651,-200,4,2,1,5,0,0
125898,-100,4,2,1,20,0,0
126063,-100,4,1,1,70,0,0
127217,-100,4,1,1,70,0,0
130102,-100,4,1,1,45,0,0
133481,-100,4,2,1,40,0,0
134140,-100,4,2,1,35,0,0
134799,-100,4,2,1,30,0,0
135459,-100,4,2,1,25,0,0
136118,-100,4,2,1,20,0,0
136777,-100,4,2,1,15,0,0
137437,-100,4,2,1,10,0,0
138096,-100,4,2,1,5,0,0

[Colours]
Combo1 : 180,104,255
Combo2 : 255,255,91
Combo3 : 255,51,51
Combo4 : 255,255,215

[HitObjects]
454,67,6244,2,0,B|483:152|483:152|498:197|478:246,1,180,2|2,0:0|0:0,0:0:0
320,323,7491,2,0,B|273:336|231:326,2,90,2|0|0,0:0|0:0|0:0,0:0:0
369,247,8426,2,0,B|386:192|376:158|376:158|344:67,1,180,2|0,0:0|0:0,0:0:0
256,71,9362,2,0,B|176:124,1,90,2|0,0:0|0:0,0:0:0
102,76,9986,2,0,B|84:120|101:168,1,90,2|0,0:0|0:0,0:0:0
177,210,10609,1,0,0:0:0
100,257,10921,2,0,B|162:335|255:338|255:338|295:323|329:287,1,270,2|0,0:0|0:0,0:0:0
360,204,12169,5,2,0:0:0
350,114,12481,2,0,B|336:69|356:25,2,90,2|0|0,0:0|0:0|0:0,0:0:0
434,145,13416,1,2,0:0:0
449,233,13728,2,0,B|364:265|271:260,1,180,2|0,0:0|0:0,0:0:0
63,151,14975,2,0,B|148:119|241:124,1,180,2|0,0:0|0:0,0:0:0
152,274,16223,6,0,B|222:329|222:329|311:316,1,180,2|0,0:0|0:0,0:0:0
374,250,17158,1,0,0:0:0
374,159,17470,2,0,B|340:123|292:128,1,90,2|0,0:0|0:0,0:0:0
231,193,18094,1,0,0:0:0
204,278,18406,2,0,B|170:321|124:324|124:324|26:287|55:182,1,270,2|0,0:0|0:0,0:0:0
135,148,19653,5,0,0:0:0
208,95,19965,2,0,B|220:47|183:7,1,90,2|0,0:0|0:0,0:0:0
96,10,20589,1,2,0:0:0
63,95,20900,1,0,0:0:0
256,192,21056,12,0,26202,0:0:0
256,192,26669,5,4,0:0:0
439,122,26998,2,0,B|464:80|450:34,2,90,0|0|0,0:0|0:0|0:0,0:0:0
392,199,27493,1,0,0:0:0
305,224,27658,2,0,B|217:220,1,90,0|0,0:0|0:0,0:0:0
188,305,27987,2,0,B|141:287|132:240,1,90
158,153,28317,1,0,0:0:0
212,81,28482,2,0,B|259:99|268:146,1,90
95,80,28811,5,2,0:0:0
51,207,28976,1,2,0:0:0
136,311,29141,1,2,0:0:0
269,287,29306,1,6,0:0:0
310,158,29471,6,0,B|394:188,2,90
225,126,29965,1,0,0:0:0
295,70,30130,1,0,0:0:0
326,246,30295,1,0,0:0:0
466,133,30460,1,0,0:0:0
295,70,30625,1,0,0:0:0
163,191,30789,2,0,B|91:246,1,90
53,327,31119,5,2,0:0:0
181,285,31284,1,0,0:0:0
53,327,31449,1,2,0:0:0
181,285,31614,1,0,0:0:0
271,186,31778,1,2,0:0:0
139,156,31943,6,0,B|104:122|55:130,2,90,6|0|0,0:0|0:0|0:0,0:0:0
203,220,32438,1,0,0:0:0
236,303,32603,2,0,B|271:337|320:329,1,90
406,350,32932,2,0,B|439:317|434:266,1,90
502,207,33262,2,0,B|469:174|418:179,1,90
361,109,33592,2,0,B|328:142|333:193,2,90
475,31,34086,5,2,0:0:0
449,163,34251,1,2,0:0:0
361,59,34416,1,2,0:0:0
333,191,34581,1,6,0:0:0
247,87,34745,6,0,B|212:53|165:59,2,90
290,166,35240,1,0,0:0:0
277,255,35405,1,0,0:0:0
216,321,35570,1,0,0:0:0
128,302,35734,5,0,0:0:0
109,289,35817,1,0,0:0:0
101,267,35899,1,0,0:0:0
79,179,36064,1,0,0:0:0
101,91,36229,1,8,0:0:0
114,73,36311,1,0,0:0:0
133,62,36394,1,0,0:0:0
220,58,36559,5,0,0:0:0
238,71,36641,1,0,0:0:0
259,78,36723,1,0,0:0:0
281,78,36806,1,0,0:0:0
302,70,36888,1,8,0:0:0
322,59,36971,1,0,0:0:0
343,51,37053,1,0,0:0:0
364,56,37136,1,0,0:0:0
380,66,37218,6,0,B|452:131|414:234,1,180,4|8,0:0|0:0,0:0:0
332,337,37712,2,0,B|260:272|298:169,1,180
319,84,38207,1,8,0:0:0
319,84,38289,1,0,0:0:0
319,84,38372,1,0,0:0:0
232,107,38537,6,0,B|132:70|67:142,1,180,0|8,0:0|0:0,0:0:0
172,225,39031,2,0,B|271:261|336:189,1,180
389,116,39526,5,8,0:0:0
389,116,39608,1,0,0:0:0
389,116,39690,1,0,0:0:0
389,116,39773,1,0,0:0:0
389,116,39855,2,0,B|435:139|437:187,1,90,4|0,0:0|0:0,0:0:0
414,274,40185,1,8,0:0:0
331,309,40350,2,0,B|233:291|205:194,1,180
214,27,40844,2,0,B|249:60|237:110,1,90,8|0,0:0|0:0,0:0:0
205,194,41174,6,0,B|176:285,1,90,4|0,0:0|0:0,0:0:0
306,189,41504,2,0,B|336:99,1,90,8|0,0:0|0:0,0:0:0
382,254,41833,2,0,B|352:344,1,90
483,248,42163,2,0,B|512:157,1,90,8|0,0:0|0:0,0:0:0
468,81,42493,6,0,B|397:14|301:40,1,180,0|8,0:0|0:0,0:0:0
239,104,42987,1,0,0:0:0
219,115,43070,1,0,0:0:0
196,118,43152,1,0,0:0:0
109,92,43317,1,0,0:0:0
18,88,43482,1,8,0:0:0
10,109,43564,1,0,0:0:0
10,131,43647,1,0,0:0:0
13,153,43729,1,0,0:0:0
27,169,43811,6,0,B|109:201,1,90,4|0,0:0|0:0,0:0:0
112,292,44141,2,0,B|162:293|187:251,1,90,8|0,0:0|0:0,0:0:0
186,251,44388,1,0,0:0:0
186,251,44471,1,0,0:0:0
214,165,44636,1,0,0:0:0
278,102,44800,1,8,0:0:0
368,104,44965,1,0,0:0:0
444,151,45130,5,0,0:0:0
457,168,45212,1,0,0:0:0
460,190,45295,1,0,0:0:0
437,277,45460,1,8,0:0:0
351,305,45625,1,0,0:0:0
329,299,45707,1,0,0:0:0
312,283,45789,1,0,0:0:0
297,194,45954,5,0,0:0:0
303,172,46037,1,0,0:0:0
299,149,46119,1,8,0:0:0
289,128,46201,1,0,0:0:0
273,111,46284,1,0,0:0:0
252,103,46366,1,0,0:0:0
229,102,46449,2,0,B|182:117,8,45,0|0|0|0|0|0|0|0|4,0:0|0:0|0:0|0:0|0:0|0:0|0:0|0:0|0:0,0:0:0
221,301,48262,5,2,0:0:0
401,318,48592,1,2,0:0:0
325,155,48921,1,2,0:0:0
315,256,49251,5,0,0:0:0
337,258,49333,1,0,0:0:0
359,253,49416,1,8,0:0:0
378,242,49498,1,0,0:0:0
394,226,49581,1,0,0:0:0
402,205,49663,1,0,0:0:0
400,182,49745,6,0,B|386:92,1,90,4|0,0:0|0:0,0:0:0
305,51,50074,1,8,0:0:0
219,80,50239,1,0,0:0:0
133,53,50404,2,0,B|97:83|88:129,1,90
91,219,50734,1,8,0:0:0
82,308,50898,2,0,B|59:353|12:360,2,90,0|0|0,0:0|0:0|0:0,0:0:0
138,237,51393,1,8,0:0:0
210,183,51558,2,0,B|249:156|303:169,1,90
385,189,51887,1,0,0:0:0
462,235,52052,1,8,0:0:0
459,144,52217,5,0,0:0:0
451,122,52299,1,0,0:0:0
432,108,52382,1,0,0:0:0
348,75,52547,1,0,0:0:0
327,162,52712,1,8,0:0:0
370,228,52876,1,0,0:0:0
319,291,53041,1,0,0:0:0
245,263,53206,1,0,0:0:0
250,182,53371,1,8,0:0:0
225,95,53536,5,0,0:0:0
211,77,53618,1,0,0:0:0
190,67,53701,1,0,0:0:0
150,147,53865,1,0,0:0:0
150,147,54030,1,8,0:0:0
76,198,54195,1,0,0:0:0
90,216,54278,1,0,0:0:0
111,226,54360,1,0,0:0:0
190,67,54525,1,0,0:0:0
211,77,54607,1,0,0:0:0
225,95,54690,1,8,0:0:0
232,115,54772,1,0,0:0:0
233,137,54854,1,0,0:0:0
227,159,54937,1,0,0:0:0
218,179,55019,6,0,B|183:260,1,90,4|0,0:0|0:0,0:0:0
106,310,55349,1,8,0:0:0
106,219,55514,1,0,0:0:0
241,329,55679,2,0,B|276:248,1,90
255,140,56008,1,8,0:0:0
179,63,56173,6,0,B|137:40|91:55,1,90
164,169,56503,2,0,B|206:192|252:177,1,90,0|8,0:0|0:0,0:0:0
347,82,56832,2,0,B|305:59|259:74,1,90
332,188,57162,2,0,B|374:211|420:196,1,90,0|8,0:0|0:0,0:0:0
481,75,57492,1,0,0:0:0
481,75,57657,6,0,B|505:197|494:253|494:254,1,180,4|8,0:0|0:0,0:0:0
327,323,58151,2,0,B|303:201|314:145|314:144,1,180,4|0,0:0|0:0,0:0:0
481,75,58646,1,8,0:0:0
317,36,58810,2,0,B|228:62|201:162,1,180,4|0,0:0|0:0,0:0:0
198,184,59223,1,0,0:0:0
202,205,59305,1,8,0:0:0
189,294,59470,1,0,0:0:0
175,312,59552,1,0,0:0:0
153,320,59635,1,0,0:0:0
71,282,59799,5,0,0:0:0
62,260,59882,1,0,0:0:0
62,237,59964,1,8,0:0:0
68,215,60047,1,0,0:0:0
82,197,60129,1,0,0:0:0
102,186,60212,1,0,0:0:0
122,176,60294,2,0,B|163:189,4,45,4|0|0|0|8,0:0|0:0|0:0|0:0|0:0,0:0:0
239,242,60788,2,0,B|317:302|408:276,1,180,4|0,0:0|0:0,0:0:0
502,177,61283,1,8,0:0:0
443,55,61448,1,0,0:0:0
316,101,61613,6,0,B|227:82|137:95,1,180,4|8,0:0|0:0,0:0:0
182,252,62107,2,0,B|228:243|271:251,1,90
342,194,62437,1,0,0:0:0
361,282,62602,1,8,0:0:0
450,278,62766,1,0,0:0:0
458,188,62931,6,0,B|465:139|438:104,1,90,4|0,0:0|0:0,0:0:0
344,103,63261,1,8,0:0:0
492,37,63426,2,0,B|403:4|316:30,1,180
237,76,63920,1,8,0:0:0
151,47,64085,6,0,P|63:75,1,90,4|0,0:0|0:0,0:0:0
55,164,64415,1,0,0:0:0
80,297,64580,1,8,0:0:0
133,172,64745,1,0,0:0:0
17,240,64909,1,0,0:0:0
150,258,65074,1,0,0:0:0
55,164,65239,1,8,0:0:0
85,229,65404,6,0,B|176:267|255:207,1,180,4|0,0:0|0:0,0:0:0
300,80,65898,1,8,0:0:0
341,208,66063,1,0,0:0:0
396,77,66228,1,4,0:0:0
408,95,66310,1,0,0:0:0
420,114,66393,1,0,0:0:0
417,136,66475,1,0,0:0:0
411,157,66558,1,8,0:0:0
346,286,66723,1,0,0:0:0
275,161,66887,6,0,B|227:153|187:175,1,90,4|0,0:0|0:0,0:0:0
160,261,67217,1,8,0:0:0
248,245,67382,1,0,0:0:0
275,161,67547,1,0,0:0:0
270,71,67712,1,0,0:0:0
357,52,67876,1,8,0:0:0
379,55,67959,1,0,0:0:0
394,71,68041,1,0,0:0:0
437,150,68206,6,0,B|420:196|373:207,1,90,4|0,0:0|0:0,0:0:0
288,174,68536,1,8,0:0:0
203,204,68701,1,0,0:0:0
144,135,68865,1,0,0:0:0
76,213,69030,1,0,0:0:0
39,112,69195,1,8,0:0:0
95,19,69360,1,0,0:0:0
202,27,69525,5,2,0:0:0
224,30,69607,1,0,0:0:0
246,33,69690,1,0,0:0:0
268,36,69772,1,0,0:0:0
290,39,69854,1,8,0:0:0
421,138,70019,1,2,0:0:0
418,160,70102,1,0,0:0:0
415,182,70184,1,0,0:0:0
412,204,70266,1,0,0:0:0
409,227,70349,1,0,0:0:0
310,357,70514,1,10,0:0:0
288,354,70596,1,0,0:0:0
266,351,70679,1,0,0:0:0
244,348,70761,1,0,0:0:0
221,345,70843,6,0,B|177:334|177:334|161:293,1,90,2|0,0:0|0:0,0:0:0
138,204,71173,1,8,0:0:0
54,64,71338,2,0,B|98:75|98:75|114:116,1,90,2|0,0:0|0:0,0:0:0
138,204,71668,1,0,0:0:0
160,292,71832,1,0,0:0:0
182,297,71915,1,0,0:0:0
203,302,71997,1,0,0:0:0
225,306,72080,1,0,0:0:0
246,311,72162,6,0,B|340:279|348:175,1,180,4|8,0:0|0:0,0:0:0
295,104,72657,1,0,0:0:0
332,25,72821,2,0,B|375:48|386:93,1,90
263,187,73151,2,0,B|219:163|208:118,1,90,8|0,0:0|0:0,0:0:0
162,40,73481,6,0,B|104:111|84:202,1,180,0|8,0:0|0:0,0:0:0
77,290,73975,1,0,0:0:0
155,246,74140,2,0,B|163:197|180:160,1,90
24,139,74470,2,0,B|7:176|-1:225,1,90,8|0,0:0|0:0,0:0:0
74,337,74799,6,0,B|160:367|251:358,1,180,4|8,0:0|0:0,0:0:0
331,316,75294,1,0,0:0:0
331,316,75376,1,0,0:0:0
331,316,75459,2,0,B|349:273|346:229,1,90
331,139,75788,1,8,0:0:0
261,81,75953,1,0,0:0:0
344,46,76118,6,0,B|250:67|198:147,1,180,0|8,0:0|0:0,0:0:0
160,226,76613,1,0,0:0:0
160,226,76695,1,0,0:0:0
160,226,76777,2,0,B|122:252|76:252,1,90
4,161,77107,1,8,0:0:0
11,44,77272,1,0,0:0:0
214,58,77602,5,0,0:0:0
218,79,77684,1,0,0:0:0
222,100,77766,1,8,0:0:0
310,82,77931,1,0,0:0:0
314,103,78014,1,0,0:0:0
318,124,78096,1,8,0:0:0
405,99,78261,1,0,0:0:0
409,120,78343,1,0,0:0:0
413,141,78426,1,8,0:0:0
502,124,78591,1,0,0:0:0
503,214,78755,5,2,0:0:0
418,352,78920,1,0,0:0:0
331,214,79085,1,2,0:0:0
247,352,79250,1,2,0:0:0
247,352,79580,5,2,0:0:0
67,79,79909,1,2,0:0:0
256,192,79992,12,0,82052,0:0:0
396,89,82547,6,0,B|450:169|430:260,1,180,4|0,0:0|0:0,0:0:0
358,341,83041,1,8,0:0:0
251,353,83206,1,0,0:0:0
161,293,83371,2,0,B|141:247|159:205,1,90
218,114,83701,1,8,0:0:0
262,211,83865,6,0,B|340:251|441:229,1,180
469,47,84360,2,0,B|496:84|490:133,1,90,8|0,0:0|0:0,0:0:0
472,240,84690,1,0,0:0:0
394,314,84854,1,0,0:0:0
301,257,85019,1,8,0:0:0
472,240,85184,6,0,B|403:167|310:178,1,180
205,204,85679,1,8,0:0:0
146,294,85843,1,0,0:0:0
43,269,86008,1,0,0:0:0
36,165,86173,1,0,0:0:0
134,117,86338,1,8,0:0:0
226,50,86503,6,0,B|320:40|398:90,1,180,4|0,0:0|0:0,0:0:0
424,194,86997,2,0,B|379:203|339:176,1,90,8|0,0:0|0:0,0:0:0
409,25,87327,5,2,0:0:0
467,176,87492,1,0,0:0:0
307,148,87657,1,10,0:0:0
395,116,87821,6,0,B|362:201|376:293,1,180,4|0,0:0|0:0,0:0:0
455,366,88316,2,0,B|466:319|452:278,1,90,8|0,0:0|0:0,0:0:0
297,221,88646,2,0,B|286:268|301:310,1,90
391,169,88975,1,8,0:0:0
416,64,89140,6,0,B|327:33|238:47,1,180
138,88,89635,2,0,B|117:130|113:174,1,90,8|0,0:0|0:0,0:0:0
118,281,89964,1,0,0:0:0
182,162,90129,1,0,0:0:0
46,167,90294,1,8,0:0:0
118,281,90459,1,0,0:0:0
248,315,90624,6,0,B|282:281|276:232,1,90,2|0,0:0|0:0,0:0:0
264,69,90953,2,0,B|229:102|235:151,1,90,8|0,0:0|0:0,0:0:0
379,200,91283,2,0,B|345:165|296:171,1,90,2|0,0:0|0:0,0:0:0
133,184,91613,2,0,B|166:218|215:212,2,90,10|2|0,0:0|0:0|0:0,0:0:0
53,73,92107,5,0,0:0:0
48,99,92190,1,0,0:0:0
46,125,92272,1,8,0:0:0
47,233,92437,1,0,0:0:0
59,257,92519,1,0,0:0:0
78,275,92602,1,0,0:0:0
174,321,92766,1,0,0:0:0
200,316,92849,1,0,0:0:0
225,306,92931,1,8,0:0:0
248,292,93014,1,0,0:0:0
266,272,93096,6,0,B|331:197|313:103,1,180,4|0,0:0|0:0,0:0:0
231,33,93591,1,8,0:0:0
218,139,93755,1,0,0:0:0
413,159,93920,2,0,B|431:116|416:71,2,90,0|0|8,0:0|0:0|0:0,0:0:0
313,103,94415,6,0,B|295:197|360:272,1,180,4|0,0:0|0:0,0:0:0
450,327,94909,1,8,0:0:0
352,373,95074,1,0,0:0:0
254,326,95239,2,0,B|217:295|211:250,1,90
203,140,95569,1,8,0:0:0
213,32,95734,6,0,B|126:75|116:176,1,180,4|0,0:0|0:0,0:0:0
127,281,96228,1,8,0:0:0
28,235,96393,1,0,0:0:0
116,173,96558,2,0,B|164:171|202:207,1,90
234,305,96887,1,8,0:0:0
338,331,97052,2,0,B|431:290|434:191,1,180,4|0,0:0|0:0,0:0:0
431,32,97547,2,0,B|395:55|384:106,1,90,8|0,0:0|0:0,0:0:0
361,202,97876,5,2,0:0:0
489,75,98041,1,0,0:0:0
315,27,98206,1,10,0:0:0
384,106,98371,6,0,B|293:114|210:150,1,180,4|0,0:0|0:0,0:0:0
129,78,98865,2,0,B|106:116|109:164,1,90,8|0,0:0|0:0,0:0:0
146,266,99195,1,0,0:0:0
236,324,99360,2,0,B|263:280|249:234,1,90,0|8,0:0|0:0,0:0:0
296,368,99690,6,0,B|345:286|312:194,1,180,4|0,0:0|0:0,0:0:0
265,99,100184,1,8,0:0:0
265,99,100266,1,0,0:0:0
265,99,100349,1,0,0:0:0
162,64,100514,1,0,0:0:0
69,120,100679,1,0,0:0:0
171,151,100843,1,8,0:0:0
265,99,101008,6,8,P|351:87|395:158,1,180,4|0,0:0|0:0,0:0:0
386,266,101503,1,8,0:0:0
378,291,101585,1,0,0:0:0
352,299,101668,1,0,0:0:0
245,303,101832,1,8,0:0:0
220,291,101915,1,0,0:0:0
193,293,101997,1,0,0:0:0
167,303,102080,1,0,0:0:0
140,301,102162,1,8,0:0:0
116,287,102244,1,0,0:0:0
103,263,102327,1,0,0:0:0
98,236,102409,1,0,0:0:0
100,208,102492,6,0,B|114:158,3,45
130,145,102821,2,0,B|170:114,3,45,8|0|0|0,0:0|0:0|0:0|0:0,0:0:0
191,110,103151,2,0,B|236:111,3,45
263,111,103481,2,0,B|305:87,3,45,8|0|0|0,0:0|0:0|0:0|0:0,0:0:0
326,78,103810,6,0,B|391:60|391:60|460:82,2,135,4|0|0,0:0|0:0|0:0,0:0:0
430,165,104470,2,0,B|417:208|433:252,1,90,0|0,0:0|0:0,0:0:0
369,316,104799,1,8,0:0:0
348,325,104882,1,0,0:0:0
325,321,104964,1,0,0:0:0
252,266,105129,6,0,B|214:234|169:245,1,90
56,323,105459,1,10,0:0:0
12,194,105624,1,0,0:0:0
93,87,105788,1,2,0:0:0
227,101,105953,1,2,0:0:0
257,232,106118,1,8,0:0:0
188,348,106283,6,0,B|115:279|146:183,1,180,2|0,0:0|0:0,0:0:0
227,101,106777,2,0,B|314:116,1,90,10|0,0:0|0:0,0:0:0
93,87,107107,2,0,B|6:72,2,90,2|0|8,0:0|0:0|0:0,0:0:0
146,183,107602,6,0,B|115:279|188:348,1,180,2|0,0:0|0:0,0:0:0
292,373,108096,1,8,0:0:0
316,362,108179,1,0,0:0:0
334,342,108261,1,0,0:0:0
363,238,108426,1,0,0:0:0
366,211,108508,1,0,0:0:0
378,186,108591,1,0,0:0:0
472,135,108755,1,8,0:0:0
495,29,108920,1,0,0:0:0
390,50,109085,6,0,B|321:64|321:64|275:112,2,135,4|0|0,0:0|0:0|0:0,0:0:0
450,170,109744,2,0,B|468:211|458:262,1,90,0|0,0:0|0:0,0:0:0
380,305,110074,1,8,0:0:0
366,215,110239,1,0,0:0:0
319,138,110404,2,0,B|291:97|246:93,1,90,4|0,0:0|0:0,0:0:0
155,80,110734,5,10,0:0:0
53,168,110898,1,0,0:0:0
187,159,111063,1,2,0:0:0
85,247,111228,1,0,0:0:0
220,237,111393,1,10,0:0:0
119,325,111558,1,0,0:0:0
254,309,111723,6,0,B|298:332|342:309,1,90,2|0,0:0|0:0,0:0:0
423,276,112052,1,8,0:0:0
423,276,112217,1,0,0:0:0
354,217,112382,2,0,B|377:173|354:129,1,90,2|0,0:0|0:0,0:0:0
321,48,112712,1,8,0:0:0
321,48,112876,1,0,0:0:0
259,113,113041,6,0,B|224:75|236:29,2,90,6|0|8,0:0|0:0|0:0,0:0:0
385,163,113536,2,0,B|445:240|415:333,1,180,2|0,0:0|0:0,0:0:0
282,357,114030,1,8,0:0:0
261,346,114113,1,0,0:0:0
241,335,114195,1,0,0:0:0
221,324,114277,1,0,0:0:0
201,313,114360,6,0,B|142:272|142:272|140:197,2,135,4|0|0,0:0|0:0|0:0,0:0:0
269,254,115019,2,0,B|346:302,1,90
437,295,115349,1,8,0:0:0
484,218,115514,1,0,0:0:0
446,136,115679,2,0,B|401:110|358:127|357:127,1,90,4|0,0:0|0:0,0:0:0
281,172,116008,5,10,0:0:0
158,228,116173,1,0,0:0:0
62,132,116338,1,2,0:0:0
185,77,116503,1,0,0:0:0
281,172,116668,1,10,0:0:0
28,262,116832,6,0,B|94:327|200:313,1,180,6|0,0:0|0:0,0:0:0
318,260,117327,2,0,B|347:223|338:175,1,90,10|0,0:0|0:0,0:0:0
275,54,117657,2,0,B|246:91|255:139,1,90,2|0,0:0|0:0,0:0:0
318,260,117986,1,8,0:0:0
410,55,118151,6,0,B|483:121|466:220,1,180,6|0,0:0|0:0,0:0:0
425,298,118646,1,8,0:0:0
339,325,118810,1,0,0:0:0
250,309,118975,1,2,0:0:0
236,290,119058,1,0,0:0:0
228,269,119140,1,0,0:0:0
223,246,119223,1,0,0:0:0
214,225,119305,1,0,0:0:0
201,206,119387,1,0,0:0:0
190,185,119470,6,0,B|143:96|205:44|205:44|221:70,1,180,6|0,0:0|0:0,0:0:0
264,144,119964,1,8,0:0:0
352,161,120129,1,0,0:0:0
439,137,120294,2,0,B|460:92|433:44,2,90,2|0|8,0:0|0:0|0:0,0:0:0
400,266,120788,1,2,0:0:0
137,314,121118,5,2,0:0:0
289,258,121283,1,8,0:0:0
137,314,121448,1,0,0:0:0
226,327,121613,2,0,B|226:274|191:246,1,90,2|0,0:0|0:0,0:0:0
117,196,121942,1,8,0:0:0
37,152,122107,2,0,B|59:107|108:104,1,90,6|0,0:0|0:0,0:0:0
201,236,122437,2,0,B|179:281|130:284,2,90,0|8|0,0:0|0:0|0:0,0:0:0
216,101,122931,6,0,B|324:79|324:79|351:100|389:107,1,180,2|8,0:0|0:0,0:0:0
427,236,123426,1,2,0:0:0
427,236,123755,5,2,0:0:0
497,70,123920,1,8,0:0:0
427,236,124085,1,0,0:0:0
512,158,124250,2,0,B|464:161|428:125,1,90,2|0,0:0|0:0,0:0:0
356,75,124580,1,10,0:0:0
277,119,124744,6,0,B|197:183|113:123|113:123|84:194|137:249,1,315,6|0,0:0|0:0,0:0:0
265,323,126228,5,0,0:0:0
272,302,126310,1,0,0:0:0
287,285,126393,1,0,0:0:0
362,235,126558,1,8,0:0:0
356,145,126723,1,0,0:0:0
342,126,126805,1,0,0:0:0
322,115,126887,1,0,0:0:0
236,142,127052,1,0,0:0:0
242,163,127135,1,0,0:0:0
247,184,127217,1,8,0:0:0
240,205,127299,1,0,0:0:0
224,221,127382,1,0,0:0:0
207,236,127464,1,0,0:0:0
188,248,127547,6,0,B|108:288,1,90,6|0,0:0|0:0,0:0:0
324,136,127876,2,0,B|404:96,1,90,6|0,0:0|0:0,0:0:0
324,248,128206,5,0,0:0:0
324,248,128288,1,0,0:0:0
324,248,128371,1,0,0:0:0
324,248,128536,2,0,B|404:288,1,90,2|0,0:0|0:0,0:0:0
188,136,128865,2,0,B|108:96,1,90,2|0,0:0|0:0,0:0:0
368,192,129195,5,0,0:0:0
368,192,129277,1,0,0:0:0
368,192,129360,1,0,0:0:0
368,192,129442,1,0,0:0:0
368,192,129525,2,0,B|456:192,1,90,6|0,0:0|0:0,0:0:0
144,192,129854,2,0,B|56:192,1,90,6|0,0:0|0:0,0:0:0
273,52,130184,5,0,0:0:0
269,74,130266,1,0,0:0:0
265,96,130349,1,0,0:0:0
260,117,130431,1,0,0:0:0
256,139,130514,1,8,0:0:0
188,199,130679,2,0,B|157:167,2,45,0|0|0,0:0|0:0|0:0,0:0:0
238,273,131008,1,0,0:0:0
327,268,131173,5,0,0:0:0
339,249,131255,1,0,0:0:0
344,227,131338,1,0,0:0:0
350,205,131420,1,0,0:0:0
358,184,131503,1,0,0:0:0
370,165,131585,1,0,0:0:0
385,148,131668,1,0,0:0:0
404,137,131750,1,0,0:0:0
421,123,131832,2,0,B|461:105,3,45,8|0|0|0,0:0|0:0|0:0|0:0,0:0:0
474,85,132162,5,0,0:0:0
465,63,132244,1,0,0:0:0
449,46,132327,1,0,0:0:0
428,36,132409,1,0,0:0:0
405,32,132492,2,0,B|358:40,4,45,8|0|0|0|4,0:0|0:0|0:0|0:0|0:0,0:0:0
256,192,132904,12,0,140074,0:0:0
