osu file format v11

[General]
AudioFilename: SINCLIENT_OP.mp3
AudioLeadIn: 0
PreviewTime: 82464
Countdown: 0
SampleSet: Soft
StackLeniency: 0.7
Mode: 0
LetterboxInBreaks: 1

[Editor]
DistanceSpacing: 1
BeatDivisor: 4
GridSize: 4

[Metadata]
Title:Kakusei -Fractional Vision-
TitleUnicode:Kakusei -Fractional Vision-
Artist:Tatsh feat. Ayane
ArtistUnicode:Tatsh feat. Ayane
Creator:Takos
Version:Easy
Source:SINCLIENT
Tags:BOOST5 boostfive FLAT visual novel Opening Melophobia wring
BeatmapID:171120
BeatmapSetID:55805

[Difficulty]
HPDrainRate:2
CircleSize:3
OverallDifficulty:2
ApproachRate:3
SliderMultiplier:0.7
SliderTickRate:1

[Events]
//Background and Video events
Video,0,"SINCLIENT_OP.avi"
0,0,"SINCLIENT_OP.jpg"
//Break Periods
//Storyboard Layer 0 (Background)
//Storyboard Layer 1 (Fail)
//Storyboard Layer 2 (Pass)
//Storyboard Layer 3 (Foreground)
//Storyboard Sound Samples
//Background Colour Transformations
3,100,0,0,0

[TimingPoints]
6244,623.700623700624,4,2,1,35,1,0
21368,-100,4,2,1,15,0,0
23707,-100,4,2,1,25,0,0
24331,-100,4,2,1,35,0,0
24955,-100,4,2,1,45,0,0
25266,-100,4,2,1,55,0,0
25578,-100,4,2,1,65,0,0
25890,-100,4,2,1,70,0,0
26202,-100,4,2,1,5,0,0
26669,329.67032967033,4,1,1,70,1,0
37136,-100,4,1,1,60,0,0
49745,329.67032967033,4,1,1,60,1,0
61530,-100,4,1,1,65,0,0
72080,-100,4,1,1,55,0,0
77437,-100,4,1,1,60,0,0
82547,-100,4,1,1,70,0,1
124745,-100,4,1,1,70,0,0
127547,-100,4,1,1,70,0,0
130184,-100,4,1,1,50,0,0
133481,-100,4,2,1,45,0,0
134140,-100,4,2,1,40,0,0
134799,-100,4,2,1,35,0,0
135459,-100,4,2,1,30,0,0
136118,-100,4,2,1,25,0,0
136777,-100,4,2,1,20,0,0
137437,-100,4,2,1,15,0,0
138096,-100,4,2,1,10,0,0
140074,-100,4,2,1,5,0,0

[Colours]
Combo1 : 180,104,255
Combo2 : 255,255,91
Combo3 : 255,51,51
Combo4 : 255,255,215

[HitObjects]
192,260,6244,2,0,B|256:312|320:260,1,140,0|2,0:0|0:0,0:0:0
320,120,8738,2,0,B|256:68|192:120,1,140,0|2,0:0|0:0,0:0:0
52,128,11233,6,0,B|0:192|52:256,1,140,0|2,0:0|0:0,0:0:0
192,256,13728,2,0,B|244:192|192:128,1,140,0|2,0:0|0:0,0:0:0
304,44,16223,5,0,0:0:0
420,124,17470,1,2,0:0:0
420,264,18718,1,0,0:0:0
304,340,19965,5,2,0:0:0
164,340,21212,1,2,0:0:0
256,192,21368,12,4,26670,0:0:0
256,192,28811,6,0,B|300:220|300:220|344:192,1,105
44,88,31119,6,0,B|116:88,1,70
184,88,31778,2,0,B|224:88,1,35,0|4,0:0|0:0,0:0:0
452,224,34086,6,0,B|424:264,3,35
212,76,35899,6,0,B|144:76,1,70
72,76,36559,2,0,B|20:124,1,70
32,192,37218,6,0,B|140:192,1,105,4|0,0:0|0:0,0:0:0
252,60,38537,2,0,B|360:60,1,105
460,200,39855,6,0,B|400:292,1,105,4|0,0:0|0:0,0:0:0
264,180,41174,2,0,B|164:236,1,105
128,60,42493,2,0,B|16:52,1,105
176,136,43811,6,0,B|288:144,1,105,0|0,0:0|0:0,0:0:0
256,192,44471,12,4,47108,0:0:0
324,80,48262,6,4,B|252:68,2,70
448,204,49745,6,0,B|448:288|376:312,1,140,4|8,0:0|0:0,0:0:0
256,236,51063,1,0,0:0:0
135,311,51723,1,8,0:0:0
132,172,52382,6,0,B|156:100|240:100,1,140,0|8,0:0|0:0,0:0:0
368,152,53701,1,0,0:0:0
388,292,54360,1,8,0:0:0
256,339,55019,6,0,B|256:192,1,140,4|8,0:0|0:0,0:0:0
327,78,56338,1,0,0:0:0
187,78,56997,1,8,0:0:0
152,212,57657,6,0,B|153:266|153:266|188:301,1,105,4|4,0:0|0:0,0:0:0
324,304,58810,2,0,B|360:268|360:268|384:208|368:144,1,175,4|8,0:0|0:0,0:0:0
256,76,60294,2,0,B|256:190,1,105,2|2,0:0|0:0,0:0:0
107,102,61613,5,4,0:0:0
81,239,62272,1,8,0:0:0
180,337,62931,2,0,B|209:364|244:368,2,70,0|0|8,0:0|0:0|0:0,0:0:0
217,202,64250,5,0,0:0:0
354,175,64909,2,0,B|381:204|385:240,2,70,8|0|0,0:0|0:0|0:0,0:0:0
258,72,66228,1,8,0:0:0
217,202,66887,6,0,B|146:201|146:201|119:179,1,105,4|0,0:0|0:0,0:0:0
288,131,68206,2,0,B|359:132|359:132|408:188,1,140,4|8,0:0|0:0,0:0:0
424,324,69525,6,0,B|356:358|290:325,1,140,4|8,0:0|0:0,0:0:0
360,204,70843,1,0,0:0:0
427,81,71503,1,8,0:0:0
287,81,72162,6,0,B|148:81,1,140,0|8,0:0|0:0,0:0:0
47,180,73481,2,0,B|186:180,1,140,0|8,0:0|0:0,0:0:0
287,277,74799,6,0,B|214:278,2,70,4|0|8,0:0|0:0|0:0,0:0:0
414,335,76118,2,0,B|487:334,2,70,0|0|8,0:0|0:0|0:0,0:0:0
397,195,77437,2,0,B|419:168|419:168|397:144|397:144|397:68,1,140,0|8,0:0|0:0,0:0:0
260,44,78755,5,0,0:0:0
172,100,79250,2,0,B|112:140,2,70,8|0|4,0:0|0:0|0:0,0:0:0
333,57,82547,6,0,B|298:138|298:138|311:238,1,175,4|8,0:0|0:0,0:0:0
387,340,84030,2,0,B|422:259|422:259|411:209,1,140,0|8,0:0|0:0,0:0:0
384,71,85349,5,0,0:0:0
244,71,86008,1,8,0:0:0
103,71,86668,2,0,B|31:71,2,70,2|0|10,0:0|0:0|0:0,0:0:0
114,175,87821,6,0,B|172:244|152:341,1,175,0|8,0:0|0:0,0:0:0
287,302,89305,2,0,B|293:229|254:167,1,140,0|8,0:0|0:0,0:0:0
154,72,90624,6,0,B|229:89,2,70,0|0|8,0:0|0:0|0:0,0:0:0
39,151,91942,2,0,B|22:226,2,70,2|0|10,0:0|0:0|0:0,0:0:0
138,184,93096,6,0,B|247:329,1,175,0|8,0:0|0:0,0:0:0
104,326,94580,2,0,B|21:204,1,140,0|8,0:0|0:0,0:0:0
70,77,95898,5,0,0:0:0
203,118,96558,1,8,0:0:0
339,86,97217,2,0,B|380:28|380:27,2,70,2|0|10,0:0|0:0|0:0,0:0:0
286,177,98371,6,0,B|323:269|421:274,1,175,0|8,0:0|0:0,0:0:0
412,134,99854,2,0,B|386:61|311:48,1,140,0|8,0:0|0:0,0:0:0
256,192,101173,12,4,103810,0:0:0
256,72,105129,6,0,B|396:72,1,140,4|8,0:0|0:0,0:0:0
458,197,106448,1,0,0:0:0
400,324,107107,2,0,B|357:399,2,70,8|0|0,0:0|0:0|0:0,0:0:0
318,210,108426,1,8,0:0:0
206,294,109085,6,0,B|142:326|142:326|69:300,1,140,6|8,0:0|0:0,0:0:0
54,165,110404,1,0,0:0:0
137,53,111063,1,8,0:0:0
262,114,111723,6,0,B|311:56,2,70,2|0|8,0:0|0:0|0:0,0:0:0
345,226,113041,2,0,B|438:109,1,140,2|8,0:0|0:0,0:0:0
458,254,114360,6,0,B|422:300|422:300|391:335|351:332,1,140,6|8,0:0|0:0,0:0:0
229,282,115679,1,0,0:0:0
335,190,116338,1,8,0:0:0
391,61,116997,6,0,B|321:37|254:65,1,140,0|8,0:0|0:0,0:0:0
117,33,118316,2,0,B|93:103|121:170,1,140,0|8,0:0|0:0,0:0:0
177,297,119635,5,0,0:0:0
38,278,120294,1,8,0:0:0
124,168,120953,2,0,B|175:108,2,70,0|0|8,0:0|0:0|0:0,0:0:0
268,188,122272,5,0,0:0:0
407,207,122931,1,8,0:0:0
316,313,123591,2,0,B|304:348|265:373,2,70,0|0|8,0:0|0:0|0:0,0:0:0
215,281,124745,6,0,B|261:256|254:220|261:184|209:151|209:151|155:121|166:84|158:52|204:21,1,315,4|4,0:0|0:0,0:0:0
468,293,127547,6,0,B|428:328|428:328|374:328,1,105,4|0,0:0|0:0,0:0:0
271,329,128536,2,0,B|236:289|236:289|236:235,1,105,4|0,0:0|0:0,0:0:0
291,147,129525,2,0,B|347:102,1,70
256,192,130514,12,4,132821,0:0:0
256,192,132986,12,0,140074,0:0:0
