osu file format v6

[General]
AudioFilename: Tatsh Feat. Junko Hirata & Sayaka Minami - Double Infinity Loving Heart .mp3
AudioLeadIn: 0
PreviewTime: 163420
Countdown: 0
SampleSet: Normal
StackLeniency: 0.7
Mode: 0
LetterboxInBreaks: 0

[Editor]
Bookmarks: 16028,17223,38582,111680,163854,253310
DistanceSpacing: 1.39999997615814
BeatDivisor: 8
GridSize: 32

[Metadata]
Title:Double Infinity Loving Heart
Artist:Tatsh Feat. Junko & Sayaka
Creator:Pulsje
Version:Normal
Source:
Tags:

[Difficulty]
HPDrainRate:6
CircleSize:4
OverallDifficulty:6
SliderMultiplier:1
SliderTickRate:2

[Events]
//Background and Video events
0,0,"sunset_landscape.png"
//Break Periods
2,31881,34109
2,103837,110631
2,146663,152370
2,160576,162804
2,198837,211500
//Storyboard Layer 0 (Background)
//Storyboard Layer 1 (Fail)
//Storyboard Layer 2 (Pass)
//Storyboard Layer 3 (Foreground)
//Storyboard Sound Samples
//Background Colour Transformations
3,100,0,0,0

[TimingPoints]
2115,434.782608695652,4,2,1,90,1,0
76898,-100,4,2,1,90,0,1
103636,-100,4,2,1,90,0,0
191246,-100,4,1,1,50,0,0
198528,-100,4,2,1,100,0,0
212115,-100,4,1,1,50,0,0
219941,-100,4,1,0,40,0,0
253311,-100,4,2,0,100,0,0

[Colours]
Combo1 : 61,1,1
Combo2 : 230,74,0
Combo3 : 237,221,31

[HitObjects]
160,88,17767,2,0,B|256:24|368:96,1,200
440,192,19071,1,8
352,304,19506,2,0,B|256:368|144:296,1,200
80,192,20810,1,8
200,120,21245,2,0,B|272:120,1,50,2|0
288,176,21680,2,0,B|352:200,1,50,2|0
360,256,22115,2,2,B|240:288,1,100,2|10
120,280,22984,2,0,B|72:232|128:176,1,100
232,112,23854,1,0
232,112,24071,1,8
304,112,24288,1,8
304,112,24506,1,0
376,112,24723,5,0
456,224,25158,1,0
376,336,25593,2,0,B|360:272|288:280,1,100,0|8
176,224,26462,2,0,B|224:184,1,50,2|0
200,120,26897,2,0,B|272:136,1,50,2|0
296,80,27332,2,2,B|352:176,1,100,0|8
472,232,28201,2,0,B|464:304|384:352|304:296,1,200
216,216,29506,1,8
192,152,29723,1,0
240,104,29941,2,0,B|248:32|328:-16|408:40,1,200
464,152,31245,1,8
464,152,31462,1,8
464,152,31680,1,4
256,192,35158,5,8
384,248,35593,2,0,B|472:152|400:48,1,200
410,65,36680,2,0,B|360:120|304:120,3,100
116,117,38636,1,8
184,240,39071,5,0
320,272,39506,2,2,B|392:240,1,50,0|0
392,184,39941,2,2,B|328:160,1,50
296,112,40375,2,2,B|392:64,1,100
385,67,41028,1,2
256,192,41462,12,0,42767
256,104,43201,5,0
152,192,43636,1,0
256,288,44071,1,0
360,192,44506,1,0
256,104,44941,2,0,B|256:48,3,50,2|8|8|4
112,64,46028,6,0,B|80:144,1,50,8|0
24,128,46462,2,0,B|56:184,1,50
32,240,46897,2,0,B|112:248,1,50,8|0
104,312,47332,2,0,B|176:264,1,50
248,192,47984,1,0
448,256,48636,1,8
480,192,48854,1,0
448,128,49071,1,8
384,96,49288,6,0,B|304:72,1,50,0|0
296,24,49723,2,0,B|224:56,1,50,0|0
184,32,50158,2,0,B|144:136,1,100,0|2
16,168,51028,1,2
112,264,51462,1,2
248,232,51897,1,2
456,288,52549,6,8,B|496:232|432:160,1,100,8|0
376,80,53419,1,0
240,40,53854,1,2
192,88,54071,1,0
144,40,54288,1,2
48,136,54723,2,0,B|112:192|64:256,2,100
48,136,55810,1,0
256,192,56028,12,0,57332
256,192,57767,12,0,59071
136,88,59506,6,0,B|104:144|160:144|120:208,3,100,0|0|0|4
96,248,61028,1,0
64,312,61245,2,0,B|104:344|208:352|240:264,1,200
256,136,62549,2,0,B|296:48|416:40|448:104,2,200,0|0|4
376,208,64723,5,2
304,328,65158,1,2
232,208,65593,1,2
160,88,66028,1,0
88,208,66462,2,0,B|136:304|232:312|296:240,1,250
292,244,67767,1,4
424,208,68201,6,0,B|440:144,1,50,8|0
488,112,68636,2,0,B|440:72,1,50,0|0
448,8,69071,2,0,B|320:64,1,100,8|0
216,32,69941,2,0,B|88:56|56:176|152:272,1,300,0|6
264,312,71680,1,2
400,280,72114,1,2
456,152,72549,1,2
368,40,72984,2,2,B|296:24,1,50,2|10
256,192,73419,12,4,76462
88,80,76897,6,0,B|176:64,1,50,8|0
192,112,77332,2,0,B|256:160,1,50,8|0
304,136,77767,2,2,B|288:248,1,100,2|10
224,256,78419,1,0
96,192,78854,2,0,B|32:272|112:344,1,150
224,256,79941,1,8
352,192,80375,6,0,B|432:160,1,50,0|0
440,120,80810,2,0,B|344:56,1,100,8|0
216,64,81680,2,0,B|160:112,1,50,8|0
64,176,82332,2,0,B|80:256|136:280,3,100
384,272,84506,5,0
384,272,84723,1,0
384,200,84941,1,0
384,200,85158,2,0,B|336:152,1,50,8|0
384,104,85593,2,0,B|280:56,1,100,0|8
240,112,86245,2,0,B|152:168,1,100
88,168,86897,2,2,B|40:240,1,50,8|0
128,232,87332,2,0,B|144:280|208:280,1,75
256,192,87984,12,0,90375
188,87,90810,5,0
324,87,91245,1,8
324,223,91680,1,0
208,304,92114,2,0,B|160:256,1,50,8|0
104,240,92549,6,0,B|128:136,1,100,0|8
72,96,93201,2,0,B|136:48,1,50
248,40,93854,1,12
416,168,94506,1,0
464,216,94723,1,8
432,280,94941,1,0
360,264,95158,2,0,B|296:280|240:208,1,100,0|8
256,168,95810,1,0
184,48,96245,2,0,B|80:72|96:168,2,150
384,248,98419,6,0,B|424:192,1,50
368,152,98854,2,0,B|432:120,1,50,0|8
472,88,99288,2,0,B|384:32,1,100
320,56,99941,1,8
256,88,100158,1,0
120,128,100593,2,0,B|72:88,3,50
256,192,101897,12,0,103636
112,120,111680,6,8,B|216:64|312:208|440:96,1,300,0|8
400,264,113419,2,8,B|296:320|200:176|72:288,1,300,0|8
112,120,115158,2,8,B|216:64|312:208|440:96,1,300,0|8
400,264,116897,2,10,B|296:320|200:176|72:288,1,300,2|10
109,261,118419,1,10
109,261,118636,1,4
56,128,119071,6,2,B|32:88,2,25
112,168,119506,2,0,B|144:112|216:128,1,100,0|8
256,88,120158,2,0,B|320:88|328:160,1,100,0|2
272,192,120810,1,10
336,216,121028,2,0,B|392:176|448:272|360:352,1,200,2|0
367,344,122114,1,4
240,288,122549,6,0,B|176:264,1,50
136,320,122984,2,2,B|120:272,1,50
48,264,123419,1,0
48,264,123636,2,2,B|88:152,3,100
104,104,125158,1,8
168,72,125375,1,0
232,104,125593,1,12
368,96,126028,6,2,B|472:128|464:232|408:264,2,200,0|0|0
224,96,128201,2,2,B|120:128|128:232|184:264,2,200,0|0|0
256,192,130375,12,4,132549
208,48,132984,6,0,B|312:80,1,100,8|0
368,48,133636,2,0,B|400:112,1,50,0|8
448,136,134071,2,0,B|408:192,1,50
424,248,134506,2,0,B|304:216,1,100
320,152,135158,2,0,B|256:176,1,50
208,136,135593,2,0,B|176:232,1,100,8|4
112,264,136245,5,0
56,216,136462,2,0,B|32:152,1,50,8|0
96,128,136897,2,0,B|48:88,1,50
16,40,137332,2,0,B|72:16,1,50,8|0
192,72,137984,2,0,B|304:56,1,100
432,80,138854,2,0,B|496:144|424:232,1,150,0|8
320,288,139941,5,0
256,320,140158,1,0
192,288,140375,1,8
168,224,140593,1,0
192,160,140810,1,0
256,128,141028,1,0
328,120,141245,2,0,B|384:112|392:48,2,100,8|0|8
256,128,142332,6,0,B|200:136|168:176|168:240,1,150,0|8
304,256,143419,2,0,B|344:256,4,25,0|0|0|0|8
184,328,144288,1,0
120,296,144506,1,0
72,240,144723,2,0,B|32:184|40:96|96:56,1,200,8|8
92,58,145810,1,0
92,58,146028,1,4
92,58,146245,1,4
92,58,146462,1,8
157,57,153419,6,0,B|269:57,1,100,0|8
357,145,154288,2,0,B|245:145,1,100,0|8
154,240,155158,2,0,B|266:240,1,100,0|8
354,328,156028,2,0,B|242:328,1,100,0|8
128,272,156897,2,0,B|168:232,1,50
128,176,157332,2,0,B|200:152,1,50,8|0
160,88,157767,2,0,B|224:96,1,50
240,32,158201,2,0,B|280:64,1,50,8|0
344,32,158636,2,0,B|352:88,1,50
416,104,159071,2,0,B|392:160,1,50,8|0
440,208,159506,2,0,B|384:232,4,50,0|0|8|8|0
424,80,163854,6,0,B|336:64,1,50,8|0
320,112,164288,2,0,B|256:160,1,50,8|0
208,136,164723,2,2,B|224:248,1,100,2|10
288,256,165375,1,0
416,192,165810,2,0,B|480:272|400:344,1,150
288,256,166897,1,8
160,192,167332,6,0,B|80:160,1,50,0|0
72,120,167767,2,0,B|168:56,1,100,8|0
296,64,168636,2,0,B|352:112,1,50,8|0
448,176,169288,2,0,B|432:256|376:280,3,100
128,272,171462,5,0
128,272,171680,1,0
128,200,171897,1,0
128,200,172115,2,0,B|176:152,1,50,8|0
128,104,172549,2,0,B|232:56,1,100,0|8
272,112,173201,2,0,B|360:168,1,100
424,168,173854,2,2,B|472:240,1,50,8|0
384,232,174288,2,0,B|368:280|304:280,1,75
256,192,174941,12,0,177332
324,87,177767,5,0
188,87,178201,1,8
188,223,178636,1,0
304,304,179071,2,0,B|352:256,1,50,8|0
408,240,179506,2,0,B|384:136,1,100,0|8
440,96,180158,2,0,B|376:48,1,50
264,40,180810,1,12
96,168,181462,1,0
48,224,181680,1,8
80,288,181897,1,0
152,264,182115,2,0,B|216:280|272:208,1,100,0|8
256,168,182767,1,0
328,48,183201,2,0,B|432:72|416:168,2,150
128,248,185375,6,0,B|88:192,1,50
144,152,185810,2,0,B|80:120,1,50,0|8
40,88,186245,2,0,B|128:32,1,100
192,56,186897,1,8
256,88,187115,1,0
392,128,187549,2,0,B|440:88,3,50,0|8|8|0
256,192,188854,12,0,190593
176,56,191680,6,0,B|256:88,1,50,2|0
288,48,192115,2,0,B|336:104,1,50,2|0
272,136,192549,2,2,B|160:184,1,100
112,152,193201,2,0,B|64:192,1,50,0|2
80,256,193636,2,0,B|128:288,1,50,0|2
240,208,194288,2,2,B|352:272,1,100,2|0
200,328,195158,6,0,B|120:296,1,50,2|0
88,336,195593,2,0,B|40:280,1,50,2|0
104,248,196028,2,2,B|216:200,1,100
264,232,196680,2,0,B|312:192,1,50,0|2
296,128,197115,2,0,B|248:96,1,50,0|2
136,176,197767,2,2,B|24:112,1,100,2|2
49,126,198419,1,2
49,126,198636,1,4
128,72,212549,6,0,B|72:120|112:176,1,100,0|8
144,216,213201,1,0
104,272,213419,2,0,B|136:336|240:312,1,150
376,280,214506,2,0,B|328:240|304:296|248:224,1,100
281,255,215158,1,0
232,200,215375,2,0,B|272:168,3,50,0|8|0|8
344,168,216245,2,0,B|352:96,1,50,0|8
408,80,216680,2,0,B|368:24,1,50
312,64,217115,1,0
248,32,217332,2,0,B|160:96,5,100,8|0|8|0|8|0
112,216,219941,5,8
160,272,220158,1,0
232,296,220375,1,0
304,280,220593,1,0
360,232,220810,1,8
376,160,221028,1,0
368,88,221245,2,0,B|416:40,4,50,0|0|8|0|0
232,56,222549,1,8
232,56,222767,1,8
256,192,222984,12,0,224723
424,304,226462,6,0,B|336:320,1,50,8|0
320,272,226897,2,0,B|256:224,1,50,8|0
208,248,227332,2,2,B|224:136,1,100,2|10
288,128,227984,1,0
416,192,228419,2,0,B|480:112|400:40,1,150
288,128,229506,1,8
160,192,229941,6,0,B|80:224,1,50,0|0
72,264,230375,2,0,B|168:328,1,100,8|0
296,320,231245,2,0,B|352:272,1,50,8|0
448,208,231897,2,0,B|432:128|376:104,3,100
128,112,234071,5,0
128,112,234288,1,0
128,184,234506,1,0
128,184,234723,2,0,B|176:232,1,50,8|0
128,280,235158,2,0,B|232:328,1,100,0|8
272,272,235810,2,0,B|360:216,1,100
424,216,236462,2,2,B|472:144,1,50,8|0
384,152,236897,2,0,B|384:96|304:104,1,100
256,192,237549,12,0,239941
324,297,240375,5,0
188,297,240810,1,8
188,161,241245,1,0
304,80,241680,2,0,B|352:128,1,50,8|0
408,144,242115,2,0,B|384:248,1,100,0|8
440,288,242767,2,0,B|376:336,1,50
264,344,243419,1,12
96,216,244071,1,0
48,168,244288,1,8
80,104,244506,1,0
152,120,244723,2,0,B|216:104|272:176,1,100,0|8
256,216,245375,1,0
328,336,245810,2,0,B|432:312|416:216,2,150
128,136,247984,6,0,B|88:192,1,50
144,232,248419,2,0,B|80:264,1,50,0|8
40,296,248854,2,0,B|128:352,1,100
192,328,249506,1,8
256,296,249723,1,0
392,256,250158,2,0,B|440:296,3,50
256,192,251462,12,4,254288
