osu file format v6

[General]
AudioFilename: Tatsh Feat. Junko Hirata & Sayaka Minami - Double Infinity Loving Heart .mp3
AudioLeadIn: 0
PreviewTime: 163420
Countdown: 2
SampleSet: Soft
StackLeniency: 0.7
Mode: 0
LetterboxInBreaks: 1

[Editor]
DistanceSpacing: 1.29999995231628
BeatDivisor: 6
GridSize: 8

[Metadata]
Title:Double Infinity Loving Heart
Artist:Tatsh Feat. Junko & Sayaka
Creator:Pulsje
Version:Hard
Source:
Tags:Tatsh Feat. Junko & Sayaka

[Difficulty]
HPDrainRate:8
CircleSize:5
OverallDifficulty:7
SliderMultiplier:1
SliderTickRate:2

[Events]
//Background and Video events
0,0,"sunset_landscape.png"
//Break Periods
2,103909,110852
2,198909,211722
//Storyboard Layer 0 (Background)
//Storyboard Layer 1 (Fail)
//Storyboard Layer 2 (Pass)
//Storyboard Layer 3 (Foreground)
//Storyboard Sound Samples
//Background Colour Transformations
3,100,0,0,0

[TimingPoints]
2188,434.782608695652,4,2,1,90,1,0
76898,-100,4,2,1,90,0,1
77115,-100,4,2,1,90,0,0
191246,-100,4,1,1,50,0,0
219941,-100,4,1,0,40,0,0
253311,-100,4,2,0,100,0,0

[Colours]
Combo1 : 61,1,1
Combo2 : 230,74,0
Combo3 : 237,221,31

[HitObjects]
152,64,17839,6,0,B|104:112|160:160,3,100,0|0|0|8
272,152,19578,2,0,B|320:104|264:56,3,100,0|0|0|8
208,64,21100,1,0
144,64,21317,6,0,B|112:112|176:112|128:168,2,100
208,64,22404,1,0
272,64,22622,2,0,B|304:112|240:112|288:168,2,100,8|0|0
208,64,23709,2,0,B|208:240,1,150,0|8
208,214,24578,1,4
163,255,24796,6,0,B|215:297|268:241,3,100,0|0|0|8
253,134,26535,2,0,B|201:92|148:148,3,100,0|0|0|8
104,136,28057,1,0
104,136,28202,1,0
104,136,28274,2,0,B|80:248|136:344|280:320,1,300,0|8
360,248,30013,2,0,B|384:136|328:40|184:64,1,300,0|8
198,61,31752,1,4
128,160,32187,5,0
128,160,32332,1,0
128,224,32549,2,0,B|136:272|200:280,1,75
241,276,33057,1,0
241,276,33274,1,0
288,232,33491,2,0,B|336:200|393:237,2,100
280,104,34796,1,8
328,64,35013,1,0
376,104,35231,1,8
376,232,35665,5,0
376,232,35810,1,0
344,288,36028,2,0,B|264:248|224:320,1,125
184,352,36752,2,0,B|72:352,2,100
184,224,38057,2,2,B|136:160|224:160|168:64,1,150
96,184,39144,5,0
96,184,39288,1,0
72,120,39506,2,0,B|40:80|80:48,1,75
138,52,40013,1,0
203,52,40231,1,0
248,96,40448,2,0,B|312:144|360:144,2,100
203,144,41535,2,0,B|163:184|179:240,1,100
216,288,42187,2,0,B|280:336|360:288,1,150
280,184,43274,1,0
280,184,43491,1,0
256,192,43709,12,4,45231
360,88,46100,5,0
360,88,46245,1,0
312,136,46462,2,0,B|256:160|216:144,1,75
176,152,46970,1,0
208,96,47187,1,0
240,40,47404,2,0,B|192:8|144:40,2,100
288,80,48491,1,0
336,120,48709,2,0,B|384:152|432:120,1,100,8|8
480,184,49361,5,0
448,240,49578,1,0
448,240,49723,1,0
448,240,49796,1,0
400,280,50013,2,0,B|360:280|336:248,2,50
448,328,50665,1,0
320,328,51100,1,0
192,328,51535,1,0
248,208,51970,2,0,B|320:176|320:256|392:208,1,150,0|12
320,96,53057,5,0
320,96,53202,1,0
320,96,53419,2,0,B|224:96,1,75
192,64,53926,1,0
192,128,54144,1,0
136,96,54361,2,0,B|72:96|72:160,2,100
192,64,55448,2,0,B|304:64,1,100
344,32,56100,6,2,B|416:32|416:184|329:184,1,200
288,152,57187,1,0
288,216,57404,1,0
232,184,57622,2,2,B|160:184|160:336|247:336,1,200
232,184,59144,1,8
304,72,59578,6,0,B|232:40|152:72,1,150,8|0
232,184,60665,1,0
264,312,61100,5,2
200,312,61317,1,0
232,256,61535,1,2
184,208,61752,2,0,B|232:176|287:212,2,100,0|2|0
256,192,62839,12,0,63926
256,192,64578,5,0
256,192,64796,1,2
88,56,65231,1,8
416,56,65665,1,2
416,328,66100,1,8
352,328,66317,2,0,B|256:240|136:392|24:264,1,350,0|8
24,200,68057,5,0
88,200,68274,1,2
152,72,68709,1,8
152,200,69144,1,2
256,192,69578,12,0,70882
256,80,71100,6,0,B|256:144,3,50,0|2|0|2
296,184,71970,1,0
296,248,72187,2,0,B|176:248,2,100,2|8|10
296,248,73274,1,2
256,192,73491,12,4,76534
144,72,76970,5,0
272,72,77404,1,8
208,184,77839,1,0
208,312,78274,2,0,B|208:248,1,50,8|0
336,240,78926,1,0
376,192,79144,1,8
400,136,79361,1,0
376,80,79578,2,0,B|352:40|272:48,1,100,0|8
240,88,80231,2,0,B|240:152|176:168,1,100,0|0
136,120,80883,5,8
136,120,81100,1,0
77,166,81317,2,0,B|45:214|93:270,2,100,0|8|0
136,120,82404,1,2
248,48,82839,1,2
360,120,83274,1,2
248,192,83709,1,2
56,48,84578,5,0
56,48,84796,1,2
104,96,85013,2,2,B|168:112|184:168,1,100,0|2
200,216,85665,2,0,B|240:280|296:280,2,100,0|2|2
240,168,86752,2,0,B|296:168,2,50,0|2|2
192,120,87404,2,0,B|160:72|128:72,2,75,4|0|4
256,192,88274,12,0,89579
208,78,90883,6,0,B|261:39|310:86,2,100,0|8|0
208,208,92187,2,0,B|169:261|216:310,2,100,8|0|8
248,160,93274,1,0
296,120,93491,2,0,B|352:80|288:24,1,100,0|8
152,160,94578,5,0
152,160,94723,1,0
152,160,94796,2,0,B|104:208|160:264,1,100,8|0
200,288,95448,1,0
200,288,95665,1,8
256,320,95883,1,0
344,224,96317,1,0
256,128,96752,1,0
168,224,97187,2,0,B|104:224|104:152,1,100
256,40,98274,5,8
304,88,98491,1,0
304,152,98709,1,0
256,200,98926,1,0
208,152,99144,1,8
208,88,99361,1,0
256,40,99578,2,0,B|344:40,2,75
128,40,100665,2,0,B|64:88|64:128,1,100
48,176,101317,1,2
48,176,101680,1,2
48,176,101970,2,2,B|96:336|264:360|360:232,1,400
128,128,111752,6,0,B|176:32|344:32|379:137,1,300,0|8
376,256,113491,2,0,B|328:352|160:352|125:247,1,300,0|8
128,128,115231,2,0,B|56:128,2,50,0|0|8
256,128,116100,2,0,B|328:128,2,50,0|0|8
192,240,116970,2,0,B|192:312,2,50,0|0|8
320,240,117839,1,0
376,208,118057,1,0
408,152,118274,1,8
408,88,118491,1,8
368,40,118709,5,4
240,40,119144,5,0
240,40,119288,1,0
184,72,119506,2,0,B|160:128|112:120,1,75
72,144,120013,1,0
72,208,120231,1,0
120,248,120448,2,0,B|192:240|192:208,2,75
296,160,121752,1,8
264,104,121970,1,0
200,104,122187,1,12
208,232,122622,6,0,B|272:272|312:208,2,100
144,208,123709,1,0
192,88,124144,1,0
312,40,124578,1,0
432,88,125013,2,0,B|480:152|392:168|448:248,1,150
328,304,126100,6,0,B|264:304,3,50
224,264,126970,1,0
160,264,127187,1,0
112,216,127404,2,0,B|72:160|128:104,2,100
160,264,128491,5,0
248,168,128926,1,0
248,168,129144,2,2,B|208:128|280:120|240:64,2,100
248,232,130231,1,0
248,232,130448,1,2
256,192,130665,12,4,132621
160,72,133057,5,0
160,72,133202,1,0
216,104,133419,2,0,B|232:152|296:136,1,75
336,112,133926,1,0
336,176,134144,1,0
392,144,134361,2,0,B|464:144|464:296|377:296,1,200,0|0
264,296,135665,2,0,B|232:248,2,50,8|0|12
328,312,136317,5,0
393,294,136535,1,0
393,294,136680,1,0
393,294,136752,1,0
424,240,136970,2,0,B|448:184,2,50
360,240,137622,1,0
232,240,138057,1,0
104,240,138491,1,0
152,120,138926,2,2,B|304:120,1,150,2|10
352,80,139796,1,0
408,112,140013,5,0
408,112,140158,1,0
448,160,140375,2,0,B|472:200|448:240,1,75
408,280,140883,1,0
352,312,141100,1,0
288,304,141317,2,2,B|264:344|224:344,2,75
336,184,142404,2,0,B|352:128|312:88,1,100
256,56,143057,6,2,B|168:24|48:88|96:232,1,300
144,272,144578,2,2,B|232:304|352:240|304:96,1,300
305,101,146100,1,4
176,64,146535,6,0,B|216:168|96:152,2,150
176,64,148057,1,0
224,24,148274,2,0,B|272:8|328:24,1,100
376,56,148926,1,0
320,88,149144,2,0,B|264:120|296:184,1,100
328,224,149796,5,0
360,280,150013,1,0
360,280,150231,1,0
328,336,150448,1,8
264,336,150665,1,0
232,280,150883,1,0
232,280,151028,1,0
232,280,151100,1,0
264,224,151317,1,8
296,168,151535,5,0
296,168,151752,2,0,B|296:64,2,100
176,112,153057,1,0
208,168,153274,5,0
240,224,153491,1,0
240,224,153709,1,0
208,280,153926,1,8
144,280,154144,1,0
112,224,154361,1,0
112,224,154506,1,0
112,224,154578,1,0
144,168,154796,1,8
176,112,155013,5,0
176,112,155231,2,0,B|232:80|280:120,2,100
270,112,156535,1,0
270,112,156752,2,2,B|336:72|344:160|416:104,1,150
272,240,158057,6,0,B|208:240,2,50
336,240,158709,1,2
336,240,159071,1,2
336,240,159361,1,2
400,240,159578,2,0,B|464:216|512:248,2,100
256,192,160665,12,0,161970
256,192,162187,12,4,163492
368,72,163926,5,0
240,72,164361,1,8
304,184,164796,1,0
304,312,165231,2,0,B|304:248,1,50,8|0
176,240,165883,1,0
136,192,166100,1,8
112,136,166317,1,0
136,80,166535,2,0,B|160:40|240:48,1,100,0|8
272,88,167187,2,0,B|272:152|336:168,1,100
376,120,167839,5,8
376,120,168057,1,0
435,166,168274,2,0,B|467:214|419:270,2,100,0|8|0
376,120,169361,1,2
264,48,169796,1,2
152,120,170231,1,2
264,192,170665,1,2
456,48,171535,5,0
456,48,171752,1,0
408,96,171970,2,0,B|344:112|328:168,1,100
312,216,172622,2,0,B|272:280|216:280,2,100,0|0|0
272,168,173709,2,0,B|216:168,2,50,0|0|0
320,120,174361,2,0,B|352:72|384:72,2,75
256,192,175231,12,4,176536
304,78,177839,6,0,B|251:39|202:86,2,100,0|8|0
304,208,179144,2,0,B|343:261|296:310,2,100,8|0|8
264,160,180231,1,0
216,120,180448,2,0,B|160:80|224:24,1,100,0|8
360,160,181535,5,0
360,160,181607,1,0
360,160,181752,2,0,B|408:208|352:264,1,100,8|0
312,288,182404,1,0
312,288,182622,1,8
256,320,182839,1,2
168,224,183274,1,0
256,128,183709,1,2
344,224,184144,2,2,B|408:224|408:152,1,100
256,40,185231,5,8
208,88,185448,1,0
208,152,185665,1,0
256,200,185883,1,0
304,152,186100,1,8
304,88,186317,1,0
256,40,186535,2,0,B|168:40,2,75
384,40,187622,2,0,B|448:88|448:128,1,100
464,176,188274,5,2
464,176,188636,1,2
464,176,188926,2,2,B|416:336|248:360|152:232,1,400
144,72,191752,6,0,B|208:72,1,50,2|0
240,120,192187,2,2,B|288:176|344:184,1,100
384,184,192839,1,0
432,232,193057,2,0,B|472:288,1,50,2|0
408,312,193491,2,0,B|368:344,1,50,2|0
304,328,193926,2,2,B|320:272|264:216,1,100
192,144,194796,1,2
304,80,195231,5,2
368,80,195448,1,0
424,48,195665,2,2,B|480:88|456:152,1,100
496,192,196317,1,0
448,240,196535,1,2
384,232,196752,2,0,B|360:168,1,50,0|2
304,168,197187,1,0
256,216,197404,2,2,B|208:168|160:216,1,100
112,176,198057,5,0
112,176,198202,1,0
112,176,198274,1,2
72,120,198491,1,2
72,120,198636,1,0
72,120,198709,1,6
368,72,212622,6,0,B|304:72,1,50,2|0
272,120,213057,2,2,B|224:176|168:184,1,100
128,184,213709,1,0
80,232,213926,2,0,B|40:288,1,50,2|0
104,312,214361,2,0,B|144:344,1,50,2|0
208,328,214796,2,2,B|192:272|248:216,1,100
320,144,215665,1,2
208,80,216100,5,2
144,80,216317,1,0
88,48,216535,2,2,B|32:88|56:152,1,100
16,192,217187,1,0
64,240,217404,1,2
128,240,217622,5,0
176,112,218057,1,0
304,80,218491,1,0
400,168,218926,1,0
376,296,219361,1,0
136,192,220231,5,0
136,192,220448,1,8
104,136,220665,1,0
104,136,220883,1,8
120,72,221100,1,8
120,72,221317,2,0,B|144:32|192:48,2,75
136,192,222404,1,0
136,192,222622,2,0,B|176:256|224:248,1,100,0|2
213,248,223419,1,2
213,248,223709,2,2,B|301:280|421:216|373:72,1,300,0|0
144,312,226535,5,0
272,312,226970,1,8
208,200,227404,1,0
208,72,227839,2,0,B|208:136,1,50,8|0
336,144,228491,1,0
376,192,228709,1,8
400,248,228926,1,0
376,304,229144,2,0,B|352:344|272:336,1,100,0|8
240,296,229796,2,0,B|240:232|176:216,1,100
136,264,230448,5,8
136,264,230665,1,0
77,218,230883,2,0,B|45:170|93:114,2,100,0|8|0
136,264,231970,1,0
248,336,232404,1,0
360,264,232839,1,0
248,192,233274,1,0
56,336,234144,5,0
56,336,234361,1,8
104,288,234578,2,0,B|168:272|184:216,1,100
200,168,235231,2,0,B|240:104|296:104,2,100,8|0|8
240,216,236317,2,0,B|296:216,2,50,0|0|0
192,264,236970,2,0,B|160:312|128:312,2,75,8|0|0
256,192,237839,12,4,239144
208,306,240448,6,0,B|261:345|310:298,2,100,0|8|0
208,176,241752,2,0,B|169:123|216:74,2,100,8|0|8
248,224,242839,1,0
296,264,243057,2,0,B|352:304|288:360,1,100,0|8
152,224,244144,5,0
152,224,244288,1,0
152,224,244361,2,0,B|104:176|160:120,1,100,8|0
200,96,245013,1,0
200,96,245231,1,8
256,64,245448,1,0
344,160,245883,1,0
256,256,246317,1,0
168,160,246752,2,0,B|104:160|104:232,1,100
256,344,247839,5,8
304,296,248057,1,0
304,232,248274,1,0
256,184,248491,1,0
208,232,248709,1,8
208,296,248926,1,0
256,344,249144,2,0,B|344:344,2,75
128,344,250231,2,0,B|64:296|64:256,1,100
48,208,250883,5,0
48,208,251245,1,0
48,208,251535,2,0,B|96:48|264:24|360:152,1,400
256,192,253491,12,4,254306
