osu file format v7

[General]
AudioFilename: 02 - The Dirty of Loudness.mp3
AudioLeadIn: 3000
PreviewTime: 25072
Countdown: 1
SampleSet: Normal
StackLeniency: 0.7
Mode: 0
LetterboxInBreaks: 1
EpilepsyWarning: 1

[Editor]
DistanceSpacing: 1.20000004768372
BeatDivisor: 4
GridSize: 8

[Metadata]
Title:The Dirty of Loudness
Artist:Tatsh Assault X
Creator:happy30
Version:Hyper
Source:beatmaniaIIDX 13 DistorteD
Tags:beatmaniaIIDX DistorteD DJ Killer

[Difficulty]
HPDrainRate:4
CircleSize:4
OverallDifficulty:6
SliderMultiplier:1.6
SliderTickRate:2

[Events]
//Background and Video events
0,0,"thedirtyofloudness_bg.png"
//Break Periods
//Storyboard Layer 0 (Background)
//Storyboard Layer 1 (Fail)
//Storyboard Layer 2 (Pass)
//Storyboard Layer 3 (Foreground)
//Storyboard Sound Samples
//Background Colour Transformations
3,100,0,0,0

[TimingPoints]
3254,363.636363636364,4,1,0,70,1,0
24170,-200,4,1,0,40,0,0
24989,-100,4,1,0,70,0,0
53254,-200,4,1,0,39,0,0
54072,-100,4,1,0,70,0,0
57072,-200,4,1,0,70,0,0
58526,-100,4,1,0,70,0,0
82890,-100,4,1,0,45,0,0
95617,-100,4,1,0,24,0,0

[Colours]
Combo1 : 192,192,192
Combo2 : 128,0,0

[HitObjects]
256,192,344,1,0
256,192,526,1,0
256,192,1072,12,4,2890
256,328,3254,5,0
408,280,3617,1,0
272,192,3981,1,0
408,104,4344,1,0
256,328,4708,5,4
104,280,5071,1,0
240,192,5435,1,0
104,104,5798,1,0
256,48,6163,6,0,B|328:120|408:72,1,160,4|0
456,128,6708,1,0
392,168,6890,2,0,B|320:240|368:320,1,160
280,320,7435,1,0
200,320,7617,5,4
200,320,7799,1,0
200,320,7981,1,0
120,328,8163,2,0,B|120:280,1,40
80,216,8435,2,0,B|128:216,1,40
200,216,8708,1,0
280,216,8890,1,0
344,264,9072,6,0,B|432:208,1,80
368,152,9435,2,0,B|312:64,1,80,0|0
256,120,9799,2,0,B|168:176,1,80,0|0
232,224,10163,2,0,B|288:312,1,80,0|0
200,312,10526,2,0,B|112:360|40:320,1,160
48,160,11254,5,2
48,160,11526,1,2
168,160,11799,1,2
248,160,11981,6,0,B|304:72,1,80,4|0
360,136,12344,2,0,B|448:192,1,80,0|0
392,248,12708,2,0,B|336:336,1,80,0|0
288,272,13072,2,0,B|200:216,1,80,0|0
224,152,13435,6,0,B|168:64,1,80,4|0
112,128,13798,2,0,B|24:184,1,80,0|0
80,240,14162,2,0,B|136:328,1,80,0|0
184,264,14526,2,0,B|272:208,1,80,0|0
312,280,14890,6,0,B|416:280,2,80,4|0|0
256,336,15435,1,0
176,336,15617,2,0,B|80:336,2,80
256,336,16163,1,0
336,336,16344,2,0,B|424:336,2,80,4|0|0
256,336,16890,1,0
200,280,17072,2,0,B|96:280,2,80
256,216,17617,1,0
176,192,17799,5,4
256,56,18163,1,0
336,192,18526,1,4
256,328,18890,1,0
176,192,19254,2,0,B|144:104,1,80
224,120,19617,2,0,B|200:32,1,80
288,120,19981,2,0,B|312:32,1,80
336,192,20344,2,0,B|368:104,1,80
256,176,20708,5,4
256,256,20890,1,0
256,336,21072,1,0
256,336,21254,1,0
256,336,21435,1,0
256,256,21617,2,0,B|256:208,4,40
256,344,22163,6,0,B|256:392,3,40
96,192,22890,6,0,B|48:192,3,40
416,192,23617,6,0,B|464:192,3,40
256,248,24344,6,0,B|232:200|288:184|256:128,1,120
256,56,25072,6,0,B|256:8,3,40
392,192,25799,2,0,B|440:192,3,40
120,192,26526,2,0,B|72:192,3,40
256,192,26890,12,4,27617
256,40,27981,6,0,B|296:128,1,80,4|0
368,104,28344,2,0,B|408:144|384:192,1,80
352,200,28617,2,0,B|272:272,1,80
256,280,28890,1,0
256,200,29072,1,0
256,120,29254,1,0
256,40,29435,6,0,B|216:128,1,80
144,104,29798,2,0,B|104:144|128:192,1,80
160,200,30072,2,0,B|240:272,1,80
256,280,30345,1,0
256,200,30526,1,0
256,120,30708,1,0
256,40,30890,5,4
336,40,31072,1,0
400,88,31254,2,0,B|344:152,1,80
384,168,31526,2,0,B|432:232|392:272,1,80
392,280,31799,1,0
328,224,31981,1,0
256,192,32163,1,0
192,240,32344,1,4
192,320,32526,1,0
256,360,32708,1,0
408,312,33072,5,2
104,312,33435,1,2
72,104,33799,6,0,B|104:24,1,80,4|0
184,32,34163,2,0,B|216:120,1,80
232,144,34435,2,0,B|264:32,1,80
264,32,34708,1,0
320,88,34890,1,0
368,152,35072,1,0
368,232,35254,6,0,B|336:312,1,80,0|0
256,304,35618,2,0,B|224:216,1,80
208,192,35890,2,0,B|176:304,1,80
176,304,36163,1,0
120,248,36345,1,0
72,184,36527,1,0
120,120,36708,6,0,B|160:96|168:48,1,80,4|0
248,56,37072,2,0,B|248:104|312:128,1,80
328,128,37344,2,0,B|304:240,1,80
304,248,37617,1,0
288,328,37799,1,0
288,328,37981,1,0
208,296,38163,2,0,B|40:296,1,160
112,152,38890,5,2
208,152,39072,1,2
304,152,39254,1,2
400,152,39435,1,2
400,152,39617,6,0,B|432:240,1,80,4|0
344,240,39981,2,0,B|376:328,1,80,0|0
112,152,40344,6,0,B|80:240,1,80
168,240,40708,2,0,B|136:328,1,80,0|0
384,64,41072,6,0,B|472:32,1,80,0|0
400,152,41435,2,0,B|496:160,1,80
128,64,41799,6,0,B|40:32,1,80
112,152,42162,2,0,B|16:160,1,80
40,240,42526,5,4
72,312,42708,1,0
144,344,42890,1,0
224,328,43072,1,0
280,272,43254,1,0
296,192,43435,1,0
264,120,43617,1,0
256,40,43799,1,0
184,80,43981,2,0,B|136:160|208:248,1,160,0|0
256,280,44526,1,0
328,320,44708,2,0,B|376:240|304:152,1,160,0|0
136,320,45435,6,0,B|48:264|64:168,1,160
376,64,46163,6,0,B|464:120|448:216,1,160
144,320,46890,6,0,B|56:264|72:168,1,160
368,64,47618,6,0,B|456:120|440:216,1,160
160,320,48344,6,0,B|72:264|88:168,1,160
352,64,49072,6,0,B|440:120|424:216,1,160
256,120,49799,6,0,B|168:256,1,160
256,120,50526,2,0,B|344:256,1,160,0|0
256,40,51254,6,0,B|256:-8,3,40
96,192,51981,6,0,B|48:192,3,40
416,192,52708,6,0,B|464:192,3,40
256,136,53435,6,0,B|232:184|288:200|256:256,1,120
256,328,54163,6,0,B|256:376,3,40
392,192,54890,2,0,B|440:192,3,40
120,192,55617,2,0,B|72:192,3,40
256,192,55981,12,0,56708
256,288,57072,6,0,B|208:288,2,40
248,248,57617,1,0
224,216,57799,2,0,B|272:216,1,40
264,176,58163,1,0
256,136,58344,1,0
256,56,58526,5,0
256,56,58708,1,0
160,80,58890,1,0
160,80,59072,1,0
120,168,59254,1,0
120,168,59435,1,0
144,264,59617,1,0
144,264,59799,1,0
80,336,59981,6,0,B|40:256,2,80
144,264,60526,1,0
232,224,60708,2,0,B|328:224,1,80
392,272,61072,1,0
392,176,61254,1,0
312,224,61435,2,0,B|288:136,3,80
264,56,62163,1,0
168,72,62344,1,0
216,152,62526,1,0
120,176,62708,1,0
176,248,62890,6,0,B|208:336,1,80
112,344,63254,2,0,B|56:272,1,80
336,248,63617,6,0,B|304:336,1,80
422,267,63981,2,0,B|472:352,1,80
176,136,64344,6,0,B|208:48,1,80
112,40,64708,2,0,B|48:112,1,80
336,136,65071,6,0,B|304:48,1,80
422,116,65435,2,0,B|440:32,1,80
422,116,65799,6,0,B|424:208,1,80
320,320,66163,2,0,B|320:232,1,80
256,96,66526,2,0,B|256:184,1,80
200,328,66890,2,0,B|200:240,1,80
90,116,67254,2,0,B|88:208,3,80
144,272,67981,1,0
184,184,68163,1,0
160,88,68344,1,0
216,8,68526,1,0
256,104,68708,6,0,B|256:152,15,40
256,144,70163,2,0,B|256:192,15,40
256,184,71617,2,0,B|256:232,15,40
256,224,73072,2,0,B|256:272,15,40
256,264,74526,5,0
256,264,74708,1,0
160,264,74890,1,0
160,264,75072,1,0
64,264,75254,1,0
64,264,75435,1,0
64,264,75617,1,0
256,184,75981,5,0
256,184,76163,1,0
352,184,76345,1,0
352,184,76527,1,0
448,184,76709,1,0
448,184,76890,1,0
448,184,77072,1,0
360,56,77435,5,0
312,136,77617,1,0
216,152,77799,1,0
152,80,77981,1,0
56,88,78163,1,0
16,176,78344,1,0
48,264,78526,1,0
136,288,78708,1,0
224,248,78890,2,0,B|272:248,15,40
