osu file format v7

[General]
AudioFilename: 02 - The Dirty of Loudness.mp3
AudioLeadIn: 3000
PreviewTime: 25072
Countdown: 1
SampleSet: Normal
StackLeniency: 0.7
Mode: 0
LetterboxInBreaks: 1
EpilepsyWarning: 1

[Editor]
DistanceSpacing: 1
BeatDivisor: 4
GridSize: 8

[Metadata]
Title:The Dirty of Loudness
Artist:Tatsh Assault X
Creator:happy30
Version:Beginner
Source:beatmaniaIIDX 13 DistorteD
Tags:beatmaniaIIDX DistorteD DJ Killer

[Difficulty]
HPDrainRate:3
CircleSize:3
OverallDifficulty:5
SliderMultiplier:1
SliderTickRate:1

[Events]
//Background and Video events
0,0,"thedirtyofloudness_bg.png"
//Break Periods
//Storyboard Layer 0 (Background)
//Storyboard Layer 1 (Fail)
//Storyboard Layer 2 (Pass)
//Storyboard Layer 3 (Foreground)
//Storyboard Sound Samples
//Background Colour Transformations
3,100,0,0,0

[TimingPoints]
344,363.636363636364,4,1,0,70,1,0
24170,-200,4,1,0,40,0,0
24989,-100,4,1,0,70,0,0
53254,-200,4,1,0,39,0,0
54072,-100,4,1,0,70,0,0
57071,-200,4,1,0,70,0,0
58525,-100,4,1,0,70,0,0
82890,-100,4,1,0,45,0,0
95617,-100,4,1,0,24,0,0

[Colours]
Combo1 : 192,192,192
Combo2 : 128,0,0

[HitObjects]
256,272,344,1,0
256,272,526,1,0
256,192,708,12,4,2890
184,296,3253,6,0,B|128:296|80:224,2,100
256,112,4707,1,4
328,296,6162,6,0,B|384:296|432:224,2,100
128,296,7616,2,0,B|64:296,2,50,4|0|0
344,88,9071,6,0,B|232:112,1,100
152,144,9798,2,0,B|264:168,1,100
344,192,10525,2,0,B|232:216,1,100
160,256,11253,2,0,B|240:256,2,75,0|0|0
112,256,11980,6,0,B|32:160|128:64,1,200
208,120,13071,2,0,B|208:232,1,100,0|4
304,264,14525,6,0,B|304:152,1,100,0|4
104,192,15616,1,0
408,192,16344,1,4
256,64,17071,1,0
256,304,17799,5,4
256,224,18162,1,0
256,144,18525,1,0
256,64,18889,1,0
176,104,19253,6,0,B|128:136|160:208,1,100,4|0
320,208,19980,2,0,B|368:240|336:312,1,100
256,328,20707,2,0,B|256:264,4,50
168,144,22162,6,0,B|144:104,3,25
256,48,22889,2,0,B|256:16,3,25
344,144,23616,2,0,B|368:104,3,25
168,240,25071,6,0,B|144:280,3,25
256,336,25798,2,0,B|256:368,3,25
344,240,26525,2,0,B|368:280,3,25
160,160,27980,6,0,B|264:120,1,100
336,184,28707,2,0,B|232:224,1,100
152,264,29434,1,0
336,336,30163,1,0
352,160,30889,6,0,B|248:120,1,100
176,184,31616,2,0,B|280:224,1,100
360,264,32343,1,0
176,336,33072,1,2
176,336,33435,1,2
120,256,33798,6,0,B|96:208|120:144,1,100
200,104,34525,2,0,B|224:152|200:216,1,100
104,216,35253,2,0,B|160:104|296:184,1,200
312,264,36344,1,0
384,192,36707,6,0,B|408:144|384:80,1,100
304,40,37434,2,0,B|280:88|304:152,1,100
256,224,38162,1,0
256,224,38889,2,0,B|256:288,3,50,2|2|2|2
256,320,39616,5,4
160,344,39980,1,0
88,280,40344,1,0
104,184,40707,1,0
184,248,41071,2,0,B|272:176,1,100
352,224,41798,2,0,B|264:296,1,100
368,328,42525,5,0
384,232,42888,1,0
312,168,43252,1,0
216,192,43616,1,0
288,264,43980,2,0,B|200:336,1,100
112,296,44707,2,0,B|200:224,1,100
256,160,45434,5,0
256,160,45798,1,0
256,160,46162,2,0,B|256:272,1,100
256,360,46889,5,0
256,360,47253,1,0
256,360,47616,2,0,B|256:256,1,100
344,192,48344,5,0
168,192,49071,1,0
296,32,49798,6,0,B|320:88|288:136,1,100
240,208,50525,2,0,B|216:264|248:312,1,100
328,256,51253,6,0,B|360:256,3,25
184,192,51980,2,0,B|152:192,3,25
328,128,52707,2,0,B|360:128,3,25
184,256,54162,6,0,B|152:256,3,25
328,192,54889,2,0,B|360:192,3,25
184,128,55616,2,0,B|152:128,3,25
256,304,57071,6,0,B|272:272|232:224|264:184,1,100
344,168,58525,6,0,B|304:64,1,100
168,216,59253,2,0,B|208:320,1,100
296,280,59980,1,0
392,312,60344,1,0
376,216,60707,1,0
376,216,61071,1,0
376,216,61434,6,0,B|264:256,1,100
136,168,62162,2,0,B|248:128,1,100
312,192,62889,5,0
312,192,63253,1,0
216,232,63616,1,0
216,232,63980,1,0
280,304,64344,1,0
280,304,64707,1,0
280,304,65071,2,0,B|256:192,1,100
232,112,65798,5,0
464,224,66525,6,0,B|352:256,1,100
272,216,67253,2,0,B|160:184,1,100,4|0
80,224,67980,1,0
80,224,68344,1,0
256,192,68707,12,4,70162
256,200,70889,5,0
256,192,71616,12,4,73071
256,192,73434,5,0
256,296,73798,1,0
256,296,74162,1,0
336,240,74525,6,0,B|368:192|336:136,1,100,4|0
176,80,75253,2,0,B|144:128|176:184,1,100
336,312,75980,2,0,B|368:264|336:208,1,100,4|0
176,152,76708,2,0,B|144:200|176:256,1,100
256,304,77434,5,4
256,200,77798,1,0
256,96,78162,1,0
256,96,78525,1,0
256,96,78889,6,0,B|256:48,15,25
