osu file format v5

[General]
AudioFilename: xepher.mp3
AudioLeadIn: 0
PreviewTime: -1
Countdown: 2
SampleSet: Normal
StackLeniency: 0.7
Mode: 0
EditorBookmarks: 12114,27636,38925,53036,68558,79847,92548,105953,108070,116537,117948

[Metadata]
Title:xepher
Artist:Tatsh
Creator:Devault
Version:Normal
Source:
Tags:

[Difficulty]
HPDrainRate:4
CircleSize:5
OverallDifficulty:4
SliderMultiplier:1.5
SliderTickRate:2

[Events]
//Background and Video events
1,0,"xepher.avi"
//Break Periods
2,12314,26886
2,79871,91948
2,105448,107470
//Storyboard Layer 0 (Background)
//Storyboard Layer 1 (Failing)
//Storyboard Layer 2 (Passing)
//Storyboard Layer 3 (Foreground)
//Storyboard Sound Samples
//Background Colour Transformations
3,100,163,162,255

[TimingPoints]
120,352.781895723265,4,1,0,59
32928,352.781895723265,4,1,0,59

[HitObjects]
128,96,825,1,0
208,96,1178,1,0
288,96,1531,1,0
368,96,1883,1,4
368,176,2236,5,0
288,176,2589,1,0
208,176,2942,1,0
128,176,3295,1,4
128,256,3647,5,0
208,256,4000,1,0
288,256,4353,1,0
368,256,4706,1,4
320,192,5058,5,0
240,192,5411,1,0
160,192,5764,1,0
80,192,6117,1,4
112,128,6470,5,0
192,128,6822,1,0
272,128,7175,1,0
352,128,7528,1,4
352,208,7881,5,0
288,272,8233,1,0
224,208,8586,1,0
160,272,8939,1,4
160,208,9292,5,0
192,128,9645,1,0
272,96,9997,1,0
336,144,10350,1,4
256,192,10703,2,0,L|384:336|464:240|464:64|336:64,1,600
112,96,27636,6,0,L|112:352,2,225
224,96,29048,6,0,L|224:352,2,225
304,96,30459,6,0,L|304:352,2,225
384,320,31870,5,2
384,240,32223,1,2
384,160,32575,1,2
384,80,32928,1,2
288,80,33280,6,0,L|288:336,2,225
208,80,34691,6,0,L|208:336,2,225
128,80,36103,6,0,L|128:336,2,225
208,80,37514,5,0
288,80,37866,1,0
368,80,38219,2,0,L|368:128,7,37.5
368,208,39630,5,2
288,208,39983,1,2
208,208,40336,1,2
208,112,41041,5,0
288,112,41394,1,0
368,112,41747,1,0
208,192,42453,5,2
288,192,42806,1,2
368,192,43159,1,2
368,272,43864,6,0,L|192:272,1,150
144,272,44569,5,0
144,192,45275,5,0
224,192,45628,1,0
304,192,45981,1,0
208,112,46686,5,0
288,112,47039,1,0
368,112,47392,1,0
368,192,47744,6,0,L|208:192,2,150
368,256,48803,2,4,L|208:256,1,150
368,320,49508,2,4,L|208:320,1,150
144,320,50214,5,0
144,256,50567,1,0
144,192,50919,1,0
144,128,51272,1,0
208,128,51625,6,4,L|256:128,15,37.5
384,112,53742,5,0
384,176,54094,1,0
384,240,54447,2,0,L|208:240,1,150
176,240,55153,1,4
112,64,55858,6,0,L|112:224,1,150
112,272,56564,1,0
176,272,56917,1,0
240,272,57269,1,0
304,272,57622,1,4
304,208,57975,1,0
304,144,58328,1,4
304,80,58681,6,0,L|128:80,1,150
160,144,59386,1,0
160,208,59739,1,0
160,272,60092,1,4
304,272,60797,5,0
304,208,61150,1,0
304,144,61503,2,0,L|144:144,1,150
160,208,62208,1,0
160,272,62914,6,0,L|480:272,1,300
464,144,64325,2,0,L|144:144,1,300
256,64,65736,5,0
256,128,66089,1,4
256,192,66442,1,4
256,256,66795,1,4
320,256,67147,1,4
320,192,67500,1,4
320,128,67853,1,4
256,128,68206,1,4
256,192,68558,6,0,L|16:192,2,225
256,80,69970,6,0,L|16:80,2,225
256,160,71381,6,0,L|16:160,2,225
320,160,72792,5,0
320,224,73145,1,0
256,224,73497,1,0
256,160,73850,1,0
256,96,74203,6,0,L|16:96,2,225
256,176,75614,6,0,L|16:176,2,225
256,256,77025,6,0,L|16:256,2,225
336,256,78436,5,0
336,192,78789,1,0
336,128,79142,1,0
272,128,79495,1,0
256,48,92548,6,0,L|256:208,1,150
256,272,93253,1,4
144,272,93606,1,4
64,272,93959,2,0,L|64:112,1,150
160,160,94664,1,4
224,160,95017,1,4
256,112,95370,2,0,L|384:208,1,150
304,224,96075,1,4
240,224,96428,1,4
272,272,96781,6,0,L|112:272,1,150
112,208,97487,6,0,L|272:208,1,150
256,128,98192,5,0
192,192,98898,1,0
256,192,99250,1,0
320,192,99603,1,0
336,272,100309,6,0,L|160:272,1,150
112,208,101014,6,0,L|448:208,1,300
432,80,102426,6,0,L|144:288,1,300
176,80,103837,6,0,L|464:304,1,300
80,320,108070,5,4
144,320,108422,1,4
208,320,108775,1,4
272,320,109128,2,4,L|352:320,1,75
352,256,109481,5,4
352,192,109834,1,4
352,128,110186,1,4
352,64,110540,6,4,L|256:64,1,75
208,64,110892,1,4
144,64,111245,1,4
80,64,111598,1,4
80,128,111951,6,4,L|80:208,1,75
80,272,112303,1,4
144,272,112656,1,4
208,272,113009,1,4
272,272,113362,5,4
272,272,113538,1,4
336,272,113715,5,4
336,208,114067,1,4
336,144,114420,1,4
336,80,114773,1,4
336,80,114949,1,4
256,192,115126,12,4,117948
