osu file format v5

[General]
AudioFilename: xepher.mp3
AudioLeadIn: 0
PreviewTime: -1
Countdown: 2
SampleSet: Normal
StackLeniency: 0.7
Mode: 0
EditorBookmarks: 12114,27636,38925,53036,68558,79847,92548,105953,108070,116537,117948

[Metadata]
Title:xepher
Artist:Tatsh
Creator:Devault
Version:Hard
Source:
Tags:

[Difficulty]
HPDrainRate:5
CircleSize:6
OverallDifficulty:9
SliderMultiplier:1.3
SliderTickRate:2

[Events]
//Background and Video events
1,0,"xepher.avi"
//Break Periods
2,12314,26886
2,79871,91948
//Storyboard Layer 0 (Background)
//Storyboard Layer 1 (Failing)
//Storyboard Layer 2 (Passing)
//Storyboard Layer 3 (Foreground)
//Storyboard Sound Samples
//Background Colour Transformations
3,100,163,162,255

[TimingPoints]
120,352.781895723265,4,1,0,100
32928,352.781895723265,4,1,0,100

[HitObjects]
160,64,825,2,0,L|352:64,1,130
320,64,1531,2,0,L|320:224,1,130
320,224,2236,2,0,L|224:352,1,130
192,320,2942,2,0,L|192:160,1,130
192,128,3647,2,0,L|352:128,1,130
352,128,4353,6,0,L|352:288,1,130
352,288,5058,2,0,L|224:192,1,130
224,192,5764,2,0,L|320:64,1,130
352,64,6470,6,0,L|192:64,1,130
160,64,7175,2,0,L|160:224,1,130
160,256,7881,2,0,L|256:352,1,130
320,352,8586,2,0,L|320:160,1,130
320,160,9292,6,4,L|160:160,1,130
128,160,9997,6,4,L|128:320,1,130
160,352,10703,6,4,L|320:352,1,130
256,288,11409,6,4,L|256:96,2,130
96,64,27636,5,0
160,64,27901,1,0
224,64,28166,1,0
288,64,28430,1,4
352,64,28695,1,4
416,128,29048,5,0
352,176,29312,1,0
288,208,29577,1,0
224,240,29841,1,0
160,288,30106,1,4
128,240,30282,1,4
160,192,30459,5,0
192,128,30723,1,0
256,128,30988,1,0
224,192,31253,1,0
288,192,31517,1,4
320,256,31870,5,0
272,272,32046,1,0
224,272,32223,1,0
176,256,32399,1,0
144,224,32575,1,0
144,176,32752,1,0
176,144,32928,1,0
208,112,33104,1,0
224,64,33280,5,0
256,128,33545,1,0
256,192,33809,1,0
256,256,34074,1,0
256,320,34339,1,4
352,288,34691,5,0
384,224,34956,1,0
416,160,35221,1,0
384,96,35485,1,0
336,48,35750,1,4
320,96,35926,1,4
256,96,36103,5,4
192,128,36367,1,4
128,160,36632,1,4
64,192,36896,1,4
128,224,37161,1,4
256,160,38219,6,4,L|256:256,3,65
192,224,38925,5,2
288,224,39278,1,2
384,224,39630,1,0
384,160,39807,1,0
384,160,39866,1,0
325,128,40160,1,0
256,124,40336,5,2
152,131,40689,1,2
90,214,41041,1,0
136,237,41218,1,0
186,248,41394,1,0
237,241,41571,1,0
284,220,41747,5,2
353,297,42100,1,2
432,230,42453,1,0
413,180,42629,1,0
413,180,42688,1,0
368,128,42982,1,0
320,96,43158,1,0
236,103,43511,1,0
128,96,43864,6,4,L|128:192,1,65
128,224,44217,2,4,L|224:224,1,65
231,259,44569,5,2
320,224,44922,1,2
425,212,45275,1,0
402,164,45451,1,0
402,164,45510,1,0
352,112,45804,1,0
304,96,45980,1,0
212,102,46333,1,0
210,206,46686,1,0
240,256,46862,1,0
240,256,46951,1,0
272,320,47215,1,0
314,317,47392,5,0
360,294,47568,1,0
360,242,47744,1,0
328,200,47921,1,0
293,161,48097,1,0
209,98,48450,1,0
172,195,48803,5,0
173,246,48979,1,0
207,284,49155,1,0
255,304,49332,1,0
304,319,49508,2,0,L|340:244,1,65
360,216,49861,6,0,L|352:130,1,65
330,104,50214,5,0
288,64,50390,1,0
245,65,50567,1,0
199,65,50743,1,0
153,65,50919,1,0
106,64,51096,1,0
106,110,51272,1,0
106,152,51449,1,0
106,199,51625,1,0
107,248,51801,1,0
105,291,51978,1,0
151,292,52154,1,0
194,293,52331,1,0
242,293,52507,1,0
289,297,52683,1,0
330,297,52860,1,0
384,288,53036,6,0,L|384:128,1,130
279,193,53742,1,0
205,119,54094,1,0
119,59,54447,2,0,L|120:205,1,130
160,280,55153,1,0
263,292,55506,1,0
251,188,55858,2,0,L|355:95,1,130
398,192,56564,1,0
351,285,56917,1,0
256,320,57269,2,0,L|128:256,1,130
128,192,57975,2,4,L|128:32,1,130
224,64,58681,6,0,L|224:224,1,130
353,220,59386,5,0
300,309,59739,1,0
192,320,60092,2,0,L|96:224,1,130
178,195,60797,1,0
256,160,61150,2,0,L|384:96,1,130
402,192,61856,1,0
318,253,62208,2,0,L|178:273,1,130
160,192,62914,6,0,L|256:96,1,130
317,67,63620,2,0,L|315:201,1,130
288,288,64325,2,0,L|128:288,1,130
160,192,65031,2,0,L|320:192,1,130
254,88,65736,1,0
333,155,66089,2,4,L|332:293,1,130
256,288,66795,2,4,L|96:288,1,130
128,192,67500,2,4,L|288:192,1,130
256,96,68206,2,4,L|416:96,1,130
376,165,68823,5,0
329,227,69088,1,0
264,270,69352,1,0
187,286,69617,1,4
183,181,69970,5,0
259,193,70234,1,0
330,224,70499,1,0
390,273,70763,1,0
414,198,71028,1,4
387,153,71204,1,4
349,116,71381,5,0
283,157,71645,1,0
219,202,71910,1,0
151,240,72174,1,0
106,175,72439,1,4
159,85,72792,2,2,L|231:64,1,65
299,71,73145,2,2,L|369:112,1,65
359,155,73497,2,2,L|360:248,1,65
326,259,73850,2,2,L|259:287,1,65
215,297,74203,5,0
150,253,74468,1,0
141,175,74732,1,0
169,102,74997,1,0
229,150,75261,1,4
332,156,75614,1,0
380,94,75879,1,0
422,159,76143,1,0
419,237,76408,1,0
358,285,76672,1,4
307,296,76849,1,4
255,298,77025,5,0
176,298,77290,1,0
99,281,77554,1,0
64,211,77819,1,0
131,171,78084,1,4
234,172,78436,1,4
338,174,78789,1,4
255,109,79142,6,6,L|254:189,3,65
380,64,92548,6,0,L|380:206,1,130
380,298,93253,1,0
288,288,93606,1,0
192,256,93959,2,0,L|192:96,1,130
128,128,94664,2,0,L|128:288,1,130
64,320,95370,6,0,L|224:320,1,130
256,320,96075,1,0
320,320,96428,1,0
320,256,96781,2,4,L|320:96,1,130
320,64,97487,2,4,L|160:64,1,130
160,128,98192,6,0,L|64:224,1,130
128,288,98898,1,0
224,288,99250,1,0
320,288,99603,2,0,L|320:128,1,130
320,96,100309,1,0
224,96,100662,1,0
224,160,101014,2,0,L|224:320,1,130
224,352,101720,1,0
320,352,102073,2,0,L|320:192,1,130
256,192,102778,12,4,105953
224,160,106659,2,4,L|320:256,1,130
288,128,107364,2,4,L|384:224,1,130
448,320,108070,5,0
400,320,108246,1,0
352,320,108423,1,0
304,320,108599,1,0
256,320,108776,1,0
208,320,108952,1,0
160,320,109128,1,0
112,320,109305,1,0
112,272,109481,5,0
160,272,109658,1,0
208,272,109834,1,0
256,272,110010,1,0
304,272,110187,1,0
352,272,110363,1,0
400,272,110540,1,0
448,272,110716,1,0
448,224,110892,5,0
400,224,111069,1,0
352,224,111245,1,0
304,224,111421,1,0
256,224,111598,1,0
208,224,111774,1,0
160,224,111951,1,0
112,224,112127,1,0
112,176,112303,5,0
160,176,112480,1,0
208,176,112656,1,0
256,176,112833,1,0
304,176,113009,1,0
352,176,113185,1,0
400,176,113362,1,0
448,176,113538,1,0
448,128,113715,5,0
400,128,113891,1,0
352,128,114067,1,0
304,128,114244,1,0
256,128,114420,1,0
208,128,114597,1,0
160,128,114773,1,0
112,128,114949,1,0
256,192,115478,12,4,117948
