osu file format v5

[General]
AudioFilename: xepher.mp3
AudioLeadIn: 0
PreviewTime: -1
Countdown: 2
SampleSet: Normal
StackLeniency: 0.7
Mode: 0
EditorBookmarks: 12114,27636,38925,53036,68558,79847,92548,105953,108070,116537,117948

[Metadata]
Title:xepher
Artist:Tatsh
Creator:Devault
Version:Easy
Source:
Tags:

[Difficulty]
HPDrainRate:1
CircleSize:4
OverallDifficulty:3
SliderMultiplier:1
SliderTickRate:2

[Events]
//Background and Video events
1,0,"xepher.avi"
//Break Periods
2,12314,26886
2,79871,91948
//Storyboard Layer 0 (Background)
//Storyboard Layer 1 (Failing)
//Storyboard Layer 2 (Passing)
//Storyboard Layer 3 (Foreground)
//Storyboard Sound Samples
//Background Colour Transformations
3,100,163,162,255

[TimingPoints]
120,352.781895723265,4,1,0,100
32928,352.781895723265,4,1,0,100

[HitObjects]
128,96,825,2,0,B|384:96,1,200
320,192,2236,2,0,B|96:192,1,200
128,288,3647,2,0,B|352:288,1,200
384,288,5058,2,0,B|384:64,1,200
320,64,6470,6,0,B|128:224,1,200
192,256,7881,2,0,B|416:256,1,200
416,160,9292,2,0,B|128:160,1,200
128,160,10703,2,4,B|256:96|384:128|384:256|288:288|160:320,1,400
96,128,27636,6,0,B|288:320|384:192,1,300
384,160,29048,2,0,B|224:32|96:64,1,300
96,128,30459,2,0,B|96:320|256:352,1,300
256,256,31870,1,2
256,160,32575,1,2
256,64,33280,6,0,B|480:64|448:256,1,300
416,288,34691,2,0,B|224:352|96:288,1,300
64,224,36103,2,4,B|160:64|320:64,1,300
256,192,37514,1,4
256,192,38219,1,4
256,96,38925,5,0
384,96,39630,1,0
384,192,40336,1,0
256,192,41041,1,0
128,192,41747,1,0
128,288,42453,1,0
256,288,43158,1,2
320,288,43511,1,2
384,288,43864,1,2
384,192,44569,5,0
288,192,45275,1,0
192,192,45980,1,0
96,192,46686,1,0
160,128,47392,5,0
256,96,48097,1,0
352,128,48803,1,0
256,192,49508,1,0
256,192,50214,12,0,53036
256,96,54447,5,0
256,192,55153,1,0
256,288,55858,2,0,B|32:288|64:160,1,200
160,160,57269,5,4
160,160,57622,1,4
160,160,57975,1,4
256,96,58681,5,0
256,192,59386,1,0
256,288,60092,1,0
352,224,60797,1,0
352,128,61503,2,0,B|160:128|96:192,1,200
128,288,62914,6,0,B|320:256|320:160,1,200
384,256,64325,6,0,B|384:160|320:96|256:96|192:96|128:160|128:288,1,400
256,192,66442,1,4
256,192,67147,1,4
256,192,67853,1,4
96,96,68558,2,0,B|352:256|448:192,1,300
384,128,69970,6,0,B|192:128|64:224,1,300
128,288,71381,6,0,B|256:224|288:32,1,300
352,96,72792,1,2
352,192,73497,1,2
352,288,74203,6,0,B|64:288|32:192,1,300
64,160,75614,6,0,B|192:96|320:64|384:64,1,300
416,64,77025,6,0,B|480:192|256:320,1,300
256,192,78436,12,0,79847
352,64,92548,6,0,B|352:320|256:320,1,200
224,288,93959,1,0
224,192,94664,1,0
224,64,95370,6,0,B|64:96|64:224,1,200
160,256,96781,1,4
256,256,97487,1,4
352,256,98192,6,0,B|352:64|256:64,1,200
192,64,99603,2,0,B|96:160|128:288,1,200
256,224,101014,1,6
256,224,101720,1,6
352,224,102426,6,6,B|352:96|192:96,2,200
256,192,104542,1,4
256,192,105248,1,4
256,192,105953,1,4
256,192,106659,6,4,B|128:192|96:320,1,200
64,320,108070,5,4
192,320,108776,1,4
256,320,109128,1,4
320,320,109481,1,4
320,192,110187,5,4
256,192,110540,1,4
192,192,110892,1,4
192,64,111598,5,4
256,64,111951,1,4
320,64,112303,1,4
480,64,113009,5,4
480,128,113362,1,4
480,192,113715,1,4
416,288,114420,6,4,B|256:192,1,150
256,192,115478,12,4,117948
