osu file format v14

[General]
AudioFilename: reunion.mp3
AudioLeadIn: 0
PreviewTime: 170292
Countdown: 1
SampleSet: Normal
StackLeniency: 0.9
Mode: 0
LetterboxInBreaks: 0
WidescreenStoryboard: 1

[Editor]
Bookmarks: 120727,136379,149422,170292,185944,206813,227683,243335,259639,270725,303916
DistanceSpacing: 1.25
BeatDivisor: 4
GridSize: 32
TimelineZoom: 4.499999

[Metadata]
Title:reunion
TitleUnicode:reunion
Artist:Tatsh
ArtistUnicode:Tatsh
Creator:den0saur
Version:Collab
Source:beatmania IIDX 18 Resort Anthem
Tags:Realazy TatshMusicCircle 清水達也 Tatsuya Shimizu MATERIAL CYBER WALTZ
BeatmapID:1753465
BeatmapSetID:837439

[Difficulty]
HPDrainRate:6
CircleSize:4
OverallDifficulty:8.5
ApproachRate:9.2
SliderMultiplier:1.7
SliderTickRate:1

[Events]
//Background and Video events
0,0,"reunion.jpg",0,0
//Break Periods
//Storyboard Layer 0 (Background)
//Storyboard Layer 1 (Fail)
//Storyboard Layer 2 (Pass)
//Storyboard Layer 3 (Foreground)
//Storyboard Sound Samples

[TimingPoints]
542,461.538461538462,4,2,1,5,1,0
4234,-100,4,2,1,10,0,0
4695,-100,4,2,1,15,0,0
5157,-100,4,2,1,20,0,0
5272,-100,4,2,1,23,0,0
5618,-100,4,2,1,18,0,0
6080,-100,4,2,1,5,0,0
7118,-100,4,2,1,9,0,0
7465,-100,4,2,1,16,0,0
7695,-100,4,2,1,24,0,0
7753,-100,4,2,1,27,0,0
7926,-100,4,2,1,35,0,0
8388,-100,4,2,1,30,0,0
8849,-100,4,2,1,10,0,0
9772,-100,4,2,1,7,0,0
10695,-100,4,2,1,9,0,0
10811,-100,4,2,1,13,0,0
10926,-100,4,2,1,9,0,0
11042,-100,4,2,1,7,0,0
11099,-100,4,2,1,5,0,0
11157,-100,4,2,1,10,0,0
11849,-100,4,2,1,12,0,0
11926,-100,4,2,1,13,0,0
12003,-100,4,2,1,14,0,0
12080,-100,4,2,1,15,0,0
12542,-100,4,2,1,20,0,0
13118,-100,4,2,1,25,0,0
13695,-100,4,2,1,30,0,0
14042,-100,4,2,1,10,0,0
15312,461.538461538462,4,2,1,50,1,0
15312,-333.333333333333,4,2,1,50,0,0
15427,-333.333333333333,4,2,1,30,0,0
19004,-333.333333333333,4,2,1,40,0,0
19119,-333.333333333333,4,2,1,30,0,0
22696,-333.333333333333,4,2,1,50,0,0
22812,-333.333333333333,4,2,1,30,0,0
26388,-333.333333333333,4,2,1,40,0,0
26504,-333.333333333333,4,2,1,30,0,0
30081,-250,4,2,1,65,0,0
30196,-250,4,2,1,50,0,0
33773,-250,4,2,1,45,0,0
37465,-250,4,2,1,40,0,0
38158,-250,4,2,1,38,0,0
38850,-250,4,2,1,36,0,0
39542,-250,4,2,1,34,0,0
40696,-250,4,2,1,32,0,0
41158,-250,4,2,1,30,0,0
41619,-250,4,2,1,25,0,0
42081,-250,4,2,1,28,0,0
42196,-250,4,2,1,29,0,0
42312,-250,4,2,1,30,0,0
42427,-250,4,2,1,31,0,0
42542,-250,4,2,1,32,0,0
42658,-250,4,2,1,34,0,0
42773,-250,4,2,1,36,0,0
42888,-250,4,2,1,38,0,0
43004,-250,4,2,1,40,0,0
44850,-200,4,2,1,50,0,0
45312,-200,4,2,1,40,0,0
50388,-200,4,2,1,60,0,0
50619,-200,4,2,1,40,0,0
57773,-200,4,2,1,30,0,0
58235,-200,4,2,1,40,0,0
59619,-200,4,2,1,45,0,0
66081,-200,4,2,1,40,0,0
67004,-200,4,2,1,50,0,0
68850,-200,4,2,1,60,0,0
68965,-200,4,2,1,50,0,0
71158,-200,4,2,1,40,0,0
72542,-200,4,2,1,45,0,0
73004,-200,4,2,1,35,0,0
73927,-200,4,2,1,43,0,0
74158,-200,4,2,1,50,0,0
76465,-200,4,2,1,10,0,0
76696,-200,4,2,1,20,0,0
76927,-200,4,2,1,25,0,0
77273,-200,4,2,1,35,0,0
77619,-200,4,2,1,50,0,0
78081,-200,4,2,1,5,0,0
78336,326.086956521739,4,2,1,50,1,0
78336,-100,4,2,1,50,0,1
78825,-100,4,2,1,50,0,0
78988,326.086956521739,4,2,1,50,1,0
78988,-133.333333333333,4,2,1,50,0,0
98553,-83.3333333333333,4,2,1,50,0,1
99042,-83.3333333333333,4,2,1,40,0,0
99205,-83.3333333333333,4,2,1,40,0,0
99857,-100,4,1,1,65,0,0
110292,-100,4,1,1,65,0,0
120727,326.086956521739,3,1,1,80,1,1
136379,326.086956521739,4,2,1,70,1,0
138987,-125,4,2,1,60,0,0
149422,-100,4,1,1,65,0,0
170292,326.086956521739,3,1,1,80,1,1
185944,326.086956521739,4,1,1,70,1,0
196378,-117.647058823529,4,2,1,70,0,0
196460,-117.647058823529,4,2,1,55,0,0
205509,-100,4,2,1,45,0,0
206813,-83.3333333333333,4,2,1,65,0,0
227683,326.086956521739,3,2,1,50,1,0
227683,-86.9565217391304,3,1,1,85,0,1
259639,326.086956521739,4,1,1,70,1,0
266079,-100,4,2,1,5,0,0
266160,-100,4,1,1,70,0,0
267383,-100,4,2,1,5,0,0
267465,-100,4,1,1,70,0,0
269747,-100,4,1,1,50,0,0
270073,-100,4,1,1,25,0,0
270399,-100,4,2,1,5,0,0
270725,326.086956521739,3,2,1,40,1,0
270725,-200,3,2,1,40,0,0
273659,337.078651685393,3,2,1,40,1,0
274670,-100,3,2,1,50,0,0
275681,331.491712707182,3,2,1,40,1,0
275681,-100,3,2,1,40,0,0
276675,326.086956521739,3,2,1,40,1,0
277659,329.67032967033,3,2,1,40,1,0
278318,-100,3,2,1,45,0,0
278648,359.281437125748,3,2,1,50,1,0
279007,-100,3,2,1,60,0,0
279366,-100,3,2,1,70,0,0
279725,335.195530726257,3,2,1,70,1,0
280060,-100,3,2,1,50,0,0
280730,-100,3,2,1,55,0,0
281065,-100,3,2,1,47,0,0
281736,-100,3,2,1,43,0,0
282741,335.195530726257,4,2,1,47,1,0
282741,-500,4,2,1,47,0,0
284082,340.909090909091,4,2,1,40,1,0
284422,-100,4,2,1,35,0,0
284763,-100,4,2,1,33,0,0
285104,-100,4,2,1,31,0,0
285445,-100,4,2,1,30,0,0
285786,-100,4,2,1,29,0,0
286127,-100,4,2,1,34,0,0
286840,346.820809248555,4,2,1,30,1,0
286840,-333.333333333333,4,2,1,30,0,0
287533,361.44578313253,4,2,1,35,1,0
287533,-333.333333333333,4,2,1,35,0,0
288255,361.44578313253,4,2,1,40,1,0
288255,-333.333333333333,4,2,1,40,0,0
288977,331.491712707182,4,2,1,50,1,0
289639,361.44578313253,4,2,1,40,1,0
291084,-100,4,2,1,20,0,0
291355,-100,4,2,1,16,0,0
291626,-100,4,2,1,13,0,0
292169,-100,4,2,1,10,0,0
292530,-100,4,2,1,40,0,0
294518,-100,4,2,1,26,0,0
294879,-100,4,2,1,19,0,0
295241,-100,4,2,1,10,0,0
295422,-100,4,2,1,30,0,0
297590,-100,4,2,1,25,0,0
299036,-100,4,2,1,15,0,0
301205,-100,4,2,1,10,0,0
302651,-100,4,2,1,7,0,0
303916,-100,4,2,1,5,0,0

[Colours]
Combo1 : 228,133,135
Combo2 : 132,213,208
Combo3 : 223,140,215
Combo4 : 126,137,231

[HitObjects]
256,192,1465,12,2,14042,0:0:0:0:
56,178,15312,6,0,P|137:160|237:287,1,254.999992218018,4|0,1:3|0:0,0:0:0:0:
135,310,18081,1,2,0:0:0:0:
212,354,18542,1,2,0:0:0:0:
474,72,19004,6,0,P|393:54|293:181,1,254.999992218018,2|0,3:1|0:0,0:0:0:0:
395,204,21773,1,2,0:0:0:0:
318,248,22234,1,2,0:0:0:0:
318,248,22465,1,2,0:0:0:0:
166,360,22696,6,0,B|139:284|170:188|231:256|256:132|230:74,1,305.999990661621,4|0,1:3|0:0,0:0:0:0:
147,85,25927,1,2,0:0:0:0:
320,216,26388,6,0,P|324:302|510:327,1,305.999990661621,2|0,3:1|0:0,0:0:0:0:
467,245,29619,1,2,0:0:0:0:
467,245,30081,6,0,L|462:205,2,34,6|0|0,1:2|0:0|0:0,0:0:0:0:
380,206,30773,2,0,L|385:166,2,34
304,234,31465,2,0,L|299:194,2,34,2|0|0,0:0|0:0|0:0,0:0:0:0:
217,195,32157,2,0,L|222:155,2,34
89,203,32850,2,0,L|122:198,1,34,2|0,0:0|0:0,0:0:0:0:
199,277,33312,2,0,L|165:272,1,34,2|0,1:2|0:0,0:0:0:0:
7,133,33773,6,0,L|12:100,2,34,2|0|0,3:1|0:0|0:0,0:0:0:0:
92,105,34465,2,0,L|88:72,2,34
168,61,35158,2,0,L|172:27,2,34,2|0|0,0:0|0:0|0:0,0:0:0:0:
253,89,35850,2,0,L|248:55,2,34
323,139,36542,2,0,L|372:142,1,34
412,81,37004,1,2,0:0:0:0:
412,81,37235,1,0,0:0:0:0:
244,200,37465,6,0,P|204:205|167:225,1,68,6|0,1:2|0:0,0:0:0:0:
129,289,38158,2,0,P|89:284|52:264,1,68,2|0,0:0|0:0,0:0:0:0:
4,208,38850,2,0,L|0:136,1,68,2|0,0:0|0:0,0:0:0:0:
91,163,39542,1,2,0:0:0:0:
91,163,40004,1,2,0:0:0:0:
150,102,40235,1,2,0:0:0:0:
150,102,40696,2,0,L|189:106,1,34,2|0,1:2|0:0,0:0:0:0:
298,256,41158,6,0,L|411:246,1,102,2|0,3:1|0:0,0:0:0:0:
474,189,42081,5,0,0:0:0:0:
470,172,42196,1,0,0:0:0:0:
464,156,42311,1,0,0:0:0:0:
454,143,42427,1,0,0:0:0:0:
441,132,42542,1,0,0:0:0:0:
426,124,42657,1,0,0:0:0:0:
409,120,42773,1,0,0:0:0:0:
396,122,42888,1,0,0:0:0:0:
396,122,43004,6,0,P|390:88|392:51,1,68,2|0,0:1|0:0,0:0:0:0:
297,175,43927,2,0,P|303:141|301:104,1,68,2|0,0:1|0:0,0:0:0:0:
384,321,44850,5,4,1:2:0:0:
384,321,45312,1,2,0:0:0:0:
318,284,45542,1,0,0:0:0:0:
245,301,45773,1,0,0:0:0:0:
205,364,46004,1,0,0:0:0:0:
132,382,46235,1,2,0:0:0:0:
66,345,46465,1,2,0:0:0:0:
75,140,46696,5,4,0:0:0:0:
75,140,47158,1,2,0:0:0:0:
149,154,47388,1,0,0:0:0:0:
174,225,47619,1,0,0:0:0:0:
124,282,47850,1,0,0:0:0:0:
49,268,48081,1,2,0:0:0:0:
24,196,48312,1,2,0:0:0:0:
253,203,48542,5,4,0:0:0:0:
253,203,49004,1,2,0:0:0:0:
327,219,49235,1,0,0:0:0:0:
365,152,49465,1,0,0:0:0:0:
439,136,49696,1,0,0:0:0:0:
435,59,49927,1,2,0:0:0:0:
498,17,50158,1,2,0:0:0:0:
495,215,50388,6,0,L|499:257,1,42.5,2|0,0:1|0:0,0:0:0:0:
432,294,50850,1,0,0:0:0:0:
432,294,51081,1,0,0:0:0:0:
494,350,51312,1,0,0:0:0:0:
494,350,51543,1,0,0:0:0:0:
346,298,51773,1,0,0:0:0:0:
251,341,52004,1,2,0:0:0:0:
134,231,52235,5,4,0:0:0:0:
134,231,52696,1,2,0:0:0:0:
80,285,52926,1,0,0:0:0:0:
151,312,53157,1,0,0:0:0:0:
205,257,53388,1,0,0:0:0:0:
276,228,53619,1,2,0:0:0:0:
276,228,53850,1,2,0:0:0:0:
419,309,54081,5,4,0:0:0:0:
419,309,54542,1,2,0:0:0:0:
349,338,54772,1,0,0:0:0:0:
273,334,55003,1,0,0:0:0:0:
207,296,55234,1,0,0:0:0:0:
166,233,55465,1,2,0:0:0:0:
157,158,55695,1,2,0:0:0:0:
20,107,55927,5,4,0:0:0:0:
20,107,56388,1,2,0:0:0:0:
96,104,56619,1,0,0:0:0:0:
165,70,56850,1,0,0:0:0:0:
232,106,57081,1,0,0:0:0:0:
285,51,57312,1,2,0:0:0:0:
356,21,57543,1,2,0:0:0:0:
393,189,57773,5,2,0:3:0:0:
393,189,58235,1,2,0:0:0:0:
463,217,58465,1,0,0:0:0:0:
472,293,58696,1,0,0:0:0:0:
411,338,58927,1,0,0:0:0:0:
341,309,59158,1,2,0:0:0:0:
332,234,59389,1,2,0:0:0:0:
216,165,59619,5,4,0:0:0:0:
150,219,59850,1,0,0:0:0:0:
76,185,60081,1,0,0:0:0:0:
76,185,60542,2,0,L|74:137,1,42.5,2|0,0:0|0:0,0:0:0:0:
146,97,61004,1,0,0:0:0:0:
336,68,61465,5,4,0:0:0:0:
402,122,61696,1,0,0:0:0:0:
476,88,61927,1,0,0:0:0:0:
476,88,62388,2,0,L|478:40,1,42.5,2|0,0:0|0:0,0:0:0:0:
406,0,62850,1,0,0:0:0:0:
253,180,63312,5,4,0:0:0:0:
206,249,63542,1,0,0:0:0:0:
282,288,63773,1,0,0:0:0:0:
282,288,64235,2,0,L|331:280,1,42.5,2|0,0:0|0:0,0:0:0:0:
382,342,64696,1,0,0:0:0:0:
512,203,65158,5,4,0:0:0:0:
430,180,65389,1,0,0:0:0:0:
363,231,65620,1,0,0:0:0:0:
365,233,66081,2,0,P|366:255|371:283,1,42.5,2|0,0:0|0:0,0:0:0:0:
286,206,66542,2,0,P|284:182|280:156,1,42.5,2|0,0:0|0:0,0:0:0:0:
73,282,67004,5,4,0:0:0:0:
34,206,67235,1,0,0:0:0:0:
98,151,67465,1,0,0:0:0:0:
98,151,67927,2,0,L|141:166,1,42.5,2|0,0:0|0:0,0:0:0:0:
207,116,68388,1,0,0:0:0:0:
428,260,68850,6,0,B|326:266|367:210|256:214,1,170,2|2,0:1|0:0,0:0:0:0:
269,213,70235,2,0,P|264:238|265:265,1,42.5,2|0,0:0|0:0,0:0:0:0:
233,350,70696,5,4,0:0:0:0:
233,350,71158,1,2,0:0:0:0:
180,284,71388,1,0,0:0:0:0:
102,253,71619,1,0,0:0:0:0:
19,266,71850,1,0,0:0:0:0:
19,266,72081,2,0,L|14:217,1,42.5,2|0,0:0|0:0,0:0:0:0:
271,237,72542,5,4,0:0:0:0:
271,237,73004,1,2,0:0:0:0:
352,214,73234,1,0,0:0:0:0:
401,144,73465,1,0,0:0:0:0:
485,157,73696,1,0,0:0:0:0:
505,47,73927,1,2,0:0:0:0:
512,238,74158,1,2,0:0:0:0:
256,192,76465,12,0,78081,0:0:0:0:
426,254,78336,5,2,0:0:0:0:
391,260,78417,1,2,0:0:0:0:
359,255,78498,1,0,0:0:0:0:
326,241,78580,1,0,0:0:0:0:
294,228,78661,1,0,0:0:0:0:
261,222,78743,1,2,0:0:0:0:
226,233,78824,1,0,0:0:0:0:
226,233,78988,6,0,P|222:169|225:105,1,127.500004863739,4|0,1:0|1:0,0:0:0:0:
224,105,79477,1,0,0:0:0:0:
143,82,79640,2,0,P|109:81|64:86,1,63.7500024318696,0|0,1:0|0:0,0:0:0:0:
203,11,79966,2,0,P|237:12|282:7,1,63.7500024318696,2|0,1:2|0:0,0:0:0:0:
506,147,80292,6,0,P|443:150|379:147,1,127.500004863739,0|0,1:0|1:0,0:0:0:0:
358,232,80781,2,0,L|364:313,1,63.7500024318696,2|0,0:2|1:0,0:0:0:0:
291,169,81107,2,0,L|284:87,1,63.7500024318696,2|0,0:0|1:0,0:0:0:0:
285,105,81433,1,2,0:0:0:0:
0,227,81596,6,0,P|63:229|127:226,1,127.500004863739,0|0,1:0|1:0,0:0:0:0:
149,311,82085,2,0,L|142:392,1,63.7500024318696,0|0,0:0|1:0,0:0:0:0:
143,374,82411,1,2,0:0:0:0:
216,248,82574,2,0,L|222:166,1,63.7500024318696,2|0,1:2|0:0,0:0:0:0:
306,47,82901,6,0,L|217:64,1,63.7500024318696,0|0,1:0|0:0,0:0:0:0:
96,16,83227,2,0,L|185:33,1,63.7500024318696,0|0,1:0|0:0,0:0:0:0:
311,139,83553,1,2,1:2:0:0:
394,50,83715,1,2,1:2:0:0:
512,97,83878,1,2,1:2:0:0:
512,97,84123,5,0,1:0:0:0:
512,97,84205,2,0,P|509:165|511:234,1,127.500004863739,4|0,1:0|1:0,0:0:0:0:
456,286,84694,2,0,L|380:275,1,63.7500024318696,0|0,0:0|1:0,0:0:0:0:
392,276,85020,1,0,0:0:0:0:
277,356,85183,2,0,L|353:345,1,63.7500024318696,2|0,1:2|0:0,0:0:0:0:
296,263,85509,6,0,P|233:263|175:231,1,127.500004863739,0|0,1:0|1:0,0:0:0:0:
156,148,85998,2,0,P|161:114|162:66,1,63.7500024318696,2|0,0:0|1:0,0:0:0:0:
89,211,86324,2,0,P|83:248|82:292,1,63.7500024318696,2|0,0:0|1:0,0:0:0:0:
81,274,86650,1,2,0:2:0:0:
17,150,86814,6,0,P|27:83|30:15,1,127.500004863739,0|0,1:0|1:0,0:0:0:0:
115,31,87303,1,0,0:0:0:0:
115,31,87466,1,0,1:0:0:0:
268,40,87629,2,0,L|196:51,1,63.7500024318696,2|0,0:0|1:0,0:0:0:0:
205,50,87955,1,0,0:0:0:0:
444,282,88118,6,0,P|441:319|442:349,1,63.7500024318696,0|0,1:0|0:0,0:0:0:0:
393,201,88444,2,0,P|396:164|395:134,1,63.7500024318696,0|0,1:0|0:0,0:0:0:0:
361,384,88770,1,2,1:2:0:0:
272,294,88932,1,2,1:2:0:0:
160,342,89095,1,2,1:2:0:0:
160,342,89340,5,0,1:0:0:0:
160,342,89422,2,0,L|73:332,1,63.7500024318696,4|0,1:0|0:0,0:0:0:0:
210,261,89748,2,0,L|297:271,1,63.7500024318696,0|0,1:0|0:0,0:0:0:0:
139,204,90074,2,0,P|142:140|137:76,1,127.500004863739,2|2,1:2|1:2,0:0:0:0:
137,76,90563,1,0,0:0:0:0:
271,156,90727,5,0,1:0:0:0:
271,156,90890,1,0,0:0:0:0:
349,108,91053,1,0,1:0:0:0:
349,108,91216,1,2,0:0:0:0:
427,163,91379,2,0,P|422:232|426:298,1,127.500004863739,2|0,1:2|1:0,0:0:0:0:
512,308,91868,1,2,0:0:0:0:
408,83,92031,6,0,L|332:75,1,63.7500024318696,0|0,1:0|0:0,0:0:0:0:
206,31,92357,2,0,L|282:23,1,63.7500024318696,0|0,1:0|0:0,0:0:0:0:
143,168,92683,1,0,1:2:0:0:
143,168,93009,2,0,P|146:134|144:98,1,63.7500024318696,2|0,1:2|0:0,0:0:0:0:
31,321,93335,6,0,L|107:329,1,63.7500024318696,0|0,1:0|0:0,0:0:0:0:
237,273,93661,2,0,L|161:281,1,63.7500024318696,0|0,1:0|0:0,0:0:0:0:
96,248,93988,1,4,1:2:0:0:
216,137,94150,1,2,1:2:0:0:
378,203,94313,1,0,1:2:0:0:
378,203,94558,5,0,1:0:0:0:
378,203,94640,2,0,P|375:238|379:282,1,63.7500024318696,4|0,1:2|0:0,0:0:0:0:
297,85,94966,2,0,L|269:71,2,31.8750012159348,2|0|0,1:1|0:0|0:0,0:0:0:0:
440,69,95292,2,0,L|473:45,2,31.8750012159348,2|0|0,1:1|0:0|0:0,0:0:0:0:
373,121,95618,1,2,1:2:0:0:
115,110,95944,6,0,L|118:78,2,31.8750012159348,2|0|0,1:1|0:0|0:0,0:0:0:0:
29,225,96270,2,0,L|1:238,2,31.8750012159348,2|0|0,1:1|0:0|0:0,0:0:0:0:
172,241,96596,2,0,L|205:264,2,31.8750012159348,2|0|0,1:1|0:0|0:0,0:0:0:0:
103,192,96922,1,2,1:2:0:0:
103,192,97248,5,0,1:0:0:0:
115,223,97329,1,0,2:0:0:0:
141,240,97411,1,0,2:0:0:0:
173,244,97492,1,0,2:0:0:0:
204,235,97574,1,0,1:0:0:0:
228,215,97655,1,0,2:0:0:0:
251,192,97737,1,0,2:0:0:0:
281,182,97819,1,0,2:0:0:0:
312,185,97900,1,0,1:0:0:0:
340,201,97982,1,0,2:0:0:0:
358,227,98063,1,0,2:0:0:0:
364,258,98145,1,0,2:0:0:0:
356,289,98227,2,0,L|327:297,5,21.2500008106232,8|0|0|0|0|0,1:0|1:0|1:0|1:0|1:0|1:0,0:0:0:0:
462,333,98553,6,2,P|318:303|295:158,1,305.999990661621,4|0,1:2|0:0,0:2:0:0:
512,92,99205,5,0,1:0:0:0:
382,189,99368,1,0,1:0:0:0:
382,189,99449,1,0,1:0:0:0:
382,189,99531,1,0,1:0:0:0:
263,74,99694,1,0,1:0:0:0:
263,74,99776,1,0,1:0:0:0:
263,74,99857,5,4,1:0:0:0:
215,4,100020,1,0,1:0:0:0:
145,51,100183,1,8,1:1:0:0:
197,207,100346,2,0,P|198:166|192:114,1,85,2|0,1:0|1:0,2:0:0:0:
114,254,100672,2,0,L|30:268,1,85,2|8,1:0|0:1,2:0:0:0:
280,258,100998,2,0,L|363:272,1,85,2|0,1:0|0:1,2:0:0:0:
422,347,101324,1,0,1:0:0:0:
422,347,101488,1,8,1:0:0:0:
512,181,101651,5,2,1:0:0:0:
512,181,101977,1,0,1:0:0:0:
360,229,102140,1,8,1:0:0:0:
270,97,102303,1,0,1:0:0:0:
19,173,102466,5,4,1:2:0:0:
67,243,102629,1,0,1:0:0:0:
137,196,102792,1,8,1:0:0:0:
85,40,102955,2,0,P|84:81|90:133,1,85,2|0,1:0|0:0,2:0:0:0:
228,280,103281,2,0,P|229:239|223:187,1,85,2|8,1:0|0:1,2:0:0:0:
70,377,103607,1,0,1:0:0:0:
70,377,103689,1,0,1:0:0:0:
70,377,103770,1,0,1:0:0:0:
118,307,103933,1,0,1:0:0:0:
188,354,104096,1,8,1:0:0:0:
255,122,104259,5,2,1:0:0:0:
255,122,104585,1,0,1:0:0:0:
417,173,104748,1,8,1:1:0:0:
512,32,104911,1,0,1:0:0:0:
512,32,104993,1,0,1:0:0:0:
512,32,105074,5,4,1:2:0:0:
431,3,105237,1,0,1:0:0:0:
402,82,105400,1,8,1:1:0:0:
485,194,105563,2,0,P|486:153|480:101,1,85,2|0,1:0|0:0,2:0:0:0:
257,167,105890,2,0,L|346:158,1,85,2|8,1:0|0:1,2:0:0:0:
173,231,106216,2,0,L|84:222,1,85,2|0,1:0|0:0,2:0:0:0:
400,240,106542,2,0,P|399:281|405:333,1,85,2|8,1:0|0:1,2:0:0:0:
498,283,106868,5,2,1:0:0:0:
498,283,107194,1,0,1:0:0:0:
320,218,107357,1,8,1:1:0:0:
228,360,107520,1,0,1:0:0:0:
90,183,107683,5,4,0:2:0:0:
150,122,107846,1,0,1:0:0:0:
210,183,108009,1,8,1:1:0:0:
152,327,108172,2,0,P|148:284|149:242,1,85,2|0,1:0|0:0,2:0:0:0:
0,143,108498,2,0,P|3:185|2:227,1,85,2|8,1:0|0:1,2:0:0:0:
61,291,108824,1,2,1:0:0:0:
213,24,108987,5,0,1:0:0:0:
294,35,109150,1,2,1:0:0:0:
122,82,109314,1,8,1:0:0:0:
41,71,109477,1,2,1:0:0:0:
225,122,109640,1,0,1:0:0:0:
234,154,109721,1,0,1:0:0:0:
228,187,109803,1,8,1:0:0:0:
208,214,109884,1,0,1:0:0:0:
184,239,109966,1,8,1:0:0:0:
175,271,110048,1,0,1:0:0:0:
181,304,110129,1,0,1:0:0:0:
201,331,110211,1,0,1:0:0:0:
232,346,110292,6,0,L|326:327,1,85,4|0,0:0|0:0,0:0:0:0:
83,256,110618,2,0,L|-11:275,1,85,8|0,0:1|0:0,0:0:0:0:
244,147,110944,2,0,L|338:128,1,85
95,57,111270,2,0,L|1:76,1,85,8|0,0:1|0:0,0:0:0:0:
400,0,111596,5,0,0:0:0:0:
480,24,111759,1,2,0:2:0:0:
336,160,111922,1,8,0:1:0:0:
316,80,112085,1,2,0:2:0:0:
508,135,112248,1,8,0:1:0:0:
447,192,112411,1,2,0:2:0:0:
143,86,112574,5,0,0:1:0:0:
128,72,112655,1,0,0:0:0:0:
117,53,112737,1,8,0:1:0:0:
113,33,112818,1,0,0:0:0:0:
115,11,112901,2,0,L|104:94,1,85,8|0,0:1|0:0,0:0:0:0:
208,260,113227,2,0,L|218:176,1,85,8|0,0:1|0:0,0:0:0:0:
408,63,113553,2,0,L|397:146,1,85,0|0,0:0|0:1,0:0:0:0:
501,312,113879,2,0,L|511:228,1,85,8|0,0:1|0:0,0:0:0:0:
177,371,114205,5,8,0:1:0:0:
15,309,114368,1,2,0:2:0:0:
151,202,114531,1,8,0:1:0:0:
312,262,114694,1,8,0:1:0:0:
125,302,114857,1,2,0:2:0:0:
204,263,115020,1,8,0:1:0:0:
256,332,115184,1,8,0:1:0:0:
410,213,115346,5,0,0:0:0:0:
410,213,115428,1,0,0:0:0:0:
410,213,115509,2,0,L|493:223,1,85,12|0,0:1|0:0,0:0:0:0:
347,112,115835,2,0,L|263:101,1,85,8|0,0:0|0:0,0:0:0:0:
177,371,116161,2,0,L|260:381,1,85
114,271,116487,2,0,L|30:260,1,85,8|0,0:0|0:0,0:0:0:0:
115,21,116814,5,0,0:0:0:0:
220,1,116977,1,2,0:2:0:0:
80,122,117140,1,8,0:0:0:0:
290,81,117303,1,2,0:2:0:0:
151,202,117466,1,8,0:0:0:0:
254,181,117629,1,2,0:2:0:0:
484,244,117792,5,0,0:0:0:0:
433,233,117873,1,0,0:0:0:0:
388,259,117955,1,8,0:0:0:0:
371,308,118036,1,0,0:0:0:0:
390,356,118118,2,0,B|432:347|432:347|481:358,1,85,8|0,0:0|0:0,0:0:0:0:
271,147,118444,2,0,B|257:187|257:187|223:224,1,85,8|0,0:0|0:0,0:0:0:0:
512,148,118770,2,0,B|483:116|483:116|468:68,1,85,8|0,0:0|0:0,0:0:0:0:
396,225,119096,1,8,0:0:0:0:
396,225,119259,1,8,0:0:0:0:
171,296,119422,5,4,2:1:0:0:
162,302,119503,1,0,2:0:0:0:
150,299,119585,1,0,2:0:0:0:
141,306,119666,1,0,2:0:0:0:
129,302,119748,1,0,2:0:0:0:
120,309,119829,1,0,2:0:0:0:
108,306,119911,1,0,0:0:0:0:
99,313,119992,1,0,2:0:0:0:
87,309,120074,5,4,0:0:0:0:
118,284,120155,1,0,0:0:0:0:
159,279,120237,1,0,0:0:0:0:
196,300,120318,1,0,0:0:0:0:
214,334,120400,1,8,0:0:0:0:
251,369,120481,1,0,0:0:0:0:
302,374,120563,1,0,0:0:0:0:
347,349,120644,1,0,0:0:0:0:
369,303,120726,5,4,0:0:0:0:
353,150,120890,1,0,0:0:0:0:
457,270,121053,2,0,P|455:317|457:361,1,85,0|0,0:0|0:0,2:0:0:0:
271,252,121379,2,0,P|273:205|269:162,1,85,0|0,0:0|0:0,2:0:0:0:
13,303,121705,6,0,B|166:286,1,127.5,4|0,0:2|0:0,2:0:0:0:
165,267,122031,1,0,0:0:0:0:
156,382,122194,1,2,0:2:0:0:
322,345,122357,2,0,L|234:335,1,85,2|0,0:2|0:0,2:0:0:0:
208,87,122683,6,0,P|209:36|205:-2,1,85,4|2,0:2|0:2,2:0:0:0:
256,174,123009,2,0,P|253:224|256:263,1,85,2|0,0:2|0:0,2:0:0:0:
294,41,123335,1,0,0:0:0:0:
493,163,123498,5,0,0:0:0:0:
493,163,123580,1,0,0:0:0:0:
493,163,123661,2,0,B|340:146,1,127.5,4|0,0:2|0:0,2:0:0:0:
341,125,123987,1,0,0:0:0:0:
275,187,124150,1,0,0:0:0:0:
4,121,124313,2,0,L|47:117,1,42.5,6|0,0:2|2:0,2:0:0:0:
171,155,124477,2,0,L|128:151,1,42.5,6|0,0:2|2:0,2:0:0:0:
50,205,124640,5,4,0:0:0:0:
112,339,124803,1,0,0:0:0:0:
213,284,124966,2,0,P|181:256|142:238,1,85,0|0,0:0|0:0,2:0:0:0:
9,381,125292,2,0,P|6:339|13:298,1,85,0|0,0:0|0:0,2:0:0:0:
358,323,125618,6,0,P|436:309|480:256,1,127.5,4|0,0:2|0:0,2:0:0:0:
486,277,125944,2,0,L|470:183,1,85,0|2,0:0|0:2,2:0:0:0:
500,384,126270,1,2,0:2:0:0:
224,273,126433,5,0,0:0:0:0:
224,273,126515,1,0,0:0:0:0:
224,273,126596,2,0,P|142:264|89:210,1,127.5,4|0,0:2|0:0,2:0:0:0:
85,244,126922,2,0,L|101:150,1,85,0|2,0:0|0:2,2:0:0:0:
111,343,127248,1,2,0:2:0:0:
383,146,127411,5,0,0:0:0:0:
383,146,127493,1,0,0:0:0:0:
383,146,127574,2,0,L|391:61,1,85,4|0,0:2|0:0,2:0:0:0:
308,213,127900,2,0,L|317:297,1,85,2|0,0:2|0:0,2:0:0:0:
206,0,128227,1,6,0:2:0:0:
164,7,128308,1,2,0:2:0:0:
134,36,128390,1,0,0:0:0:0:
124,76,128471,1,0,0:0:0:0:
137,116,128553,6,0,L|222:127,1,85,4|0,0:0|0:0,2:0:0:0:
85,195,128879,2,0,L|0:206,1,85,0|0,0:0|0:0,2:0:0:0:
141,266,129205,1,0,0:0:0:0:
384,140,129368,5,0,0:0:0:0:
384,140,129449,1,0,0:0:0:0:
384,140,129531,2,0,P|464:165|497:223,1,127.5,4|0,0:2|0:0,2:0:0:0:
510,234,129857,1,0,0:0:0:0:
333,259,130020,1,2,0:2:0:0:
253,313,130183,2,0,B|215:297|215:297|168:301,1,85,2|0,0:2|0:0,2:0:0:0:
451,343,130509,5,4,0:2:0:0:
451,343,130591,1,0,0:0:0:0:
451,343,130672,1,0,0:0:0:0:
269,192,130835,1,0,0:0:0:0:
269,192,130917,1,0,0:0:0:0:
269,192,130998,1,0,0:0:0:0:
84,363,131161,1,0,0:0:0:0:
84,363,131243,1,0,0:0:0:0:
84,363,131324,1,0,0:0:0:0:
331,360,131487,6,0,P|336:317|337:275,1,85,4|0,0:2|0:0,2:0:0:0:
172,140,131813,2,0,P|167:183|166:225,1,85,4|0,0:2|0:0,2:0:0:0:
398,92,132140,1,6,0:2:0:0:
419,94,132221,1,2,0:2:0:0:
440,92,132303,1,0,0:0:0:0:
459,84,132384,1,2,0:2:0:0:
483,97,132466,6,0,P|467:58|455:13,1,85,4|0,0:0|0:0,2:0:0:0:
323,159,132792,2,0,P|367:165|409:176,1,85,0|2,0:0|0:2,2:0:0:0:
349,0,133118,2,0,P|324:33|291:66,1,85,2|0,0:2|0:0,2:0:0:0:
161,268,133444,6,0,L|245:255,1,85,4|0,0:2|0:0,2:0:0:0:
85,207,133770,2,0,L|0:194,1,85,0|2,0:0|0:2,2:0:0:0:
78,383,134096,2,0,P|81:341|78:299,1,85,2|0,0:2|0:0,2:0:0:0:
427,155,134422,5,4,0:2:0:0:
436,247,134585,1,0,0:0:0:0:
229,158,134748,1,6,0:2:0:0:
307,102,134911,1,2,0:2:0:0:
331,324,135074,1,6,0:2:0:0:
245,286,135237,1,0,0:0:0:0:
33,152,135400,5,4,0:2:0:0:
57,132,135481,1,0,0:0:0:0:
88,135,135563,1,0,0:0:0:0:
109,158,135644,1,0,0:0:0:0:
115,191,135727,1,4,0:2:0:0:
148,218,135809,1,0,0:0:0:0:
191,214,135890,1,0,0:0:0:0:
220,182,135972,1,0,0:0:0:0:
219,134,136053,1,6,0:2:0:0:
231,82,136135,1,2,0:2:0:0:
281,53,136216,1,0,0:0:0:0:
337,66,136298,1,2,0:2:0:0:
367,113,136379,6,0,L|352:196,1,85,4|0,1:1|0:0,0:0:0:0:
319,353,136705,2,0,L|304:269,1,85,8|0,1:1|0:0,0:0:0:0:
509,247,137031,1,0,1:0:0:0:
509,247,137113,1,0,1:0:0:0:
509,247,137194,1,0,1:0:0:0:
461,317,137357,1,8,0:1:0:0:
391,270,137520,1,0,1:1:0:0:
95,238,137683,6,0,L|53:245,3,42.5,0|0|0|0,1:0|0:0|0:0|0:0,0:0:0:0:
158,300,138009,2,0,L|199:307,3,42.5,8|0|0|0,1:0|0:0|0:0|0:0,0:0:0:0:
174,174,138335,5,0,1:0:0:0:
179,147,138416,1,0,1:0:0:0:
176,123,138498,1,8,1:1:0:0:
165,100,138579,1,0,1:0:0:0:
148,81,138661,1,8,1:1:0:0:
137,59,138743,1,0,1:0:0:0:
134,34,138824,1,0,1:1:0:0:
142,10,138905,1,0,1:0:0:0:
142,10,138987,6,0,L|238:-1,1,68,6|0,1:0|0:0,0:0:0:0:
293,26,139313,1,8,1:0:0:0:
495,80,139476,2,0,L|427:72,1,68,2|0,0:1|1:0,0:0:0:0:
343,94,139802,1,2,0:0:0:0:
247,213,139965,2,0,P|249:181|246:145,1,68,10|0,1:0|0:0,0:0:0:0:
174,271,140292,6,0,L|78:282,1,68,2|0,1:1|0:0,0:0:0:0:
22,252,140618,1,8,1:1:0:0:
332,230,140781,2,0,L|428:241,1,68,2|0,0:1|1:0,0:0:0:0:
484,210,141107,1,2,0:0:0:0:
265,363,141270,2,0,P|263:329|265:295,1,68,10|0,1:0|0:0,0:0:0:0:
169,189,141596,6,0,P|93:186|30:147,1,136,2|8,1:0|1:1,0:0:0:0:
358,335,142085,2,0,P|433:332|496:293,1,136,2|0,0:1|0:0,0:0:0:0:
171,317,142574,1,10,1:0:0:0:
82,303,142737,1,2,0:0:0:0:
261,214,142900,6,0,B|273:128|237:165|245:73,1,136,2|0,1:0|1:0,0:0:0:0:
334,59,143389,1,0,1:2:0:0:
388,309,143552,1,2,1:2:0:0:
370,301,143633,1,2,1:2:0:0:
354,288,143715,1,8,1:1:0:0:
343,271,143796,1,0,1:0:0:0:
339,251,143879,1,8,1:1:0:0:
340,231,143959,1,2,1:2:0:0:
348,212,144041,1,2,1:2:0:0:
365,200,144122,1,0,1:0:0:0:
365,200,144204,6,0,L|459:213,1,68,6|0,1:0|0:0,0:0:0:0:
493,272,144531,1,8,1:0:0:0:
243,152,144694,2,0,L|149:165,1,68,2|0,0:1|1:0,0:0:0:0:
115,226,145020,1,2,0:0:0:0:
275,304,145183,2,0,P|277:271|275:237,1,68,10|0,1:1|0:0,0:0:0:0:
85,108,145509,6,0,L|0:96,1,68,2|0,1:1|0:0,0:0:0:0:
148,177,145835,1,8,1:0:0:0:
318,67,145998,2,0,L|402:55,1,68,2|0,0:1|1:0,0:0:0:0:
252,144,146324,1,2,0:0:0:0:
174,77,146487,1,10,1:1:0:0:
241,0,146650,1,0,1:0:0:0:
501,189,146813,6,0,P|437:151|364:149,1,136,2|8,1:1|1:0,0:0:0:0:
305,85,147302,1,0,1:0:0:0:
110,251,147465,6,0,L|102:292,3,34,2|0|0|0,1:2|0:0|0:0|0:0,0:0:0:0:
43,184,147792,2,0,L|35:142,3,34,2|0|0|0,1:2|0:0|0:0|0:0,0:0:0:0:
233,208,148118,5,8,0:1:0:0:
254,204,148199,1,2,0:0:0:0:
275,193,148281,1,2,0:0:0:0:
290,177,148362,1,2,0:0:0:0:
300,155,148444,1,2,1:2:0:0:
300,133,148525,1,0,0:0:0:0:
293,110,148607,1,2,1:2:0:0:
278,92,148688,1,0,0:0:0:0:
261,56,148770,5,0,1:0:0:0:
241,96,148851,1,0,1:0:0:0:
241,141,148933,1,0,1:0:0:0:
261,183,149014,1,0,1:0:0:0:
297,214,149096,1,0,1:0:0:0:
338,235,149177,1,0,1:0:0:0:
364,272,149259,1,0,1:0:0:0:
368,316,149340,1,0,1:0:0:0:
352,358,149422,6,0,L|267:371,1,85,4|0,0:0|0:0,0:0:0:0:
400,270,149748,2,0,L|483:255,1,85,8|0,0:1|0:0,0:0:0:0:
339,124,150074,2,0,L|254:137,1,85,0|0,0:0|0:0,0:0:0:0:
387,37,150400,2,0,L|470:22,1,85,8|0,0:1|0:0,0:0:0:0:
173,121,150726,5,0,0:0:0:0:
156,216,150889,1,2,0:2:0:0:
73,250,151052,1,8,0:1:0:0:
107,61,151215,1,2,0:2:0:0:
16,94,151379,1,8,0:1:0:0:
0,190,151542,1,2,0:2:0:0:
268,289,151705,5,0,0:1:0:0:
296,305,151786,1,0,0:0:0:0:
330,309,151868,1,8,0:1:0:0:
362,301,151949,1,0,0:0:0:0:
402,319,152031,2,0,L|414:234,1,85,8|0,0:1|0:0,0:0:0:0:
296,139,152357,2,0,L|307:54,1,85,8|0,0:1|0:0,0:0:0:0:
501,312,152683,2,0,L|512:227,1,85,0|0,0:0|0:1,0:0:0:0:
394,131,153009,2,0,L|405:46,1,85,8|0,0:1|0:0,0:0:0:0:
212,236,153335,5,8,0:1:0:0:
212,236,153498,1,2,0:2:0:0:
38,260,153661,1,8,0:1:0:0:
38,260,153824,1,8,0:1:0:0:
89,198,153987,1,2,0:2:0:0:
141,272,154150,1,8,0:1:0:0:
152,145,154313,1,8,0:1:0:0:
392,355,154476,5,0,0:0:0:0:
392,355,154558,1,0,0:0:0:0:
392,355,154639,2,0,P|433:348|476:347,1,85,12|0,0:1|0:0,0:0:0:0:
291,197,154965,2,0,P|298:238|298:281,1,85,8|0,0:0|0:0,0:0:0:0:
487,244,155292,1,2,0:2:0:0:
384,173,155455,1,2,0:2:0:0:
470,157,155618,1,8,0:0:0:0:
400,260,155781,1,0,0:2:0:0:
219,115,155944,5,0,0:0:0:0:
229,85,156107,1,2,0:2:0:0:
231,219,156270,1,8,0:0:0:0:
252,241,156433,1,2,0:2:0:0:
137,177,156596,1,8,0:0:0:0:
105,183,156759,1,0,0:0:0:0:
429,319,156922,5,0,0:0:0:0:
460,316,157003,1,0,0:0:0:0:
483,295,157085,1,8,0:0:0:0:
490,264,157166,1,0,0:0:0:0:
477,236,157248,2,0,L|392:247,1,85,8|0,0:0|0:0,0:0:0:0:
169,99,157574,2,0,L|254:110,1,85,8|0,0:0|0:0,0:0:0:0:
422,327,157900,2,0,L|337:338,1,85,8|0,0:0|0:0,0:0:0:0:
224,190,158226,2,0,L|309:201,1,85,8|8,0:0|0:0,0:0:0:0:
42,348,158552,5,0,0:2:0:0:
26,243,158715,1,2,0:2:0:0:
132,227,158879,1,8,0:0:0:0:
147,333,159042,1,8,0:0:0:0:
45,129,159205,1,0,0:2:0:0:
204,173,159368,1,2,0:2:0:0:
87,288,159531,1,8,0:0:0:0:
309,55,159694,5,2,0:2:0:0:
309,55,159775,1,2,0:2:0:0:
309,55,159857,2,0,P|354:54|393:38,1,85,4|0,0:0|0:0,0:0:0:0:
155,225,160183,2,0,P|110:224|71:208,1,85,8|0,0:1|0:0,0:0:0:0:
423,128,160509,2,0,P|460:107|484:72,1,85,0|0,0:0|0:0,0:0:0:0:
125,127,160835,2,0,P|87:106|64:71,1,85,8|0,0:1|0:0,0:0:0:0:
267,378,161161,5,0,0:0:0:0:
302,217,161324,1,2,0:2:0:0:
345,353,161487,1,8,0:1:0:0:
363,273,161650,1,2,0:2:0:0:
427,332,161813,1,8,0:1:0:0:
427,332,161976,1,2,0:2:0:0:
94,101,162139,5,0,0:1:0:0:
63,129,162220,1,0,0:0:0:0:
52,170,162302,1,8,0:1:0:0:
64,210,162383,1,0,0:0:0:0:
95,238,162465,2,0,L|178:221,1,85,8|0,0:0|0:0,0:0:0:0:
268,44,162792,2,0,L|184:27,1,85,8|0,0:1|0:0,0:0:0:0:
93,326,163118,2,0,L|176:309,1,85,0|0,0:0|0:1,0:0:0:0:
270,132,163445,2,0,L|186:115,1,85,8|0,0:1|0:0,0:0:0:0:
267,328,163770,5,8,0:1:0:0:
267,328,163933,1,2,0:2:0:0:
366,174,164096,2,0,P|363:131|364:89,1,85,8|8,0:1|0:1,2:0:0:0:
493,280,164423,1,0,0:2:0:0:
442,212,164586,1,8,0:1:0:0:
375,263,164748,1,2,0:2:0:0:
32,260,164911,5,0,0:0:0:0:
20,252,164993,1,0,0:0:0:0:
3,249,165074,2,0,L|88:237,1,85,12|0,0:1|0:0,0:0:0:0:
122,121,165400,2,0,L|37:133,1,85,8|0,0:0|0:0,0:0:0:0:
211,303,165726,2,0,L|296:291,1,85,0|0,0:0|0:0,0:0:0:0:
330,175,166052,2,0,L|245:187,1,85,8|0,0:0|0:0,0:0:0:0:
484,331,166379,5,2,0:2:0:0:
510,232,166542,1,0,0:0:0:0:
314,286,166705,1,8,0:0:0:0:
386,358,166868,1,2,0:2:0:0:
437,161,167031,1,8,0:0:0:0:
339,187,167194,1,2,0:2:0:0:
33,193,167357,5,0,0:0:0:0:
53,206,167438,1,0,0:0:0:0:
77,207,167520,1,8,0:0:0:0:
98,197,167601,1,0,0:0:0:0:
123,211,167683,2,0,L|112:127,1,85,8|0,0:0|0:0,0:0:0:0:
336,169,168009,2,0,L|324:84,1,85,8|0,0:0|0:0,0:0:0:0:
247,330,168335,2,0,L|235:245,1,85,8|0,0:0|0:0,0:0:0:0:
459,287,168661,1,8,0:0:0:0:
459,287,168824,1,8,0:0:0:0:
355,98,168987,5,4,2:1:0:0:
350,98,169069,1,0,2:0:0:0:
345,98,169150,1,0,2:0:0:0:
340,99,169232,1,0,2:0:0:0:
335,99,169313,1,0,2:0:0:0:
330,100,169395,1,0,2:0:0:0:
325,100,169476,1,0,1:0:0:0:
320,101,169558,1,0,2:0:0:0:
315,100,169639,5,4,0:0:0:0:
281,121,169720,1,0,0:0:0:0:
242,123,169802,1,0,0:0:0:0:
207,104,169883,1,0,0:0:0:0:
188,69,169965,1,8,0:0:0:0:
169,34,170047,1,0,0:0:0:0:
135,15,170128,1,0,0:0:0:0:
96,16,170210,1,0,0:0:0:0:
64,39,170292,6,0,L|70:126,1,85,4|0,0:0|0:0,2:0:0:0:
0,180,170618,1,0,0:0:0:0:
81,300,170781,1,0,0:0:0:0:
233,255,170944,2,0,L|227:168,1,85,0|0,0:0|0:0,2:0:0:0:
228,171,171188,1,0,0:0:0:0:
228,171,171270,6,0,L|143:161,1,85,4|0,0:2|0:0,2:0:0:0:
319,113,171596,2,0,L|403:103,1,85,0|2,0:0|0:2,2:0:0:0:
512,0,171922,1,2,0:2:0:0:
419,12,172085,1,0,0:0:0:0:
505,220,172248,6,0,P|506:177|502:135,1,85,4|2,0:2|0:2,2:0:0:0:
301,296,172574,2,0,P|299:338|303:380,1,85,2|0,0:2|0:0,2:0:0:0:
512,308,172900,1,0,0:0:0:0:
477,298,172981,1,0,0:0:0:0:
442,300,173063,1,0,0:0:0:0:
411,314,173144,1,0,0:0:0:0:
386,339,173226,1,4,0:2:0:0:
216,240,173389,5,0,0:0:0:0:
266,157,173552,1,0,0:0:0:0:
349,209,173715,1,0,0:0:0:0:
145,350,173878,2,0,L|102:345,1,42.5,6|0,0:2|2:0,2:0:0:0:
3,287,174042,2,0,L|45:282,1,42.5,6|0,0:2|2:0,2:0:0:0:
127,85,174205,6,0,P|128:41|124:0,1,85,4|0,0:0|0:0,2:0:0:0:
186,165,174531,1,0,0:0:0:0:
103,217,174694,1,0,0:0:0:0:
48,140,174857,1,0,0:0:0:0:
357,203,175020,5,0,0:0:0:0:
357,203,175101,1,0,0:0:0:0:
357,203,175183,2,0,P|356:247|359:287,1,85,4|0,0:2|0:0,2:0:0:0:
436,148,175509,1,0,0:0:0:0:
381,71,175672,1,0,0:0:0:0:
381,71,175753,1,0,0:0:0:0:
381,71,175835,1,2,0:2:0:0:
298,123,175998,1,0,0:0:0:0:
421,350,176161,5,4,0:2:0:0:
512,334,176324,1,0,0:0:0:0:
341,257,176487,1,0,0:0:0:0:
205,348,176650,1,0,0:0:0:0:
76,215,176813,1,2,0:2:0:0:
171,231,176976,1,0,0:0:0:0:
306,137,177139,6,0,P|301:97|299:53,1,85,4|0,0:2|0:0,2:0:0:0:
110,299,177465,2,0,P|115:338|117:383,1,85,2|0,0:2|0:0,2:0:0:0:
512,162,177792,1,6,0:2:0:0:
502,123,177873,1,2,0:2:0:0:
472,93,177955,1,0,0:0:0:0:
433,78,178036,1,0,0:0:0:0:
390,81,178118,1,4,0:0:0:0:
242,227,178281,5,0,0:0:0:0:
404,165,178444,1,0,0:0:0:0:
268,58,178607,1,0,0:0:0:0:
107,118,178770,1,0,0:0:0:0:
251,142,178933,5,0,0:0:0:0:
251,142,179014,1,0,0:0:0:0:
251,142,179096,2,0,P|257:98|255:50,1,85,4|0,0:2|0:0,2:0:0:0:
301,291,179422,2,0,P|295:335|297:383,1,85,0|2,0:0|0:2,2:0:0:0:
326,194,179748,1,2,0:2:0:0:
225,238,179911,1,0,0:0:0:0:
0,125,180074,6,0,B|36:103|36:103|64:51,1,85,4|0,0:2|0:0,2:0:0:0:
94,333,180400,2,0,B|56:312|56:312|-2:314,1,85,0|0,0:0|0:0,2:0:0:0:
230,130,180726,2,0,B|231:172|231:172|262:222,1,85,0|0,0:0|0:0,2:0:0:0:
31,235,181052,5,4,0:2:0:0:
83,159,181215,1,0,0:0:0:0:
161,215,181378,1,4,0:2:0:0:
161,215,181542,1,0,0:0:0:0:
310,321,181705,1,6,0:2:0:0:
351,326,181786,1,2,0:2:0:0:
393,316,181868,1,0,0:0:0:0:
427,291,181949,1,2,0:2:0:0:
463,305,182031,6,0,L|454:220,1,85,4|0,0:0|0:0,2:0:0:0:
512,147,182357,1,0,0:0:0:0:
405,33,182520,1,0,0:0:0:0:
268,94,182683,2,0,L|276:178,1,85,2|0,0:2|0:0,2:0:0:0:
277,179,182927,1,0,0:0:0:0:
277,179,183009,6,0,P|318:179|361:188,1,85,4|0,0:2|0:0,2:0:0:0:
184,226,183335,2,0,P|145:231|101:244,1,85,0|2,0:0|0:2,2:0:0:0:
24,175,183661,1,2,0:2:0:0:
362,11,183824,5,0,0:0:0:0:
362,11,183906,1,0,0:0:0:0:
362,11,183987,1,4,0:2:0:0:
449,75,184150,1,0,0:0:0:0:
194,192,184313,1,6,0:2:0:0:
206,83,184476,1,2,0:2:0:0:
431,245,184639,1,6,0:2:0:0:
332,288,184802,1,0,0:0:0:0:
310,144,184965,5,4,0:2:0:0:
326,130,185046,1,0,0:0:0:0:
348,132,185128,1,0,0:0:0:0:
358,150,185209,1,0,0:0:0:0:
351,171,185291,1,4,0:2:0:0:
331,177,185372,1,0,0:0:0:0:
313,166,185454,1,0,0:0:0:0:
330,149,185537,5,0,0:0:0:0:
338,190,185618,5,6,0:2:0:0:
328,230,185700,5,2,0:2:0:0:
300,262,185781,5,0,0:0:0:0:
290,303,185863,5,2,0:2:0:0:
298,344,185944,6,0,P|340:349|378:366,1,85,2|0,1:0|2:0,0:0:0:0:
461,331,186270,1,2,1:0:0:0:
207,286,186433,2,0,P|164:291|126:308,1,85,2|0,1:0|2:0,0:0:0:0:
41,282,186759,1,0,0:0:0:0:
436,187,186922,6,0,P|467:215|487:251,1,85,2|0,1:0|2:0,0:0:0:0:
391,270,187248,1,0,1:0:0:0:
21,183,187411,2,0,P|42:146|74:118,1,85,2|0,1:0|2:0,0:0:0:0:
132,188,187737,1,2,1:0:0:0:
285,325,187900,5,2,1:0:0:0:
70,260,188063,1,2,1:0:0:0:
356,259,188226,1,2,1:0:0:0:
151,329,188389,5,0,0:0:0:0:
151,329,188471,1,0,0:0:0:0:
151,329,188552,2,0,P|154:286|154:239,1,85,2|0,1:0|2:0,0:0:0:0:
224,384,188878,1,0,0:0:0:0:
320,133,189041,2,0,P|316:173|317:223,1,85,2|0,1:0|2:0,0:0:0:0:
366,62,189367,1,0,0:0:0:0:
205,180,189531,6,0,L|117:192,1,85,2|0,1:0|2:0,0:0:0:0:
177,265,189857,1,0,1:0:0:0:
427,255,190020,2,0,L|515:267,1,85,2|0,0:1|2:0,0:0:0:0:
455,340,190346,1,2,0:0:0:0:
339,224,190509,5,2,0:0:0:0:
206,84,190672,1,2,0:0:0:0:
21,146,190835,1,0,0:0:0:0:
114,201,190998,5,2,0:0:0:0:
114,201,191079,1,0,0:0:0:0:
114,201,191161,2,0,L|104:116,1,85,6|0,0:0|2:0,0:0:0:0:
23,167,191487,1,0,0:0:0:0:
224,4,191650,2,0,L|214:89,1,85,2|0,0:0|2:0,0:0:0:0:
133,38,191976,1,0,0:0:0:0:
279,300,192139,6,0,L|269:215,1,85,2|0,0:0|2:0,0:0:0:0:
188,266,192465,1,0,0:0:0:0:
441,0,192628,2,0,L|431:85,1,85,2|0,0:0|2:0,0:0:0:0:
350,34,192954,1,0,0:0:0:0:
407,310,193117,1,2,0:0:0:0:
490,263,193280,1,0,0:0:0:0:
258,141,193444,5,2,0:0:0:0:
259,182,193525,1,0,0:0:0:0:
287,213,193607,1,2,0:0:0:0:
328,219,193688,1,0,0:0:0:0:
363,237,193770,2,0,P|357:195|358:153,1,85,2|0,0:0|2:0,0:0:0:0:
31,266,194096,2,0,P|37:309|36:351,1,85,2|0,0:0|2:0,0:0:0:0:
228,286,194422,2,0,P|223:243|224:201,1,85,2|0,0:0|2:0,0:0:0:0:
124,134,194748,2,0,P|129:176|128:218,1,85,2|0,0:0|2:0,0:0:0:0:
41,13,195074,6,0,P|114:52|197:42,1,170,2|2,0:0|2:0,0:0:0:0:
219,139,195563,1,2,0:0:0:0:
345,36,195726,1,2,0:0:0:0:
477,131,195889,1,0,0:0:0:0:
290,230,196052,1,0,0:0:0:0:
299,186,196133,1,0,0:0:0:0:
336,163,196215,1,0,0:0:0:0:
378,175,196296,1,0,0:0:0:0:
394,156,196378,6,0,L|383:308,1,144.500002756119,4|2,1:0|1:2,0:0:0:0:
251,328,196867,5,2,0:0:0:0:
147,282,197030,1,0,1:0:0:0:
147,282,197194,1,2,0:0:0:0:
43,348,197357,2,0,L|114:358,1,72.2500013780594,2|0,1:2|0:0,0:0:0:0:
305,245,197683,2,0,L|224:233,1,72.2500013780594,2|0,1:2|0:0,0:0:0:0:
404,379,198009,5,2,1:2:0:0:
481,367,198172,1,2,0:0:0:0:
246,348,198335,1,2,1:2:0:0:
329,335,198498,1,0,0:0:0:0:
416,128,198661,1,2,1:2:0:0:
320,156,198824,1,0,0:0:0:0:
508,282,198987,6,0,L|510:206,1,72.2500013780594,2|0,1:2|0:0,0:0:0:0:
418,241,199313,1,2,1:2:0:0:
418,241,199476,1,2,0:0:0:0:
225,105,199639,5,2,1:2:0:0:
156,204,199802,1,0,0:0:0:0:
59,107,199965,2,0,L|130:122,1,72.2500013780594,0|2,1:2|0:0,0:0:0:0:
234,265,200291,2,0,L|211:196,1,72.2500013780594,2|2,1:2|0:0,0:0:0:0:
277,45,200617,2,0,L|228:98,1,72.2500013780594,2|0,1:2|0:0,0:0:0:0:
104,21,200944,1,0,1:0:0:0:
104,21,201107,1,2,1:2:0:0:
190,0,201270,1,2,1:2:0:0:
137,213,201433,5,0,0:0:0:0:
137,213,201514,1,0,0:0:0:0:
137,213,201596,2,0,P|51:214|-7:247,1,144.500002756119,4|0,1:0|1:0,0:0:0:0:
28,323,202085,1,2,0:0:0:0:
312,145,202248,5,2,1:2:0:0:
312,145,202411,1,0,0:0:0:0:
411,157,202574,1,2,1:2:0:0:
437,249,202737,1,2,0:0:0:0:
235,384,202900,6,0,L|224:231,2,144.500002756119,0|2|2,1:0|1:2|1:2,0:0:0:0:
504,260,203715,1,0,0:0:0:0:
419,175,203878,1,2,1:2:0:0:
303,211,204041,1,0,0:0:0:0:
393,347,204204,6,0,P|394:314|390:269,1,72.2500013780594,4|0,1:2|0:0,0:0:0:0:
83,201,204530,2,0,P|82:234|86:279,1,72.2500013780594,0|0,1:0|0:0,0:0:0:0:
280,119,204857,1,0,1:0:0:0:
290,32,205020,1,0,1:0:0:0:
205,19,205183,1,0,1:0:0:0:
190,109,205346,1,0,1:0:0:0:
239,255,205509,5,6,2:0:0:0:
245,256,205590,1,0,0:0:0:0:
250,256,205672,1,0,0:0:0:0:
257,258,205753,1,0,0:0:0:0:
294,278,205835,5,2,0:0:0:0:
299,277,205916,1,0,0:0:0:0:
305,276,205998,1,0,0:0:0:0:
311,275,206079,1,0,0:0:0:0:
348,255,206161,5,2,0:0:0:0:
353,256,206242,1,0,0:0:0:0:
359,257,206324,1,0,0:0:0:0:
365,258,206405,1,0,0:0:0:0:
400,280,206487,6,0,L|407:203,1,42.5,0|0,1:0|1:0,1:0:0:0:
482,374,206650,2,0,L|475:297,1,42.5,0|0,1:0|1:0,1:0:0:0:
496,173,206813,5,4,1:0:0:0:
494,115,206894,1,2,0:0:0:0:
461,68,206976,1,2,0:0:0:0:
407,46,207057,1,0,0:0:0:0:
352,57,207139,1,8,1:0:0:0:
316,86,207220,1,0,0:0:0:0:
305,124,207302,1,2,0:0:0:0:
311,163,207383,1,0,0:0:0:0:
311,163,207465,2,0,L|361:169,3,50.9999984436036,0|0|0|0,1:0|0:0|0:0|0:0,0:0:0:0:
152,202,207791,5,8,1:0:0:0:
130,224,207872,1,0,0:0:0:0:
99,223,207954,1,0,0:0:0:0:
77,200,208035,1,0,0:0:0:0:
43,167,208117,2,0,L|117:157,1,50.9999984436036,2|0,1:2|0:0,0:0:0:0:
209,113,208280,2,0,L|135:103,1,50.9999984436036,0|0,0:0|0:0,0:0:0:0:
212,261,208444,5,8,1:0:0:0:
232,271,208525,1,2,0:0:0:0:
257,270,208607,1,2,0:0:0:0:
285,256,208688,1,0,0:0:0:0:
305,229,208770,1,2,1:2:0:0:
330,196,208851,1,2,0:0:0:0:
370,179,208933,1,2,1:2:0:0:
415,200,209014,1,0,0:0:0:0:
415,200,209096,2,0,P|418:234|413:268,1,50.9999984436036,8|0,1:0|0:0,0:0:0:0:
501,284,209259,2,0,P|497:318|502:352,1,50.9999984436036,0|0,0:0|0:0,0:0:0:0:
350,384,209422,6,0,L|261:369,1,50.9999984436036,0|0,1:2|0:0,0:0:0:0:
252,294,209585,2,0,L|163:279,1,50.9999984436036,0|0,0:0|0:0,0:0:0:0:
0,226,209748,2,0,L|89:211,1,50.9999984436036,8|0,1:0|0:0,0:0:0:0:
98,136,209911,2,0,L|187:121,1,50.9999984436036,0|0,0:0|0:0,0:0:0:0:
143,365,210074,1,0,1:0:0:0:
58,338,210237,1,0,1:0:0:0:
116,271,210400,1,8,1:0:0:0:
200,297,210563,1,0,1:0:0:0:
427,126,210726,5,4,1:2:0:0:
427,126,210808,1,2,0:0:0:0:
427,126,210889,2,0,B|403:115|403:115|359:119,1,50.9999984436036,2|0,0:0|0:0,0:0:0:0:
355,283,211052,2,0,B|379:294|379:294|423:290,1,50.9999984436036,8|0,1:0|0:0,0:0:0:0:
400,206,211215,5,2,1:2:0:0:
372,198,211296,1,0,0:2:0:0:
340,199,211378,1,4,1:0:0:0:
316,210,211460,1,0,0:0:0:0:
285,229,211541,1,0,1:2:0:0:
245,231,211623,1,0,1:2:0:0:
207,207,211704,1,8,1:0:0:0:
185,158,211785,1,2,0:0:0:0:
195,102,211867,1,2,1:2:0:0:
241,66,211948,1,2,1:2:0:0:
298,75,212031,5,4,1:2:0:0:
269,123,212111,1,0,0:0:0:0:
214,135,212193,1,0,0:0:0:0:
169,123,212275,1,0,0:0:0:0:
137,90,212356,1,8,1:0:0:0:
107,58,212438,1,2,0:0:0:0:
67,42,212519,1,2,0:0:0:0:
27,43,212601,1,0,0:0:0:0:
0,59,212683,5,2,1:2:0:0:
32,79,212764,1,0,0:0:0:0:
70,82,212846,1,0,0:0:0:0:
101,69,212927,1,0,0:0:0:0:
121,46,213009,1,8,1:0:0:0:
144,25,213091,1,0,0:0:0:0:
173,15,213172,1,0,0:0:0:0:
200,18,213254,1,0,0:0:0:0:
200,18,213335,2,0,L|277:29,3,50.9999984436036,0|0|0|0,1:2|0:0|0:0|0:0,0:0:0:0:
306,95,213661,2,0,L|356:87,3,50.9999984436036,8|0|0|0,1:0|0:0|0:0|0:0,0:0:0:0:
170,128,213987,5,2,1:2:0:0:
170,128,214069,1,0,0:0:0:0:
170,128,214150,2,0,P|167:153|168:178,1,50.9999984436036,2|0,1:2|0:0,0:0:0:0:
81,212,214313,1,8,1:0:0:0:
81,212,214395,1,0,0:0:0:0:
81,212,214476,2,0,P|84:236|83:262,1,50.9999984436036,2|0,0:2|0:0,0:0:0:0:
83,358,214639,5,2,1:2:0:0:
119,381,214720,1,2,0:0:0:0:
162,383,214802,1,2,0:0:0:0:
200,362,214883,1,0,0:0:0:0:
221,324,214965,1,8,1:0:0:0:
220,281,215046,1,0,0:0:0:0:
220,281,215128,2,0,B|196:272|196:272|170:275,1,50.9999984436036,0|0,0:0|0:0,0:0:0:0:
72,227,215291,5,2,1:2:0:0:
53,238,215372,1,2,0:0:0:0:
31,239,215454,1,2,1:2:0:0:
11,229,215535,1,0,0:0:0:0:
0,209,215617,1,8,1:0:0:0:
1,187,215698,1,0,0:0:0:0:
1,187,215780,2,0,B|25:178|25:178|51:181,1,50.9999984436036,0|0,1:0|0:0,0:0:0:0:
169,99,215944,6,0,L|163:48,3,50.9999984436036,4|0|0|0,1:2|0:0|0:0|0:0,0:0:0:0:
256,66,216270,2,0,L|322:59,3,50.9999984436036,8|0|0|0,1:0|0:0|0:0|0:0,0:0:0:0:
374,128,216596,2,0,L|368:178,3,50.9999984436036,4|0|0|0,1:2|0:0|0:0|0:0,0:0:0:0:
460,161,216922,2,0,L|526:168,3,50.9999984436036,8|0|0|0,1:0|0:0|1:0|1:0,0:0:0:0:
394,276,217248,5,4,1:0:0:0:
372,287,217329,1,2,0:0:0:0:
344,286,217411,1,2,0:0:0:0:
319,271,217492,1,0,0:0:0:0:
297,243,217574,1,8,1:0:0:0:
273,212,217655,1,2,0:0:0:0:
231,195,217737,1,2,0:0:0:0:
189,215,217818,1,0,0:0:0:0:
189,215,217900,2,0,P|185:249|190:283,1,50.9999984436036,2|0,1:2|0:0,0:0:0:0:
235,384,218063,2,0,P|236:358|232:333,1,50.9999984436036,2|0,0:2|0:0,0:0:0:0:
95,301,218226,5,8,1:0:0:0:
63,308,218307,1,2,0:0:0:0:
32,303,218389,1,2,0:0:0:0:
8,284,218470,1,0,0:0:0:0:
8,284,218552,6,0,P|6:258|10:233,1,50.9999984436036,0|0,1:0|0:0,0:0:0:0:
174,101,218715,2,0,P|196:112|216:128,1,50.9999984436036,0|0,1:0|0:0,0:0:0:0:
249,336,218878,2,0,P|227:349|204:359,1,50.9999984436036,8|0,1:0|0:0,0:0:0:0:
78,190,219041,6,0,P|93:169|112:152,1,50.9999984436036,0|0,1:0|0:0,0:0:0:0:
220,208,219204,2,0,P|230:231|235:256,1,50.9999984436036,0|0,1:0|0:0,0:0:0:0:
133,321,219367,2,0,P|107:318|83:310,1,50.9999984436036,0|0,1:0|0:0,0:0:0:0:
147,244,219530,5,8,1:0:0:0:
147,244,219694,1,0,1:0:0:0:
353,322,219857,5,4,1:2:0:0:
375,313,219938,1,2,0:0:0:0:
397,325,220020,1,2,0:0:0:0:
418,318,220101,1,2,0:0:0:0:
418,318,220183,2,0,L|422:260,1,50.9999984436036,8|0,1:0|0:0,0:0:0:0:
512,372,220346,2,0,L|508:321,1,50.9999984436036,0|0,0:0|0:0,0:0:0:0:
305,232,220509,2,0,L|301:181,1,50.9999984436036,0|0,1:0|0:0,0:0:0:0:
213,286,220672,2,0,L|216:235,1,50.9999984436036,0|0,1:0|0:0,0:0:0:0:
51,127,220835,1,8,1:0:0:0:
51,127,220916,1,2,0:0:0:0:
51,127,220998,2,0,L|0:118,1,50.9999984436036,2|0,1:2|0:0,0:0:0:0:
152,81,221161,5,2,1:2:0:0:
210,89,221242,1,0,0:0:0:0:
242,137,221324,1,0,0:0:0:0:
227,193,221405,1,2,0:0:0:0:
175,217,221487,1,2,1:2:0:0:
127,203,221569,1,0,0:0:0:0:
78,209,221650,1,2,1:2:0:0:
53,247,221732,1,0,0:0:0:0:
63,292,221813,1,2,1:2:0:0:
97,316,221895,1,2,0:0:0:0:
132,312,221976,1,0,1:0:0:0:
150,294,222058,1,0,0:0:0:0:
152,277,222140,2,0,L|138:159,1,101.999996887207,8|8,1:0|1:1,0:0:0:0:
300,66,222465,5,4,1:1:0:0:
322,44,222546,1,0,0:0:0:0:
353,45,222628,1,0,0:0:0:0:
375,68,222709,1,0,0:0:0:0:
409,101,222791,2,0,L|335:111,1,50.9999984436036,8|0,1:0|0:0,0:0:0:0:
243,155,222954,2,0,L|317:165,1,50.9999984436036,2|0,1:2|0:0,0:0:0:0:
326,257,223117,5,2,1:2:0:0:
297,292,223198,1,0,0:0:0:0:
254,302,223280,1,2,1:2:0:0:
213,286,223361,1,0,0:0:0:0:
189,247,223444,1,8,1:0:0:0:
167,209,223525,1,0,0:0:0:0:
126,191,223607,1,2,0:0:0:0:
83,202,223688,1,0,0:0:0:0:
54,238,223770,2,0,P|81:243|113:233,1,50.9999984436036,0|0,1:0|0:0,0:0:0:0:
102,108,223933,2,0,P|75:103|43:113,1,50.9999984436036
228,110,224096,5,8,1:0:0:0:
231,87,224177,1,0,0:0:0:0:
219,63,224259,1,0,0:0:0:0:
223,39,224340,1,0,0:0:0:0:
223,39,224422,2,0,L|343:23,1,101.999996887207,0|0,1:0|1:0,0:0:0:0:
324,25,224666,1,0,1:0:0:0:
324,25,224747,1,8,1:0:0:0:
409,72,224910,1,2,1:2:0:0:
310,166,225073,5,4,1:2:0:0:
325,195,225155,1,0,0:0:0:0:
353,210,225236,1,0,1:0:0:0:
387,207,225318,1,0,1:0:0:0:
424,217,225400,1,8,1:0:0:0:
451,248,225481,1,0,0:0:0:0:
449,291,225563,1,0,1:0:0:0:
424,325,225644,1,0,1:0:0:0:
383,338,225726,1,4,1:2:0:0:
343,325,225807,1,0,1:0:0:0:
326,318,225889,1,0,1:0:0:0:
308,319,225970,1,0,1:0:0:0:
294,330,226052,2,0,L|289:380,1,50.9999984436036,8|0,1:0|0:0,0:0:0:0:
233,252,226215,2,0,L|228:201,1,50.9999984436036,0|0,1:0|0:0,0:0:0:0:
104,292,226378,5,4,2:0:0:0:
95,298,226459,1,0,0:0:0:0:
83,295,226541,1,0,0:0:0:0:
74,302,226622,1,0,0:0:0:0:
62,298,226704,1,4,2:0:0:0:
53,305,226785,1,0,0:0:0:0:
41,302,226867,1,0,1:0:0:0:
32,309,226948,1,0,0:0:0:0:
20,305,227030,5,6,1:2:0:0:
49,344,227111,1,2,0:0:0:0:
98,351,227193,1,2,0:0:0:0:
138,321,227274,1,2,0:0:0:0:
144,272,227356,1,6,1:2:0:0:
121,230,227437,1,0,1:0:0:0:
106,184,227520,1,0,1:0:0:0:
126,138,227601,1,0,1:0:0:0:
174,122,227683,6,0,P|179:74|176:25,1,97.7500018644333,4|0,0:0|0:0,2:0:0:0:
291,193,228009,2,0,P|285:241|288:290,1,97.7500018644333,0|0,0:0|0:0,2:0:0:0:
366,144,228335,1,0,0:0:0:0:
472,335,228498,5,0,0:0:0:0:
472,335,228579,1,0,0:0:0:0:
472,335,228661,2,0,L|375:324,1,97.7500018644333,4|0,0:2|0:0,2:0:0:0:
91,274,228987,2,0,L|188:263,1,97.7500018644333,0|2,0:0|0:2,2:0:0:0:
492,176,229313,1,2,0:2:0:0:
478,205,229394,1,0,0:0:0:0:
451,227,229476,1,0,0:0:0:0:
418,235,229557,1,0,0:0:0:0:
385,229,229639,1,4,0:2:0:0:
302,186,229802,5,0,0:0:0:0:
398,40,229965,1,2,0:2:0:0:
493,186,230128,1,0,0:0:0:0:
398,332,230291,1,0,0:0:0:0:
221,253,230454,5,0,0:0:0:0:
221,253,230536,1,0,0:0:0:0:
221,253,230617,2,0,L|124:237,1,97.7500018644333,4|0,0:2|0:0,2:0:0:0:
286,326,230943,1,2,0:2:0:0:
360,259,231106,1,2,0:2:0:0:
5,262,231269,2,0,L|10:310,1,48.8750009322167,6|2,0:2|2:0,2:0:0:0:
88,364,231433,2,0,L|92:315,1,48.8750009322167,6|2,0:2|2:0,2:0:0:0:
124,99,231596,6,0,P|128:50|124:1,1,97.7500018644333,4|0,0:0|0:0,2:0:0:0:
68,168,231922,1,0,0:0:0:0:
137,224,232085,1,0,0:0:0:0:
193,155,232248,1,0,0:0:0:0:
356,215,232411,5,0,0:0:0:0:
356,215,232492,1,0,0:0:0:0:
356,215,232574,2,0,P|352:263|356:312,1,97.7500018644333,4|0,0:2|0:0,2:0:0:0:
357,312,232818,1,0,0:0:0:0:
357,312,232900,1,0,0:0:0:0:
303,384,233063,1,2,0:2:0:0:
512,301,233226,1,2,0:2:0:0:
510,267,233307,1,0,0:0:0:0:
492,238,233389,1,0,0:0:0:0:
463,221,233470,1,0,0:0:0:0:
429,220,233552,1,4,0:2:0:0:
321,153,233715,5,0,0:0:0:0:
253,267,233878,1,0,0:0:0:0:
253,267,233960,1,0,0:0:0:0:
253,267,234041,1,2,0:2:0:0:
471,135,234204,1,2,0:2:0:0:
471,135,234286,1,0,0:0:0:0:
471,135,234367,1,0,0:0:0:0:
207,14,234530,5,4,0:2:0:0:
280,89,234693,1,0,0:0:0:0:
381,66,234856,1,6,0:2:0:0:
307,6,235019,1,0,0:0:0:0:
171,292,235183,2,0,L|219:302,1,48.8750009322167,6|2,0:2|2:2,2:0:0:0:
318,222,235346,2,0,L|271:232,1,48.8750009322167,4|2,0:2|2:0,2:0:0:0:
89,342,235509,6,0,P|84:295|68:248,1,97.7500018644333,4|0,0:0|0:0,2:0:0:0:
254,306,235835,2,0,P|215:336|183:373,1,97.7500018644333,0|0,0:0|0:0,2:0:0:0:
140,183,236161,2,0,P|186:203|234:212,1,97.7500018644333,0|0,0:0|0:0,2:0:0:0:
392,157,236487,5,4,0:2:0:0:
275,111,236650,1,0,0:0:0:0:
275,111,236731,1,0,0:0:0:0:
275,111,236813,1,0,0:0:0:0:
347,250,236976,1,2,0:2:0:0:
512,203,237139,1,2,0:2:0:0:
327,20,237302,5,0,0:0:0:0:
327,20,237384,1,0,0:0:0:0:
327,20,237465,2,0,P|279:33|231:38,1,97.7500018644333,4|0,0:2|0:0,2:0:0:0:
20,123,237791,2,0,P|69:129|116:141,1,97.7500018644333,0|0,0:2|0:0,2:0:0:0:
115,140,238036,1,0,0:0:0:0:
115,140,238117,2,0,L|101:254,1,97.7500018644333,0|0,0:2|0:0,2:0:0:0:
348,351,238443,5,4,0:2:0:0:
455,264,238606,1,2,0:2:0:0:
332,213,238769,1,6,0:2:0:0:
235,296,238933,1,0,0:0:0:0:
470,148,239096,1,6,0:2:0:0:
458,101,239177,1,2,0:2:0:0:
418,74,239259,1,0,0:0:0:0:
371,79,239340,1,2,0:2:0:0:
343,48,239422,6,0,L|329:162,1,97.7500018644333,4|0,0:0|0:0,2:0:0:0:
200,214,239748,1,0,0:0:0:0:
106,163,239911,1,2,0:2:0:0:
251,122,240074,1,2,0:2:0:0:
81,379,240237,5,0,0:0:0:0:
81,379,240318,1,0,0:0:0:0:
81,379,240400,2,0,P|74:331|76:282,1,97.7500018644333,4|0,0:2|0:0,2:0:0:0:
168,33,240726,2,0,P|174:82|172:131,1,97.7500018644333,0|2,0:0|0:2,2:0:0:0:
83,163,241052,1,2,0:2:0:0:
319,36,241215,5,0,0:0:0:0:
319,36,241297,1,0,0:0:0:0:
319,36,241378,1,4,0:2:0:0:
428,94,241541,1,0,0:0:0:0:
285,230,241704,1,6,0:2:0:0:
231,121,241867,1,2,0:2:0:0:
406,216,242030,5,6,0:2:0:0:
406,221,242112,1,0,0:0:0:0:
406,226,242193,1,0,0:0:0:0:
406,231,242275,1,0,0:0:0:0:
406,236,242356,5,4,0:2:0:0:
369,269,242437,1,0,0:0:0:0:
322,280,242519,1,0,0:0:0:0:
275,269,242600,1,0,0:0:0:0:
240,236,242683,1,4,0:2:0:0:
204,204,242765,1,0,0:0:0:0:
157,193,242846,1,0,0:0:0:0:
110,204,242928,1,0,0:0:0:0:
89,240,243009,1,6,0:2:0:0:
106,270,243090,1,2,0:2:0:0:
132,262,243172,1,0,0:0:0:0:
127,239,243253,1,2,0:2:0:0:
108,253,243335,5,4,0:0:0:0:
247,85,243498,1,0,0:0:0:0:
484,104,243661,2,0,L|386:95,1,97.7500018644333,0|0,0:0|0:0,2:0:0:0:
237,190,243987,2,0,L|345:176,1,97.7500018644333,0|0,0:0|0:0,2:0:0:0:
333,177,244231,1,0,0:0:0:0:
333,177,244313,6,0,P|341:224|342:284,1,97.7500018644333,4|0,0:2|0:0,2:0:0:0:
409,346,244639,1,0,0:0:0:0:
473,193,244802,1,0,0:0:0:0:
365,89,244965,1,2,0:2:0:0:
365,89,245128,1,0,0:0:0:0:
211,318,245291,5,4,0:2:0:0:
105,345,245454,1,0,0:0:0:0:
73,146,245617,1,2,0:2:0:0:
182,143,245780,1,2,0:2:0:0:
252,228,245943,1,0,0:0:0:0:
34,247,246106,1,0,0:0:0:0:
165,242,246269,6,0,P|173:290|174:338,1,97.7500018644333,4|0,0:2|0:0,2:0:0:0:
285,129,246596,2,0,P|276:80|275:32,1,97.7500018644333,0|2,0:0|0:2,2:0:0:0:
410,183,246922,2,0,L|356:174,1,48.8750009322167,6|2,0:2|2:0,2:0:0:0:
181,207,247085,2,0,L|235:198,1,48.8750009322167,6|2,0:2|2:0,2:0:0:0:
505,244,247248,5,4,0:0:0:0:
402,286,247411,1,0,0:0:0:0:
32,159,247574,1,0,0:0:0:0:
135,117,247737,1,0,0:0:0:0:
296,250,247900,1,0,0:0:0:0:
241,153,248063,1,0,0:0:0:0:
431,21,248226,5,4,0:2:0:0:
385,200,248389,1,0,0:0:0:0:
385,200,248470,1,0,0:0:0:0:
385,200,248552,1,0,0:0:0:0:
339,0,248715,1,2,0:2:0:0:
464,142,248878,1,2,0:2:0:0:
261,96,249041,5,0,0:0:0:0:
261,96,249123,1,0,0:0:0:0:
260,96,249204,2,0,L|359:104,1,97.7500018644333,4|0,0:2|0:0,2:0:0:0:
176,167,249530,2,0,L|77:175,1,97.7500018644333,2|2,0:2|0:2,2:0:0:0:
381,246,249856,1,2,0:2:0:0:
369,292,249937,1,0,0:0:0:0:
329,319,250019,1,0,0:0:0:0:
282,314,250100,1,0,0:0:0:0:
254,346,250182,6,0,P|248:295|254:233,1,97.7500018644333,4|0,0:2|0:0,2:0:0:0:
67,327,250509,1,6,0:2:0:0:
140,283,250672,1,0,0:0:0:0:
381,220,250835,2,0,L|437:224,1,48.8750009322167,6|2,0:2|2:2,2:0:0:0:
512,297,250998,2,0,L|455:301,1,48.8750009322167,6|2,0:2|2:2,2:0:0:0:
290,161,251161,6,0,P|295:110|290:48,1,97.7500018644333,4|0,0:0|0:0,2:0:0:0:
207,1,251487,1,0,0:0:0:0:
143,68,251650,1,0,0:0:0:0:
439,78,251813,1,0,0:0:0:0:
375,11,251976,1,0,0:0:0:0:
197,149,252139,6,0,P|150:154|103:170,1,97.7500018644333,4|0,0:2|0:0,2:0:0:0:
324,138,252465,2,0,P|370:146|416:165,1,97.7500018644333,0|0,0:0|0:0,2:0:0:0:
504,141,252791,1,2,0:2:0:0:
270,344,252954,5,0,0:0:0:0:
270,344,253036,1,0,0:0:0:0:
270,344,253117,2,0,L|260:232,1,97.7500018644333,4|0,0:2|0:0,2:0:0:0:
512,222,253443,1,4,0:2:0:0:
387,288,253606,1,0,0:0:0:0:
387,288,253688,1,0,0:0:0:0:
387,288,253769,1,6,0:2:0:0:
304,172,253933,1,2,0:2:0:0:
12,285,254096,6,0,L|3:382,1,97.7500018644333,4|0,0:2|0:0,2:0:0:0:
251,272,254422,1,4,0:2:0:0:
162,232,254585,1,2,0:2:0:0:
102,311,254748,1,6,0:2:0:0:
102,311,254829,1,2,0:2:0:0:
102,311,254911,1,2,0:2:0:0:
382,372,255074,6,0,P|424:354|473:341,1,97.7500018644333,4|0,0:0|0:0,2:0:0:0:
271,201,255400,1,0,0:0:0:0:
254,289,255563,1,0,0:0:0:0:
486,201,255726,1,2,0:2:0:0:
420,142,255889,1,0,0:0:0:0:
139,107,256052,6,0,L|38:91,1,97.7500018644333,4|0,0:2|0:0,2:0:0:0:
12,13,256378,1,0,0:0:0:0:
169,194,256541,1,2,0:2:0:0:
169,194,256623,1,2,0:2:0:0:
169,194,256704,2,0,L|273:177,1,97.7500018644333,2|0,0:2|0:0,2:2:0:0:
332,52,257030,5,4,0:2:0:0:
511,191,257193,1,0,0:0:0:0:
293,261,257356,1,6,0:2:0:0:
118,120,257519,1,2,0:2:0:0:
370,147,257683,5,6,1:2:0:0:
370,147,257764,1,0,2:0:0:0:
370,147,257846,1,0,2:0:0:0:
370,147,257927,1,0,2:0:0:0:
400,145,258008,5,4,0:2:0:0:
380,176,258089,1,0,0:0:0:0:
344,182,258171,1,0,0:0:0:0:
314,163,258252,1,0,0:0:0:0:
297,128,258335,1,4,0:2:0:0:
251,109,258417,1,0,0:0:0:0:
205,127,258498,1,0,0:0:0:0:
182,172,258580,1,0,0:0:0:0:
193,227,258661,1,0,0:2:0:0:
187,285,258743,1,0,0:2:0:0:
140,324,258824,1,0,0:0:0:0:
78,317,258906,1,0,0:2:0:0:
66,311,259639,5,4,0:0:0:0:
119,224,259802,1,0,0:0:0:0:
58,135,259965,1,4,1:2:0:0:
168,315,260128,2,0,P|251:297|336:290,1,170,4|4,1:0|2:0,2:0:0:0:
439,117,260617,6,0,P|355:134|271:141,1,170,4|4,0:0|0:0,2:0:0:0:
379,351,261106,1,4,1:2:0:0:
441,307,261269,1,0,0:0:0:0:
398,244,261432,1,4,1:2:0:0:
0,357,261595,5,4,0:0:0:0:
110,321,261758,1,0,0:0:0:0:
253,245,261921,1,4,0:0:0:0:
143,209,262084,1,0,0:0:0:0:
368,135,262247,5,4,1:2:0:0:
368,35,262410,1,4,1:0:0:0:
282,86,262573,1,0,0:0:0:0:
127,223,262736,5,4,1:2:0:0:
127,121,262899,1,4,0:0:0:0:
216,173,263062,1,0,0:0:0:0:
458,285,263225,5,4,1:2:0:0:
458,162,263388,1,4,0:0:0:0:
350,224,263551,1,0,0:0:0:0:
41,373,263715,5,4,1:2:0:0:
41,252,263878,1,0,0:0:0:0:
147,313,264041,1,4,1:2:0:0:
361,315,264204,5,4,0:0:0:0:
469,160,264367,1,0,0:0:0:0:
350,45,264530,1,4,1:2:0:0:
350,45,264693,1,0,0:0:0:0:
483,384,264856,5,4,0:0:0:0:
483,384,265671,6,0,L|498:172,1,212.5,4|0,0:0|2:0,2:0:0:0:
498,172,266160,1,4,0:0:0:0:
106,257,266975,6,0,L|90:46,1,212.5,4|0,0:0|2:0,2:0:0:0:
90,46,267464,5,4,0:0:0:0:
424,108,267628,1,4,0:0:0:0:
256,192,267709,12,0,270399,0:0:0:0:
296,143,270725,5,6,0:0:0:0:
296,66,271051,1,0,0:0:0:0:
230,104,271377,1,0,0:0:0:0:
308,142,271703,5,2,0:0:0:0:
290,56,272029,1,0,0:0:0:0:
225,115,272355,1,0,0:0:0:0:
322,139,272681,5,2,0:0:0:0:
281,46,273007,1,0,0:0:0:0:
221,128,273333,1,0,0:0:0:0:
336,131,273659,5,2,0:0:0:0:
267,38,273996,1,0,0:0:0:0:
220,144,274333,1,0,0:0:0:0:
402,272,274670,5,2,0:0:0:0:
487,285,275007,1,2,0:0:0:0:
410,294,275344,1,2,0:0:0:0:
180,351,275681,5,0,0:0:0:0:
102,372,276012,1,2,0:0:0:0:
46,315,276343,1,0,0:0:0:0:
177,325,276675,5,0,0:0:0:0:
264,349,277001,1,2,0:0:0:0:
325,287,277327,1,0,0:0:0:0:
180,291,277659,5,0,0:0:0:0:
78,319,277988,1,2,0:0:0:0:
6,246,278318,1,0,0:0:0:0:
6,246,278648,5,2,0:0:0:0:
246,250,279007,1,2,0:0:0:0:
402,67,279366,1,2,0:0:0:0:
238,17,279725,5,6,0:0:0:0:
266,114,280060,1,0,0:0:0:0:
259,25,280395,1,0,0:0:0:0:
117,123,280730,5,2,0:0:0:0:
94,201,281065,1,0,0:0:0:0:
99,129,281400,1,0,0:0:0:0:
201,254,281736,5,2,0:0:0:0:
215,304,282071,1,0,0:0:0:0:
212,257,282406,1,0,0:0:0:0:
411,221,282741,6,0,L|414:180,1,34,2|0,0:0|0:0,0:0:0:0:
432,249,283411,2,0,L|429:208,1,34,2|0,0:0|0:0,0:0:0:0:
508,119,284082,5,6,0:0:0:0:
436,77,284422,1,0,0:0:0:0:
346,94,284763,1,0,0:0:0:0:
296,164,285104,1,0,0:0:0:0:
247,234,285445,1,0,0:0:0:0:
157,253,285786,1,0,0:0:0:0:
157,253,286127,1,2,0:0:0:0:
83,211,286468,1,2,0:0:0:0:
288,353,286840,6,0,L|338:356,1,50.9999984436036
461,294,287533,2,0,L|411:298,1,50.9999984436036
242,249,288255,2,0,L|292:252,1,50.9999984436036
16,343,288977,5,2,0:0:0:0:
16,343,289639,1,0,0:0:0:0:
256,192,289819,12,2,292530,0:0:0:0:
256,192,292711,12,0,295422,0:0:0:0:
256,192,295602,12,0,303916,0:0:0:0:
