osu file format v9

[General]
AudioFilename: reunion.mp3
AudioLeadIn: 1004
PreviewTime: 35333
Countdown: 0
SampleSet: Normal
StackLeniency: 0.7
Mode: 1
LetterboxInBreaks: 0

[Editor]
Bookmarks: 92725
DistanceSpacing: 0.7
BeatDivisor: 4
GridSize: 8

[Metadata]
Title:reunion
Artist:Tatsh
Creator:ouranhshc
Version:lepidon! - Taiko Oni
Source:Beatmania IIDX 18 Resort Anthem
Tags:The 08 team_Bourdon ignorethis lepidopodus

[Difficulty]
HPDrainRate:5
CircleSize:5
OverallDifficulty:5
ApproachRate:5
SliderMultiplier:1.4
SliderTickRate:1

[Events]
//Background and Video events
0,0,"zerochan.Xepher.320531.jpg"
//Break Periods
//Storyboard Layer 0 (Background)
//Storyboard Layer 1 (Fail)
//Storyboard Layer 2 (Pass)
//Storyboard Layer 3 (Foreground)
//Storyboard Sound Samples
//Background Colour Transformations
3,100,0,37,74

[TimingPoints]
2725,326.086956521739,4,1,0,60,1,0
35334,326.086956521739,3,1,0,60,1,1
50986,326.086956521739,4,1,0,60,1,0
92725,326.086956521739,3,1,0,60,1,1
109029,326.086956521739,4,1,0,60,1,0

[HitObjects]
480,168,3377,1,8
472,176,3458,1,0
464,184,3540,1,0
456,192,3621,1,0
480,168,3703,1,8
480,168,3784,1,0
472,176,3866,1,8
424,176,4029,5,4
336,208,4355,1,0
248,256,4681,1,0
176,192,5007,1,0
272,192,5333,1,0
360,152,5659,1,0
416,232,5985,1,0
344,296,6311,1,0
248,304,6638,1,0
232,208,6964,1,0
288,128,7290,1,0
384,128,7616,1,0
376,224,7942,1,0
232,208,8268,1,0
176,288,8594,1,0
160,240,8757,1,0
160,192,8920,1,0
224,224,9165,1,0
248,232,9246,5,0
336,200,9572,1,0
360,192,9654,1,0
384,192,9735,1,8
416,224,9898,1,0
424,248,9980,1,0
432,224,10061,1,8
416,176,10224,1,0
408,152,10306,1,0
432,152,10388,1,8
440,200,10551,1,0
424,216,10632,1,0
424,248,10714,1,8
336,200,10877,1,0
360,192,10959,1,0
384,192,11040,1,8
416,224,11203,1,0
424,248,11285,1,0
432,224,11366,1,8
416,176,11529,1,0
408,152,11611,1,0
432,152,11693,1,8
392,176,11855,1,0
368,192,11936,1,0
344,208,12018,1,0
320,216,12099,1,0
296,224,12181,1,0
272,232,12263,1,0
248,240,12344,1,0
224,248,12426,1,0
200,248,12507,1,0
176,248,12589,1,0
96,216,12670,1,0
104,192,12752,1,0
96,216,12833,1,0
112,216,12888,1,0
128,216,12942,1,0
144,216,12996,1,0
160,208,13051,1,0
176,208,13105,1,0
192,200,13159,1,0
360,104,13811,1,0
352,152,13974,1,0
336,176,14056,1,0
328,200,14138,1,0
304,240,14301,1,0
288,256,14382,1,0
272,272,14464,5,0
240,232,14627,1,0
224,216,14708,1,0
248,200,14790,1,8
296,208,14953,1,0
320,216,15034,1,0
344,224,15116,1,0
392,232,15279,1,0
416,240,15360,1,0
432,216,15442,1,8
384,208,15605,1,0
360,208,15686,1,0
336,208,15768,1,0
376,184,15931,1,8
400,176,16013,1,0
424,168,16094,1,0
376,176,16257,1,0
352,184,16339,1,0
328,192,16420,1,0
424,168,16583,1,8
448,160,16665,1,0
472,160,16746,1,0
464,184,16828,1,0
456,208,16909,1,8
472,160,16991,1,0
464,184,17072,1,0
416,184,17235,1,0
392,184,17317,1,0
392,160,17398,1,8
416,184,17561,1,0
408,208,17643,1,0
400,232,17724,1,0
360,264,17888,1,0
344,280,17969,1,0
368,272,18051,1,8
416,248,18214,1,0
432,264,18295,1,0
432,264,18377,1,0
432,216,18540,1,8
416,184,18621,1,0
392,184,18703,1,8
408,136,18866,1,8
424,152,18947,1,0
432,216,19029,1,0
456,168,19192,1,8
456,168,19273,1,0
432,168,19355,1,8
432,216,19436,1,0
416,248,19518,1,0
432,232,19599,1,8
408,224,19681,5,0
360,224,19844,1,0
336,224,19926,1,0
336,200,20007,1,8
384,192,20170,1,0
432,216,20252,1,0
432,216,20333,1,0
440,264,20496,1,0
440,264,20578,1,0
448,240,20659,1,8
416,248,20822,1,0
400,264,20904,1,0
376,272,20985,1,0
400,232,21148,1,8
408,208,21230,1,0
408,184,21311,1,0
384,144,21474,1,0
392,168,21556,1,0
392,168,21638,1,0
432,144,21801,1,8
448,160,21882,1,0
440,184,21964,1,0
432,208,22045,1,0
448,160,22127,1,8
400,232,22208,1,0
376,272,22290,1,0
336,240,22453,1,0
320,224,22534,1,0
432,144,22616,1,8
440,184,22779,1,0
424,200,22860,1,0
416,224,22942,1,0
424,272,23105,1,0
416,296,23186,1,0
440,184,23268,1,8
392,184,23431,1,0
368,184,23513,1,0
344,184,23594,1,0
392,176,23757,1,8
416,168,23839,1,0
440,168,23920,1,8
424,216,24083,1,8
424,272,24165,1,0
408,288,24246,1,0
384,288,24328,1,0
360,288,24409,1,0
336,288,24491,1,0
320,272,24572,1,8
296,264,24654,1,8
272,256,24735,1,8
248,248,24817,1,8
256,224,24898,5,8
256,176,25061,1,0
264,152,25143,1,0
416,168,25224,1,8
440,208,25388,1,0
416,168,25551,1,8
416,168,25632,1,8
408,192,25714,1,0
392,216,25795,1,0
408,232,25877,1,8
448,264,26040,1,0
416,224,26203,1,8
440,264,26366,1,0
424,248,26447,1,0
432,224,26529,1,8
440,176,26692,1,0
456,160,26855,1,8
472,144,26936,1,8
464,168,27018,1,0
456,192,27099,1,0
456,216,27181,1,0
432,208,27263,1,0
416,184,27344,1,8
408,136,27507,1,8
392,184,27670,1,0
376,208,27752,1,0
400,208,27833,1,8
440,176,27996,1,0
424,128,28159,1,8
440,144,28241,1,8
432,208,28322,1,0
416,224,28404,1,0
416,200,28485,1,8
432,208,28648,1,0
400,176,28811,1,8
408,224,28974,1,0
400,248,29056,1,0
416,200,29138,1,8
400,176,29301,1,0
448,160,29464,1,8
472,168,29545,1,8
464,192,29627,1,0
456,216,29708,1,0
472,168,29790,1,8
448,160,29871,1,0
472,168,29953,1,8
472,168,30034,1,0
448,160,30116,5,8
400,168,30279,1,0
376,168,30360,1,0
352,168,30442,1,8
376,168,30605,1,0
376,192,30686,1,0
400,208,30768,1,8
416,224,30849,1,8
464,192,30931,1,0
464,192,31013,1,0
400,168,31094,1,8
408,216,31257,1,0
424,168,31420,1,8
400,168,31502,1,8
408,192,31583,1,0
416,216,31665,1,0
432,200,31746,1,8
440,248,31909,1,0
424,168,32072,1,8
448,152,32154,1,8
464,192,32235,1,0
440,248,32317,1,0
424,264,32398,1,0
424,264,32480,1,0
416,240,32561,1,8
400,224,32643,1,8
384,208,32724,1,8
400,168,32888,1,0
400,144,32969,1,0
448,152,33051,1,8
456,200,33214,1,0
440,216,33295,1,0
424,168,33377,1,8
432,144,33458,1,8
464,192,33540,1,0
464,192,33621,1,0
464,168,33703,1,8
440,216,33866,1,0
448,152,34029,1,8
448,128,34110,1,8
456,200,34192,1,0
440,216,34273,1,0
440,216,34355,1,8
424,240,34436,1,8
400,232,34518,1,0
376,240,34599,1,0
368,216,34681,1,8
464,168,34763,1,0
464,168,34844,1,8
464,168,34926,1,0
464,168,35007,1,8
464,168,35089,1,0
464,168,35170,1,8
390,156,35334,5,4
376,232,35660,1,4
472,240,35986,1,12
384,280,36312,1,4
288,256,36638,1,4
240,168,36964,1,4
336,192,37290,1,12
424,240,37616,1,12
384,152,37942,1,4
480,168,38268,1,12
424,240,38594,1,4
376,256,38757,1,0
327,261,38920,1,0
310,261,38975,1,0
293,261,39029,1,0
276,261,39084,1,0
424,144,39247,5,4
376,232,39573,1,4
472,240,39899,1,12
384,280,40225,1,4
288,256,40551,1,4
240,168,40877,1,4
336,192,41203,1,12
424,240,41529,1,12
384,152,41855,1,4
480,168,42181,1,12
424,240,42507,1,4
376,256,42670,1,0
327,261,42833,1,0
310,261,42888,1,0
293,261,42942,1,0
276,261,42997,1,0
390,156,43160,5,4
376,232,43486,1,4
472,240,43812,1,12
384,280,44138,1,4
288,256,44464,1,4
240,168,44790,1,4
336,192,45116,1,12
424,240,45442,1,12
384,152,45768,1,4
480,168,46094,1,12
424,240,46420,1,4
376,256,46583,1,0
327,261,46746,1,0
310,261,46801,1,0
293,261,46855,1,0
276,261,46910,1,0
424,144,47073,5,12
376,232,47399,1,12
472,240,47725,1,12
384,280,48051,1,4
288,256,48377,1,4
240,168,48703,1,4
336,192,49029,1,12
424,240,49355,1,12
384,152,49681,1,4
480,168,50007,1,12
424,240,50333,1,12
383,211,50497,1,8
335,198,50660,1,8
311,192,50741,1,8
315,167,50823,1,8
321,151,50877,1,8
328,136,50931,1,8
336,122,50986,5,8
294,147,51149,1,0
274,162,51230,1,0
254,177,51312,1,0
424,240,51475,1,8
424,240,51638,1,0
403,253,51719,1,0
380,263,51801,1,0
411,225,51964,1,8
372,194,52127,1,0
349,202,52208,1,0
349,202,52290,1,0
393,181,52453,1,8
393,181,52616,1,0
392,205,52697,1,0
385,228,52779,1,0
411,187,52942,1,8
438,146,53024,1,8
435,170,53105,1,0
432,194,53187,1,0
425,217,53268,1,0
416,240,53350,1,0
403,261,53431,1,0
336,122,53594,1,8
294,147,53757,1,0
274,162,53838,1,0
254,177,53920,1,0
424,240,54083,1,8
424,240,54246,1,0
403,253,54327,1,0
380,263,54409,1,0
411,225,54572,1,8
372,194,54735,1,0
349,202,54816,1,0
349,202,54898,1,0
393,181,55061,1,8
393,181,55224,1,0
392,205,55305,1,0
385,228,55387,1,0
411,187,55550,1,8
438,146,55632,1,8
435,170,55713,1,0
432,194,55795,1,0
425,217,55876,1,0
416,240,55958,1,0
403,261,56039,1,8
354,268,56203,5,8
335,222,56366,1,0
317,205,56447,1,0
296,190,56529,1,0
274,177,56611,1,0
296,168,56692,1,8
335,222,56855,1,0
317,205,56936,1,0
296,190,57018,1,0
274,177,57100,1,0
296,168,57181,1,8
335,222,57344,1,0
317,205,57425,1,0
296,190,57507,1,0
274,177,57589,1,0
296,168,57670,1,8
335,222,57833,1,0
317,205,57914,1,0
296,190,57996,1,0
274,177,58078,1,0
296,168,58159,1,8
320,163,58241,1,8
342,171,58322,1,0
363,183,58404,1,0
382,198,58486,1,0
396,217,58567,1,0
404,239,58649,1,8
404,189,58812,1,12
355,192,58975,1,0
384,152,59138,1,12
431,164,59301,1,0
384,178,59464,1,12
382,198,59627,1,0
431,164,59790,1,12
441,211,59953,1,0
414,169,60116,1,8
424,190,60197,1,0
420,214,60279,1,0
410,236,60361,1,0
401,258,60442,1,0
425,215,60605,1,8
426,166,60768,1,8
440,146,60850,1,8
443,170,60931,1,0
440,194,61013,1,0
459,179,61094,1,8
440,194,61176,1,8
441,211,61257,1,8
441,211,61339,1,8
455,230,61420,5,0
375,172,61746,1,8
410,236,61909,1,0
391,252,61991,1,0
373,269,62072,1,0
399,200,62236,1,0
399,151,62399,1,8
440,177,62562,1,0
400,206,62725,1,0
352,219,62888,1,0
327,215,62969,1,0
364,171,63051,1,8
411,159,63214,1,0
456,139,63377,1,8
470,185,63540,1,0
458,206,63621,1,0
447,228,63703,1,0
398,224,63866,1,8
374,266,64029,1,0
330,244,64192,1,0
345,263,64274,1,0
411,159,64355,1,8
435,201,64518,1,0
463,161,64681,1,8
463,161,64844,1,0
449,181,64926,1,0
411,159,65007,1,8
458,206,65170,1,0
413,184,65333,1,8
368,164,65496,1,8
344,155,65578,1,8
435,201,65659,1,0
436,152,65822,1,8
437,176,65904,1,8
460,183,65986,1,0
436,152,66149,1,8
458,206,66230,1,0
458,206,66312,1,0
458,206,66393,1,0
449,181,66475,1,8
412,148,66638,5,0
372,237,66964,1,8
420,241,67127,1,0
420,241,67208,1,0
437,176,67290,1,8
388,172,67453,1,0
436,175,67616,1,8
411,173,67779,1,0
411,173,67942,1,0
407,197,68024,1,0
407,197,68105,1,0
448,170,68268,1,8
448,170,68431,1,0
420,241,68594,1,0
402,258,68676,1,0
385,275,68757,1,0
377,226,68920,1,8
338,196,69083,1,8
291,179,69246,1,0
266,174,69328,1,0
241,171,69409,1,0
289,166,69572,1,8
337,173,69736,1,0
350,219,69899,1,0
355,242,69980,1,0
360,266,70062,1,0
382,274,70143,1,0
395,253,70225,1,8
403,204,70388,1,0
357,222,70551,2,0,B|12:280|58:44,1,420
148,90,71855,5,8
171,97,71937,1,8
192,107,72018,1,0
215,112,72100,1,0
239,115,72181,1,8
263,118,72263,1,8
286,123,72344,1,0
309,128,72426,1,0
332,134,72507,1,8
355,140,72589,1,8
376,150,72670,1,0
392,167,72752,1,0
398,190,72833,1,0
403,238,72915,1,0
426,233,72996,1,8
389,266,73159,1,0
369,281,73241,1,0
351,263,73322,1,8
328,253,73404,1,8
306,241,73486,1,0
283,231,73567,1,0
260,221,73649,1,8
238,210,73730,1,8
263,118,73812,1,0
279,100,73893,1,0
303,101,73975,1,8
327,102,74056,1,0
350,109,74138,1,0
372,118,74219,1,8
392,131,74301,1,0
430,160,74464,1,0
450,173,74545,1,8
465,192,74627,1,0
465,216,74708,1,0
461,240,74790,1,8
445,258,74871,1,0
428,276,74953,1,0
405,266,75034,1,8
387,248,75116,1,0
362,244,75197,1,0
338,236,75279,1,8
321,217,75361,1,0
298,208,75442,1,0
274,201,75524,1,0
295,190,75605,1,8
287,141,75768,1,8
392,131,75850,1,0
416,132,75931,1,0
439,139,76013,1,8
433,162,76094,1,8
461,240,76176,1,0
461,240,76257,1,0
437,233,76339,1,8
338,236,76420,1,0
314,244,76502,1,0
333,228,76583,1,8
353,213,76665,1,8
377,209,76746,1,0
401,207,76828,1,0
420,192,76909,1,8
381,161,77072,5,8
363,143,77154,1,8
338,145,77235,1,0
316,156,77317,1,0
437,233,77399,1,8
425,254,77480,1,8
403,265,77562,1,0
381,277,77643,1,0
357,284,77725,1,8
333,289,77806,1,8
311,276,77888,1,0
288,266,77969,1,0
266,254,78051,1,0
244,241,78132,1,0
236,217,78214,1,8
316,156,78377,1,0
363,143,78458,1,0
387,146,78540,1,8
407,159,78621,1,0
426,174,78703,1,0
437,233,78784,1,0
442,208,78866,1,8
450,185,78947,1,0
444,208,79029,1,0
431,228,79110,1,0
407,236,79192,1,8
390,254,79274,1,0
389,278,79355,1,0
403,298,79437,1,0
421,282,79518,1,8
372,277,79681,1,0
351,262,79763,1,8
337,242,79844,1,0
321,222,79926,1,0
363,143,80007,1,8
372,120,80089,1,8
395,115,80170,1,0
419,111,80252,1,0
435,129,80333,1,8
453,145,80415,1,0
465,165,80496,1,8
473,188,80578,1,0
469,212,80659,1,0
478,234,80741,1,8
478,234,80822,1,0
429,234,80985,1,8
405,240,81067,1,8
380,245,81149,1,0
356,250,81230,1,0
331,253,81312,1,0
306,254,81393,1,0
293,232,81475,1,8
281,210,81556,1,8
302,197,81638,1,0
323,186,81719,1,0
453,145,81801,1,8
473,188,81882,1,0
467,211,81964,1,0
461,234,82045,1,0
429,234,82127,1,8
400,193,82290,5,0
386,172,82371,1,0
390,147,82453,1,8
401,125,82534,1,8
424,119,82616,1,0
448,115,82697,1,8
463,133,82779,1,0
476,153,82860,1,8
473,188,82942,1,0
476,212,83024,1,8
465,234,83105,1,0
449,253,83187,1,0
425,257,83268,1,8
402,265,83350,1,0
378,272,83431,1,0
361,253,83513,1,8
339,240,83594,1,0
317,228,83676,1,0
324,204,83757,1,8
346,194,83839,1,0
370,194,83920,1,0
394,189,84002,1,8
476,212,84083,1,0
465,234,84165,1,0
473,188,84246,1,8
448,188,84328,1,0
394,189,84409,1,0
413,173,84491,1,8
436,168,84572,1,0
459,162,84654,1,0
413,173,84735,1,8
367,154,84899,1,0
343,146,84980,1,0
362,131,85062,1,8
386,128,85143,1,0
362,122,85225,1,0
386,124,85306,1,8
409,130,85388,1,0
432,137,85469,1,8
433,161,85551,1,8
435,185,85632,1,0
441,208,85714,1,8
443,232,85795,1,8
454,253,85877,1,0
457,228,85958,1,8
443,232,86040,1,0
422,245,86121,1,0
435,185,86203,1,8
418,203,86284,1,0
402,222,86366,1,0
399,197,86447,1,8
433,161,86529,1,8
433,161,86610,1,0
432,137,86692,1,8
432,137,86774,1,0
428,161,86855,1,0
403,165,86937,1,8
403,189,87018,1,0
393,211,87100,1,0
399,234,87181,1,0
441,208,87263,1,8
433,231,87344,1,0
386,244,87507,5,0
369,261,87589,1,0
345,268,87670,1,0
330,248,87752,1,8
316,227,87833,1,0
296,212,87915,1,0
275,198,87996,1,8
298,190,88078,1,0
319,178,88159,1,8
343,174,88241,1,0
367,170,88322,1,8
391,172,88404,1,0
413,180,88485,1,8
428,199,88567,1,0
430,223,88649,1,0
423,246,88730,1,8
431,222,88812,1,8
433,197,88893,1,0
439,173,88975,1,0
439,173,89056,1,8
446,196,89138,1,8
468,186,89219,1,0
468,186,89301,1,8
470,210,89382,1,0
462,233,89464,1,0
433,197,89545,1,8
423,246,89627,1,0
410,266,89708,1,0
387,276,89790,1,0
364,285,89871,1,8
341,274,89953,1,0
326,227,90116,1,8
319,203,90197,1,0
321,178,90279,1,0
338,160,90360,1,8
362,157,90442,1,8
386,156,90524,1,0
399,135,90605,1,0
446,196,90687,1,8
447,220,90768,1,8
447,244,90850,1,0
433,264,90931,1,0
410,253,91013,1,8
416,276,91094,1,8
392,264,91176,1,0
368,256,91257,1,0
362,157,91339,1,8
376,176,91420,1,8
400,176,91502,1,0
424,176,91583,1,0
448,168,91665,1,8
464,152,91746,1,8
447,220,91828,1,0
432,240,91909,1,0
400,176,91991,1,8
392,200,92072,1,8
408,216,92154,1,0
408,216,92235,1,8
464,152,92317,1,0
472,176,92399,1,0
448,168,92480,1,8
448,168,92562,1,0
400,152,92725,5,4
376,192,92888,1,0
368,216,92969,1,0
432,240,93051,1,8
392,272,93214,1,0
408,224,93377,1,12
368,200,93540,1,0
344,192,93621,1,8
368,184,93703,1,0
416,192,93866,1,8
432,144,94029,1,4
384,128,94192,1,8
400,144,94273,1,0
416,168,94355,1,0
464,184,94518,1,8
408,224,94681,1,4
416,168,94844,1,8
464,184,94926,1,0
448,200,95007,1,8
440,248,95170,1,8
400,224,95333,1,4
352,224,95496,1,0
328,224,95578,1,8
344,208,95659,1,8
416,168,95822,1,0
416,168,95985,1,12
368,176,96148,1,0
368,136,96311,1,12
416,152,96475,1,0
400,152,96638,5,4
376,192,96801,1,0
368,216,96882,1,0
432,240,96964,1,8
392,272,97127,1,0
408,224,97290,1,12
368,200,97453,1,0
344,192,97534,1,8
368,184,97616,1,0
416,192,97779,1,8
432,144,97942,1,4
384,128,98105,1,8
400,144,98186,1,0
416,168,98268,1,0
464,184,98431,1,8
408,224,98594,1,4
416,168,98757,1,8
464,184,98839,1,0
448,200,98920,1,8
440,248,99083,1,8
400,224,99246,1,4
352,224,99409,1,0
328,224,99491,1,8
344,208,99572,1,8
416,168,99735,1,0
416,168,99898,1,12
368,176,100061,1,0
368,136,100224,1,12
416,152,100388,1,0
400,152,100551,5,4
376,192,100714,1,0
368,216,100795,1,0
432,240,100877,1,8
416,192,101040,1,0
408,224,101203,1,12
368,200,101366,1,0
344,192,101447,1,8
368,184,101529,1,0
416,192,101692,1,8
432,144,101855,1,4
384,128,102018,1,8
400,144,102099,1,0
416,168,102181,1,0
464,184,102344,1,8
408,224,102507,1,12
416,168,102670,1,8
464,184,102752,1,0
448,200,102833,1,8
440,248,102996,1,8
400,224,103159,1,4
352,224,103322,1,0
328,224,103404,1,8
344,208,103485,1,8
416,168,103648,1,0
416,168,103811,1,12
368,176,103974,1,0
368,136,104137,1,12
416,152,104301,1,0
381,117,104464,5,12
429,115,104627,1,8
446,132,104708,1,0
464,148,104790,1,8
460,172,104871,1,0
453,195,104953,1,0
437,241,105116,1,8
421,222,105197,1,0
396,225,105279,1,0
356,196,105442,1,12
307,191,105605,1,0
282,192,105686,1,0
298,174,105768,1,8
321,166,105850,1,0
345,166,105931,1,8
460,172,106094,1,0
460,172,106176,1,0
464,148,106257,1,8
423,175,106420,1,12
376,176,106583,1,0
416,152,106746,1,12
456,128,106909,1,0
496,160,107072,1,12
456,184,107235,1,0
460,172,107398,1,12
368,208,107725,1,12
272,192,108051,1,12
368,160,109029,5,8
392,200,109192,1,0
400,248,109355,1,0
352,240,109518,1,8
392,216,109681,1,0
432,192,109844,1,0
448,144,110007,1,8
456,192,110170,1,0
448,240,110333,1,0
464,192,110496,1,8
432,152,110659,1,0
400,192,110822,1,0
416,144,110985,1,8
368,152,111148,1,0
328,176,111311,1,0
368,208,111474,1,8
384,256,111637,1,8
448,240,111800,1,0
440,288,111963,1,0
448,240,112127,1,8
400,192,112290,1,0
448,176,112453,1,8
480,144,112616,1,8
456,184,112779,1,0
432,224,112942,1,0
416,176,113105,1,8
432,224,113268,1,0
480,216,113431,1,8
440,248,113594,1,8
400,272,113757,1,8
384,224,113920,1,0
352,184,114083,1,8
400,208,114246,1,4
312,384,115061,1,4
424,248,115550,1,4
208,128,116366,1,12
344,176,116855,1,4
352,224,117018,1,4
