osu file format v9

[General]
AudioFilename: reunion.mp3
AudioLeadIn: 1004
PreviewTime: 35333
Countdown: 0
SampleSet: Soft
StackLeniency: 0.7
Mode: 0
LetterboxInBreaks: 0

[Editor]
Bookmarks: 92725
DistanceSpacing: 0.4
BeatDivisor: 4
GridSize: 4

[Metadata]
Title:reunion
Artist:Tatsh
Creator:ouranhshc
Version:Insane
Source:Beatmania IIDX 18 Resort Anthem
Tags:The 08 team_Bourdon ignorethis lepidopodus

[Difficulty]
HPDrainRate:7
CircleSize:4
OverallDifficulty:8
ApproachRate:8
SliderMultiplier:1.8
SliderTickRate:2

[Events]
//Background and Video events
0,0,"zerochan.Xepher.320531.jpg"
//Break Periods
//Storyboard Layer 0 (Background)
//Storyboard Layer 1 (Fail)
//Storyboard Layer 2 (Pass)
//Storyboard Layer 3 (Foreground)
//Storyboard Sound Samples
//Background Colour Transformations
3,100,0,37,74

[TimingPoints]
2725,326.086956521739,4,2,0,80,1,0
4029,-100,4,1,0,80,0,0
35334,326.086956521739,3,2,0,100,1,0
35415,-100,3,1,0,100,0,0
36230,-100,3,2,0,100,0,0
36393,-100,3,1,0,100,0,0
37209,-100,3,2,0,100,0,0
37372,-100,3,1,0,100,0,0
38187,-100,3,2,0,100,0,0
38350,-100,3,1,0,100,0,0
39165,-100,3,2,0,100,0,0
39328,-100,3,1,0,100,0,0
40143,-100,3,2,0,100,0,0
40306,-100,3,1,0,100,0,0
41122,-100,3,2,0,100,0,0
41285,-100,3,1,0,100,0,0
42100,-100,3,2,0,100,0,0
42263,-100,3,1,0,100,0,0
43160,-100,3,2,0,100,0,0
43241,-100,3,1,0,100,0,0
44056,-100,3,2,0,100,0,0
44219,-100,3,1,0,100,0,0
45035,-100,3,2,0,100,0,0
45198,-100,3,1,0,100,0,0
46013,-100,3,2,0,100,0,0
46176,-100,3,1,0,100,0,0
46991,-100,3,2,0,100,0,0
47154,-100,3,1,0,100,0,0
47969,-100,3,2,0,100,0,0
48132,-100,3,1,0,100,0,0
48948,-100,3,2,0,100,0,0
49111,-100,3,1,0,100,0,0
49926,-100,3,2,0,100,0,0
50089,-100,3,1,0,10,0,0
50252,-100,3,1,0,30,0,0
50415,-100,3,1,0,50,0,0
50578,-100,3,1,0,70,0,0
50741,-100,3,1,0,90,0,0
50904,-100,3,1,0,100,0,0
50986,326.086956521739,4,1,0,100,1,0
61339,-100,4,1,0,71,0,0
71855,-100,4,2,0,70,0,0
91420,-100,4,1,0,0,0,0
91746,-100,4,1,0,30,0,0
92072,-100,4,1,0,60,0,0
92399,-100,4,1,0,100,0,0
92725,326.086956521739,3,2,0,100,1,1
92806,-100,3,1,0,100,0,1
93621,-100,3,2,0,100,0,1
93784,-100,3,1,0,100,0,1
94600,-100,3,2,0,100,0,1
94763,-100,3,1,0,100,0,1
95578,-100,3,2,0,100,0,1
95741,-100,3,1,0,100,0,1
96556,-100,3,2,0,100,0,1
96719,-100,3,1,0,100,0,1
97534,-100,3,2,0,100,0,1
97697,-100,3,1,0,100,0,1
98513,-100,3,2,0,100,0,1
98676,-100,3,1,0,100,0,1
99491,-100,3,2,0,100,0,1
99654,-100,3,1,0,100,0,1
100551,-100,3,2,0,100,0,1
100632,-100,3,1,0,100,0,1
101447,-100,3,2,0,100,0,1
101610,-100,3,1,0,100,0,1
102426,-100,3,2,0,100,0,1
102589,-100,3,1,0,100,0,1
103404,-100,3,2,0,100,0,1
103567,-100,3,1,0,100,0,1
104382,-100,3,2,0,100,0,1
104545,-100,3,1,0,100,0,1
105360,-100,3,2,0,100,0,1
105523,-100,3,1,0,100,0,1
106339,-100,3,2,0,100,0,1
106502,-100,3,1,0,100,0,1
107317,-100,3,2,0,100,0,1
107480,-100,3,1,0,100,0,1
109029,326.086956521739,5,1,0,100,1,0
117099,-100,5,2,0,0,0,0

[HitObjects]
256,48,3378,5,0
256,68,3459,1,0
256,88,3541,1,0
256,108,3622,1,0
256,128,3704,1,0
256,148,3785,1,0
256,168,3867,1,0
256,188,3948,1,0
256,208,4030,6,0,B|256:296,1,90,4|0
252,368,4355,2,0,B|304:364|324:316,1,90
388,352,4681,2,0,B|404:300|368:264,1,90
436,232,5007,2,0,B|392:184|348:204,1,90
300,244,5333,6,0,B|272:200|296:160,1,90
224,144,5659,2,0,B|244:88|296:84,1,90
256,20,5985,2,0,B|304:4|340:36,1,90
404,0,6311,2,0,B|424:48|392:88,1,90
460,116,6638,6,0,B|424:168|364:172|324:132|324:84,1,180,4|0
52,268,7290,2,0,B|88:216|148:212|188:252|188:300,1,180,4|0
108,48,7942,5,0
160,100,8105,1,0
216,148,8268,1,0
272,196,8431,1,0
328,244,8594,2,0,B|372:276,2,45
328,140,8920,2,0,B|372:108,2,45
380,192,9246,6,0,B|424:156|428:152|448:120|440:80|414:50|376:44,1,180,4|0
320,56,9735,1,0
264,100,9898,2,0,B|240:132|260:176,2,45
252,28,10224,2,0,B|208:36|196:80,2,45
320,56,10551,6,0,B|408:56,1,90
464,104,10877,2,0,B|424:136|448:188,1,90
380,212,11203,2,0,B|400:260|460:256,1,90
432,328,11529,1,0
368,364,11692,1,0
352,292,11855,5,4
336,292,11936,1,0
320,292,12018,1,0
304,292,12099,1,0
288,292,12181,1,0
272,292,12263,1,0
256,292,12344,1,0
240,292,12426,1,0
224,292,12507,1,0
208,292,12589,1,0
192,292,12670,1,0
176,292,12752,1,0
160,292,12833,6,0,B|120:292,8,22.5
96,164,13811,5,0
128,60,13974,2,0,B|140:16,2,45
204,136,14301,1,0
204,136,14382,1,0
204,136,14464,6,0,B|292:136,1,90,4|0
376,136,14790,1,8
432,76,14953,2,0,B|460:40,2,45
456,152,15279,1,0
404,212,15442,1,8
484,228,15605,2,0,B|500:272,2,45
428,288,15931,1,0
392,304,16013,1,0
356,320,16094,1,0
256,308,16257,1,0
256,268,16339,1,0
256,228,16420,1,0
304,164,16583,2,0,B|340:80,1,90,0|8
208,164,16909,6,0,B|172:80,1,90,0|4
108,32,17235,1,0
28,52,17398,1,8
84,112,17561,2,0,B|100:152,2,45
24,168,17888,1,0
56,244,18051,1,8
96,316,18214,1,0
136,316,18295,1,0
176,316,18377,1,0
216,316,18458,1,0
256,316,18540,1,0
336,316,18703,1,8
416,296,18866,2,0,B|480:216|448:124,1,180
408,60,19355,1,0
368,60,19436,1,0
328,60,19518,1,0
248,60,19681,6,0,B|156:60,1,90,4|0
139,196,20007,2,0,B|184:188|192:131,1,90,8|0
68,64,20333,2,0,B|68:154,1,90
68,236,20659,1,8
68,276,20741,1,0
68,316,20822,6,0,B|80:368|136:372,1,90
148,292,21148,2,0,B|220:228,1,90,0|8
288,264,21474,2,0,B|308:216|272:176,1,90
196,156,21801,2,0,B|108:156,2,90,0|8|0
192,76,22290,6,0,B|328:76,1,135,4|0
368,76,22616,2,0,B|412:144|376:204,1,135,4|0
336,204,22942,2,0,B|200:204,1,135,4|0
160,204,23268,2,0,B|112:204,2,45
144,284,23594,5,4
200,360,23757,1,0
312,360,23920,1,0
368,284,24083,1,0
256,224,24246,5,0
256,208,24328,1,0
256,192,24409,1,0
256,176,24491,1,0
256,160,24572,2,0,B|256:120,7,22.5
256,128,24898,6,0,B|256:40,1,90,4|0
301,146,25224,2,0,B|363:84,1,90
319,191,25551,2,0,B|408:191,1,90
301,237,25877,2,0,B|363:299,1,90
256,128,26203,6,0,B|256:40,1,90,4|0
210,146,26529,2,0,B|148:84,1,90
192,191,26856,2,0,B|104:191,1,90
210,237,27182,2,0,B|148:299,1,90
116,328,27426,1,0
84,352,27507,6,0,B|-8:352,1,90,4|0
28,280,27833,2,0,B|0:240|16:192,1,90
8,112,28159,2,0,B|52:104|88:148,1,90
160,108,28485,2,0,B|176:152|152:196,1,90
228,224,28811,6,0,B|240:172|292:168,1,90,4|0
280,88,29138,2,0,B|328:80|364:128,1,90
420,68,29464,2,0,B|448:112|428:156,1,90
500,192,29790,2,0,B|464:240|416:232,1,90
384,224,30034,1,0
352,200,30116,5,4
296,144,30279,1,0
276,220,30442,1,0
220,164,30605,1,0
240,84,30768,1,0
320,68,30931,1,0
376,124,31094,1,0
352,200,31257,1,0
296,144,31420,5,4
240,84,31583,1,0
320,68,31746,1,0
268,8,31909,1,0
188,20,32072,1,0
160,96,32235,1,0
212,160,32398,1,0
296,144,32561,1,0
328,168,32643,1,0
360,188,32724,5,4
360,268,32888,1,0
396,340,33051,2,0,B|348:356|308:328,1,90
276,256,33377,1,0
244,184,33540,1,0
196,248,33703,2,0,B|156:216|164:168,1,90
208,100,34029,5,4
224,100,34110,1,0
240,100,34192,1,0
256,100,34273,1,0
272,100,34355,1,0
288,100,34436,1,0
304,100,34518,1,0
320,100,34599,1,0
336,100,34681,1,0
352,100,34763,1,0
368,100,34844,1,0
384,100,34926,1,0
400,100,35007,1,0
416,100,35089,1,0
432,100,35170,1,0
448,100,35252,1,0
464,100,35333,5,4
464,100,35497,1,0
492,176,35660,2,0,B|504:220|492:264,1,90
334,220,35986,2,0,B|424:220,1,90
424,300,36312,5,4
424,300,36475,1,0
356,344,36638,2,0,B|264:344,1,90
175,253,36964,2,0,B|160:296|184:340,1,90
256,264,37290,6,0,B|308:264,2,45,4|0|0
224,188,37616,2,0,B|264:160,2,45
144,180,37942,2,0,B|100:196|96:256,1,90
80,328,38268,6,0,B|32:312|20:264,1,90,4|0
0,188,38594,2,0,B|0:140,2,45
72,136,38920,2,0,B|72:92,2,45
148,108,39247,5,4
180,84,39328,1,0
216,64,39410,1,0
220,144,39573,1,0
256,124,39654,1,0
288,100,39736,1,0
340,36,39899,2,0,B|428:36,1,90
484,96,40225,5,4
484,136,40306,1,0
484,176,40388,1,0
412,136,40551,1,0
412,176,40632,1,0
412,216,40714,1,0
412,296,40877,1,0
348,348,41040,1,0
336,268,41203,6,0,B|336:224,2,45,4|0|0
256,248,41529,2,0,B|256:196,2,45
272,328,41855,2,0,B|224:340|184:296,1,90
116,332,42181,6,0,B|108:280|136:248,1,90,4|0
56,228,42507,2,0,B|80:184|124:172,1,90
76,104,42834,2,0,B|100:96,7,22.5
116,88,43160,6,0,B|200:48,1,90,4|0
278,88,43486,2,0,B|200:132,1,90
128,172,43812,2,0,B|76:196,2,45
164,244,44138,6,0,B|160:296|212:316,1,90,4|0
334,240,44464,2,0,B|244:240,1,90
280,316,44790,2,0,B|328:316,2,45
208,352,45116,5,4
128,352,45279,1,0
168,280,45442,1,0
168,240,45524,1,0
168,200,45605,1,0
96,240,45768,2,0,B|44:240,2,45
64,168,46094,6,0,B|64:80,1,90,4|0
184,47,46420,2,0,B|184:100|136:116,1,90
148,196,46747,2,0,B|240:196,1,90
252,116,47073,5,4
288,44,47236,1,0
332,112,47399,1,0
368,40,47562,1,0
412,108,47725,1,0
412,148,47806,1,0
412,188,47888,1,0
480,232,48051,6,0,B|512:272,2,45,4|0|0
408,268,48377,2,0,B|408:312,2,45
336,228,48703,2,0,B|304:268,2,45
324,148,49029,6,0,B|304:56,1,90,4|0
188,32,49355,2,0,B|96:48,1,90
44,152,49681,2,0,B|64:240,1,90
152,320,50007,5,4
172,320,50089,1,0
188,320,50170,1,0
204,320,50252,1,0
220,320,50333,1,0
236,320,50415,1,0
252,320,50497,1,0
268,320,50578,1,0
284,320,50660,1,0
300,320,50741,1,0
316,320,50823,1,0
332,320,50904,1,0
348,320,50986,6,0,B|436:320,2,90,4|0|0
308,240,51475,1,0
420,208,51638,1,0
340,128,51801,1,0
340,128,51964,2,0,B|252:128,2,90
428,120,52453,2,0,B|488:52,1,90
404,24,52779,2,0,B|316:24,1,90
224,24,53105,2,0,B|172:16|144:60,1,90
144,148,53431,1,0
56,156,53594,5,4
36,244,53757,2,0,B|0:268,2,45
124,244,54083,1,0
80,324,54246,2,0,B|80:368,2,45
168,320,54572,1,0
216,244,54736,2,0,B|264:244,2,45
256,164,55062,1,0
256,76,55225,2,0,B|256:28,2,45
336,36,55551,5,0
452,80,55714,1,0
360,168,55877,1,0
336,36,56040,1,0
416,136,56203,6,0,B|484:204,2,90,4|0|0
404,224,56692,2,0,B|432:272|408:312,2,90
328,272,57181,1,0
256,328,57344,1,0
184,272,57507,1,0
108,224,57670,2,0,B|80:272|104:312,2,90
96,136,58159,2,0,B|28:204,2,90
128,104,58567,1,0
168,84,58649,1,0
212,72,58730,1,0
256,72,58812,6,0,B|344:72,1,90,4|0
376,192,59138,2,0,B|376:280,1,90,4|0
256,312,59464,2,0,B|168:312,1,90,4|0
136,192,59790,2,0,B|136:104,1,90,4|0
256,192,60116,6,0,B|256:284,1,90,4|0
256,192,60442,2,0,B|256:100,2,90,4|0|4
180,236,60931,1,0
256,284,61094,1,0
332,236,61257,1,0
332,148,61420,5,4
344,68,61583,1,0
412,24,61746,1,0
492,44,61909,1,0
508,124,62072,1,0
496,204,62236,1,0
460,276,62399,1,0
396,324,62562,1,0
316,328,62725,5,4
240,304,62888,1,0
212,228,63051,1,0
224,148,63214,1,0
224,68,63377,1,0
176,4,63540,1,0
96,0,63703,1,0
24,40,63866,1,0
16,120,64029,6,0,B|4:212,2,90,4|0|0
88,80,64518,1,0
168,100,64681,1,0
200,176,64844,1,0
220,256,65007,1,0
284,308,65170,1,0
364,312,65333,5,4
364,312,65496,1,0
432,268,65659,1,0
432,268,65822,1,0
492,212,65986,2,0,B|496:124,2,90
416,188,66475,1,0
344,148,66638,5,4
276,104,66801,1,0
196,96,66964,1,0
116,112,67127,1,0
56,168,67290,1,0
56,168,67453,1,0
48,248,67616,1,0
48,248,67779,2,0,B|56:328|136:352|192:348,1,180
152,188,68431,5,0
228,220,68594,1,0
288,276,68757,1,0
352,324,68920,1,0
432,328,69083,1,0
496,276,69246,1,4
452,36,69736,5,0
372,16,69899,1,0
292,12,70062,1,0
212,12,70225,1,0
132,20,70388,1,0
52,36,70551,5,4
52,52,70632,1,0
52,68,70714,1,0
52,84,70795,1,0
52,100,70877,1,4
52,116,70958,1,0
52,132,71040,1,0
52,148,71121,1,0
52,168,71203,2,0,B|52:216,7,45
52,231,71855,5,4
57,248,71937,1,0
66,262,72018,1,0
79,274,72100,1,0
95,281,72181,1,0
112,283,72263,1,0
129,281,72344,1,0
146,275,72426,1,0
161,265,72507,1,0
174,252,72589,1,0
187,239,72670,1,0
194,222,72752,1,0
199,204,72833,2,0,B|204:162|215:155,3,45
220,146,73159,5,4
234,134,73241,1,0
249,125,73322,1,0
265,118,73404,1,0
282,114,73486,1,0
299,114,73567,1,0
316,118,73649,1,0
330,128,73730,1,0
342,141,73812,1,0
352,155,73893,1,0
358,171,73975,1,0
358,188,74056,1,0
354,205,74138,2,0,B|342:241|321:250,3,45
318,255,74464,5,4
302,263,74545,1,0
284,266,74627,1,0
266,266,74708,1,0
248,262,74790,1,0
231,255,74871,1,0
215,245,74953,1,0
202,232,75034,1,0
187,221,75116,1,0
170,214,75197,1,0
151,212,75279,1,0
132,211,75361,1,0
114,214,75442,2,0,B|76:224|65:211,3,45
53,207,75768,5,4
40,193,75850,1,0
31,177,75931,1,0
27,159,76013,1,0
27,141,76094,1,0
34,124,76176,1,0
46,110,76257,1,0
60,99,76339,1,0
77,94,76420,1,0
95,94,76502,1,0
112,99,76583,1,0
127,107,76665,1,0
141,116,76746,2,0,B|182:139,3,45
195,148,77072,5,4
208,159,77154,1,0
219,172,77235,1,0
230,186,77317,1,0
240,200,77399,1,0
248,215,77480,1,0
258,229,77562,1,0
269,242,77643,1,0
282,254,77725,1,0
296,264,77806,1,0
311,273,77888,1,0
327,280,77969,1,0
344,285,78051,2,0,B|376:293|398:286,3,45
406,285,78377,5,4
422,278,78458,1,0
437,268,78540,1,0
449,255,78621,1,0
457,239,78703,1,0
460,221,78784,1,0
461,202,78866,1,0
459,184,78947,1,0
454,166,79029,1,0
445,150,79110,1,0
433,136,79192,1,0
419,124,79274,1,0
404,113,79355,1,0
386,106,79437,1,0
368,102,79518,1,0
349,102,79600,1,0
331,104,79681,6,0,B|303:106|289:125,3,45,4|0|0|0
276,133,80007,2,0,B|252:157|225:150,3,45
218,147,80333,2,0,B|187:144|169:156,3,45,4|0|0|0
160,165,80659,2,0,B|129:187|129:217,3,45
129,217,80985,5,4
130,235,81067,1,0
136,251,81149,1,0
146,265,81230,1,0
159,277,81312,1,4
174,285,81393,1,0
191,290,81475,1,0
208,293,81556,1,0
226,292,81638,2,0,B|259:289|279:274,3,45,4|0|0|0
284,270,81964,2,0,B|308:252|331:250,3,45,4|0|0|0
342,252,82290,5,4
359,251,82371,1,0
376,246,82453,1,0
390,235,82534,1,0
400,220,82616,1,0
406,203,82697,1,0
407,184,82779,1,0
405,166,82860,1,0
397,149,82942,1,0
383,137,83024,1,0
367,128,83105,1,0
349,124,83187,1,0
331,124,83268,1,0
313,128,83350,1,0
295,133,83431,1,0
277,138,83513,1,0
259,140,83594,5,4
240,138,83676,1,0
222,132,83757,1,0
205,123,83839,1,0
187,120,83920,1,0
169,124,84002,1,0
154,133,84083,1,0
141,145,84165,1,0
130,159,84246,2,0,B|111:184|111:215,3,45
111,217,84572,2,0,B|109:245|126:264,3,45
133,274,84899,5,4
147,284,84980,1,0
164,287,85062,1,0
181,285,85143,1,0
198,279,85225,1,0
213,269,85306,1,0
222,253,85388,1,0
229,236,85469,1,0
236,219,85551,1,0
244,203,85632,1,0
253,187,85714,1,0
263,172,85795,1,0
275,158,85877,1,0
290,148,85958,1,0
306,141,86040,1,0
323,136,86121,1,0
341,136,86203,5,4
358,140,86284,1,0
373,148,86366,1,0
387,158,86447,1,0
399,170,86529,1,0
406,186,86610,1,0
408,203,86692,1,0
408,221,86774,1,0
405,238,86855,2,0,B|401:268|379:287,3,45
373,290,87181,2,0,B|349:314|329:318,3,45
318,319,87507,5,4
300,323,87589,1,0
282,326,87670,1,0
264,328,87752,1,0
246,329,87833,1,0
227,328,87915,1,0
209,323,87996,1,0
193,314,88078,1,0
178,304,88159,1,0
164,291,88241,1,0
153,276,88322,1,0
145,259,88404,1,0
139,241,88485,1,0
136,223,88567,1,0
138,205,88649,1,0
144,188,88730,1,0
155,174,88812,5,4
167,161,88893,1,0
180,149,88975,1,0
195,139,89056,1,0
211,130,89138,1,0
227,124,89219,1,0
244,119,89301,1,0
261,117,89382,1,0
279,117,89464,2,0,B|314:117|336:121,3,45
341,122,89790,2,0,B|366:125|388:146,3,45
394,152,90116,5,4
404,166,90197,1,0
412,182,90279,1,0
418,198,90360,1,0
419,216,90442,1,0
415,233,90524,1,0
409,250,90605,1,0
399,265,90687,1,0
391,281,90768,1,0
378,294,90850,1,0
364,305,90931,1,0
347,312,91013,1,0
329,313,91094,1,0
311,310,91176,1,0
294,303,91257,1,0
284,287,91339,1,0
280,272,91420,5,4
280,256,91502,1,0
280,240,91583,1,0
280,224,91665,1,0
280,204,91746,1,0
280,188,91828,1,0
280,172,91909,1,0
280,156,91991,1,0
280,140,92072,1,0
280,124,92154,1,0
280,108,92235,1,0
280,92,92317,1,0
280,76,92399,1,0
280,60,92480,1,0
280,44,92562,1,0
272,28,92643,1,0
256,24,92725,6,0,B|168:24,1,90,4|0
76,16,93051,2,0,B|72:64|120:100,1,90
200,112,93377,2,0,B|200:204,1,90
112,180,93703,5,4
120,268,93866,1,0
172,340,94029,1,0
256,368,94192,1,0
340,340,94355,1,0
392,268,94518,1,0
400,180,94681,6,0,B|312:180,1,90,4|0
300,268,95007,2,0,B|256:296|212:268,1,90
202,180,95333,2,0,B|112:180,1,90
24,180,95659,5,4
24,180,95822,1,0
40,92,95985,1,0
40,92,96148,1,0
116,44,96311,1,0
116,44,96475,1,0
204,24,96638,6,0,B|204:72,2,45,4|0|0
308,24,96964,2,0,B|308:72,2,45
396,44,97290,1,0
472,92,97453,1,0
484,180,97616,6,0,B|424:180|400:136,1,90,4|0
328,192,97942,2,0,B|240:192,1,90
284,268,98268,2,0,B|340:272|352:328,1,90
268,356,98594,6,0,B|236:388,2,45,4|0|0
196,300,98920,1,0
196,256,99002,1,0
196,212,99083,1,0
152,132,99246,2,0,B|112:100,2,45
228,84,99572,6,0,B|184:0,2,90,4|0|0
296,24,100061,1,0
388,16,100225,1,0
408,20,100306,1,0
428,28,100388,1,0
444,44,100469,1,0
452,64,100551,5,4
396,136,100714,1,0
484,148,100877,2,0,B|484:244,1,90
460,324,101203,1,0
376,356,101366,1,0
312,292,101529,6,0,B|280:248|296:196,1,90,4|0
256,124,101855,2,0,B|160:124,1,90
156,212,102181,2,0,B|104:204|88:160,1,90
36,232,102507,6,0,B|96:304,1,90,4|0
156,212,102833,2,0,B|146:255|182:295,1,90
256,352,103159,2,0,B|256:264,1,90
256,172,103485,6,0,B|256:120,2,45,4|0|0
364,224,103811,2,0,B|404:188,2,45
272,280,104138,1,0
272,280,104301,1,0
320,180,104464,6,0,B|376:108,1,90,4|0
344,24,104790,1,0
344,24,104953,1,0
256,24,105116,2,0,B|204:24,2,45
220,108,105442,5,4
132,132,105605,1,0
60,188,105768,1,0
132,252,105931,1,0
220,276,106094,1,0
256,304,106176,1,0
288,276,106257,1,0
380,252,106420,6,0,B|380:160,1,90,4|0
132,132,106746,2,0,B|132:224,1,90
256,348,107072,2,0,B|256:256,1,90
256,68,107398,6,0,B|344:60,1,90,4|0
380,192,107725,2,0,B|388:280,1,90
256,316,108051,2,0,B|168:324,1,90
256,40,109029,6,0,B|256:128,2,90,4|0|0
352,20,109518,1,0
424,88,109681,1,4
352,20,109844,1,0
332,116,110007,2,0,B|340:168|392:180,2,90
256,180,110496,1,0
180,116,110659,1,0
256,180,110822,1,0
156,188,110985,6,0,B|156:276,1,90
356,188,111311,2,0,B|356:276,1,90
256,360,111637,6,0,B|256:268,2,90
156,364,112127,1,0
84,296,112290,1,0
80,196,112453,1,0
152,128,112616,6,0,B|208:96|208:48,2,90
240,176,113105,2,0,B|300:180|312:244,1,90
332,324,113431,1,0
424,292,113594,6,0,B|496:232,1,90
424,92,113920,2,0,B|496:152,1,90
404,192,114246,1,0
48,56,115061,6,0,B|52:48|52:48|56:60|56:60|60:48|60:48|64:60|64:60|68:48|68:48|72:60|72:60|76:48|76:48|80:60|80:60|84:48|84:48|88:60|88:60|92:48|92:48|96:56|96:56|224:56,1,270
464,328,116366,6,0,B|460:336|460:336|456:324|456:324|452:336|452:336|448:324|448:324|444:336|444:336|440:324|440:324|436:336|436:336|432:324|432:324|428:336|428:336|424:324|424:324|420:336|420:336|416:328|416:328|288:328,1,270
256,192,117018,1,0
256,192,117099,12,0,119300
