osu file format v9

[General]
AudioFilename: reunion.mp3
AudioLeadIn: 1004
PreviewTime: 35333
Countdown: 0
SampleSet: Soft
StackLeniency: 0.7
Mode: 0
LetterboxInBreaks: 0

[Editor]
Bookmarks: 92725
DistanceSpacing: 0.7
BeatDivisor: 4
GridSize: 8

[Metadata]
Title:reunion
Artist:Tatsh
Creator:ouranhshc
Version:Easy
Source:Beatmania IIDX 18 Resort Anthem
Tags:The 08 team_Bourdon ignorethis lepidopodus

[Difficulty]
HPDrainRate:2
CircleSize:3
OverallDifficulty:2
ApproachRate:2
SliderMultiplier:0.599999999999999
SliderTickRate:1

[Events]
//Background and Video events
0,0,"zerochan.Xepher.320531.jpg"
//Break Periods
//Storyboard Layer 0 (Background)
//Storyboard Layer 1 (Fail)
//Storyboard Layer 2 (Pass)
//Storyboard Layer 3 (Foreground)
//Storyboard Sound Samples
//Background Colour Transformations
3,100,0,37,74

[TimingPoints]
2725,326.086956521739,4,2,0,80,1,0
4029,-100,4,1,0,80,0,0
35334,326.086956521739,3,2,0,100,1,0
35415,-100,3,1,0,100,0,0
36230,-100,3,2,0,100,0,0
36393,-100,3,1,0,100,0,0
37209,-100,3,2,0,100,0,0
37372,-100,3,1,0,100,0,0
38187,-100,3,2,0,100,0,0
38350,-100,3,1,0,100,0,0
39165,-100,3,2,0,100,0,0
39328,-100,3,1,0,100,0,0
40143,-100,3,2,0,100,0,0
40306,-100,3,1,0,100,0,0
41122,-100,3,2,0,100,0,0
41285,-100,3,1,0,100,0,0
42100,-100,3,2,0,100,0,0
42263,-100,3,1,0,100,0,0
43160,-100,3,2,0,100,0,0
43241,-100,3,1,0,100,0,0
44056,-100,3,2,0,100,0,0
44219,-100,3,1,0,100,0,0
45035,-100,3,2,0,100,0,0
45198,-100,3,1,0,100,0,0
46013,-100,3,2,0,100,0,0
46176,-100,3,1,0,100,0,0
46991,-100,3,2,0,100,0,0
47154,-100,3,1,0,100,0,0
47969,-100,3,2,0,100,0,0
48132,-100,3,1,0,100,0,0
48948,-100,3,2,0,100,0,0
49111,-100,3,1,0,100,0,0
49926,-100,3,2,0,100,0,0
50089,-100,3,1,0,10,0,0
50252,-100,3,1,0,30,0,0
50415,-100,3,1,0,50,0,0
50578,-100,3,1,0,70,0,0
50741,-100,3,1,0,90,0,0
50904,-100,3,1,0,100,0,0
50986,326.086956521739,4,1,0,100,1,0
61339,-100,4,1,0,71,0,0
71855,-100,4,2,0,70,0,0
91420,-100,4,1,0,0,0,0
91746,-100,4,1,0,30,0,0
92072,-100,4,1,0,60,0,0
92399,-100,4,1,0,100,0,0
92725,326.086956521739,3,2,0,100,1,1
92806,-100,3,1,0,100,0,1
93621,-100,3,2,0,100,0,1
93784,-100,3,1,0,100,0,1
94600,-100,3,2,0,100,0,1
94763,-100,3,1,0,100,0,1
95578,-100,3,2,0,100,0,1
95741,-100,3,1,0,100,0,1
96556,-100,3,2,0,100,0,1
96719,-100,3,1,0,100,0,1
97534,-100,3,2,0,100,0,1
97697,-100,3,1,0,100,0,1
98513,-100,3,2,0,100,0,1
98676,-100,3,1,0,100,0,1
99491,-100,3,2,0,100,0,1
99654,-100,3,1,0,100,0,1
100551,-100,3,2,0,100,0,1
100632,-100,3,1,0,100,0,1
101447,-100,3,2,0,100,0,1
101610,-100,3,1,0,100,0,1
102426,-100,3,2,0,100,0,1
102589,-100,3,1,0,100,0,1
103404,-100,3,2,0,100,0,1
103567,-100,3,1,0,100,0,1
104382,-100,3,2,0,100,0,1
104545,-100,3,1,0,100,0,1
105360,-100,3,2,0,100,0,1
105523,-100,3,1,0,100,0,1
106339,-100,3,2,0,100,0,1
106502,-100,3,1,0,100,0,1
107317,-100,3,2,0,100,0,1
107480,-100,3,1,0,100,0,1
109029,326.086956521739,4,1,0,100,1,0
117099,-100,4,2,0,0,0,0

[HitObjects]
256,40,3377,1,0
176,24,4029,2,0,B|104:96|168:184|256:192|256:192|344:200|416:288|336:360,2,479.999999999999,4|4|0
256,40,9898,5,0
336,24,10551,2,0,B|456:24,1,120,4|0
488,104,11855,2,0,B|488:168|416:192|416:192|488:216|488:280,2,240,4|0|4
488,16,15116,5,0
408,16,15768,2,0,B|288:16,2,120
408,96,17724,1,0
328,104,18377,2,0,B|328:160|256:192|256:192|184:160|184:104,1,240,0|4
104,96,20333,5,0
32,144,20985,2,0,B|32:272,1,120
96,320,22290,2,0,B|216:320,2,120
112,240,24246,1,0
136,160,24898,6,0,B|376:160,2,240,4|0|0
0,264,28811,1,0
152,328,30116,6,0,B|192:376|256:400|320:376|360:328,2,240,4|0|0
56,192,34029,1,0
96,32,35334,5,4
224,32,36312,1,4
128,112,37290,1,4
224,32,38268,2,0,B|224:96,2,59.9999999999999,4|0|0
224,32,39247,5,4
352,32,40225,1,4
432,136,41203,1,4
352,32,42181,2,0,B|312:80,2,59.9999999999999,4|0|0
352,32,43160,6,0,B|168:32,1,180,4|4
56,88,45116,2,0,B|16:176|48:264,1,180,4|4
152,192,47073,6,0,B|336:192,1,180,4|4
456,192,49029,2,0,B|520:272|456:360,2,180,4|4|0
328,192,51964,5,0
256,88,52942,1,0
216,16,53594,6,0,B|152:56|160:136|224:168,2,180,4|0|0
296,16,56203,6,0,B|360:56|352:136|288:168,2,180,4|0|0
256,88,58812,6,0,B|136:88,3,120,4|0|4|0
256,288,61420,6,0,B|168:288|168:288|120:280|112:224|144:200|160:192|192:208|176:232,3,240,4|0|0|0
256,208,65986,1,0
334,228,66638,6,0,B|320:208|352:192|368:200|400:224|392:280|344:288|344:288|256:288,3,240,4|0|0|0
256,368,71203,1,0
176,368,71855,6,0,B|96:368|184:224|40:192|40:192,3,240,4|0|4|0
40,104,76420,1,0
96,40,77072,6,0,B|176:0|240:96|336:48|336:48,3,240,4|0|4|0
416,40,81638,1,0
448,120,82290,6,0,B|384:128|360:192|360:192|384:256|448:264,1,240,4|0
472,344,84246,1,0
384,344,84899,6,0,B|144:344,1,240,4|0
144,264,86855,1,0
160,184,87507,6,0,B|184:120|256:112|328:120|352:184,1,240,4|0
368,264,89464,1,0
288,264,90116,6,0,B|288:344|376:376|440:336|448:280,2,240,4|0|4
256,144,93703,5,4
256,16,94681,1,4
152,80,95659,1,4
152,208,96638,6,0,B|144:304|232:360,2,180,4|4|4
256,136,99572,1,4
360,64,100551,6,0,B|416:144|360:232,3,180,4|4|4|4
256,304,104464,6,0,B|256:120,3,180,4|4|4|4
72,32,109029,6,0,B|0:48|0:152|64:168,2,180,4|0|0
152,32,111637,2,0,B|336:32,2,180,4|0|0
112,104,114246,5,4
136,208,115061,2,0,B|224:208,1,89.9999999999999,4|0
168,296,116366,2,0,B|256:296,1,89.9999999999999,4|0
258,296,117018,1,0
256,192,117099,12,0,119463
