osu file format v14

[General]
AudioFilename: Xepher.mp3
AudioLeadIn: 0
PreviewTime: 72593
Countdown: 0
SampleSet: None
StackLeniency: 0.7
Mode: 3
LetterboxInBreaks: 0
SpecialStyle: 0
WidescreenStoryboard: 1

[Editor]
DistanceSpacing: 1.3
BeatDivisor: 4
GridSize: 4
TimelineZoom: 2

[Metadata]
Title:Xepher
TitleUnicode:Xepher
Artist:Tatsh
ArtistUnicode:Tatsh
Creator:zZ_Natsu_Zz
Version:Normal
Source:O2jam
Tags:
BeatmapID:760176
BeatmapSetID:344055

[Difficulty]
HPDrainRate:8
CircleSize:4
OverallDifficulty:8
ApproachRate:5
SliderMultiplier:1.4
SliderTickRate:1

[Events]
//Background and Video events
0,0,"xepher-bg.png",0,0
//Break Periods
//Storyboard Layer 0 (Background)
//Storyboard Layer 1 (Fail)
//Storyboard Layer 2 (Pass)
//Storyboard Layer 3 (Foreground)
//Storyboard Sound Samples

[TimingPoints]
20358,352.941176470588,4,1,0,20,1,0
74005,-100,4,1,0,20,0,1
99416,-100,4,1,0,20,0,0

[HitObjects]
64,192,20358,128,0,21063:0:0:0:0:
320,192,21063,128,0,21769:0:0:0:0:
192,192,21769,128,0,22475:0:0:0:0:
448,192,22475,128,0,23181:0:0:0:0:
64,192,23181,128,0,23887:0:0:0:0:
320,192,23887,128,0,24593:0:0:0:0:
448,192,24593,128,0,25299:0:0:0:0:
192,192,25299,128,0,26005:0:0:0:0:
320,192,26005,128,0,26710:0:0:0:0:
448,192,26710,128,0,27416:0:0:0:0:
320,192,27416,128,0,28828:0:0:0:0:
64,192,28828,128,0,29534:0:0:0:0:
320,192,29534,128,0,30240:0:0:0:0:
448,192,30240,128,0,31652:0:0:0:0:
192,192,31652,128,0,33063:0:0:0:0:
448,192,33063,128,0,33769:0:0:0:0:
320,192,33769,128,0,34122:0:0:0:0:
192,192,34122,128,0,34475:0:0:0:0:
64,192,34475,128,0,35181:0:0:0:0:
192,192,35181,128,0,35887:0:0:0:0:
448,192,35887,128,0,36593:0:0:0:0:
192,192,36593,128,0,37299:0:0:0:0:
320,192,37299,128,0,38005:0:0:0:0:
64,192,38005,128,0,38710:0:0:0:0:
448,192,38710,128,0,40122:0:0:0:0:
192,192,40122,128,0,41534:0:0:0:0:
320,192,41534,128,0,44358:0:0:0:0:
192,192,44358,128,0,46475:0:0:0:0:
64,192,47181,1,0,0:0:0:0:
320,192,47181,1,0,0:0:0:0:
192,192,47446,1,0,0:0:0:0:
448,192,47710,1,0,0:0:0:0:
192,192,47975,1,0,0:0:0:0:
64,192,48240,1,0,0:0:0:0:
320,192,48240,1,0,0:0:0:0:
320,192,48593,1,0,0:0:0:0:
448,192,48593,1,0,0:0:0:0:
192,192,48858,1,0,0:0:0:0:
320,192,49122,1,0,0:0:0:0:
64,192,49387,1,0,0:0:0:0:
192,192,49652,1,0,0:0:0:0:
320,192,49652,1,0,0:0:0:0:
448,192,49828,1,0,0:0:0:0:
64,192,50005,1,0,0:0:0:0:
320,192,50005,1,0,0:0:0:0:
192,192,50269,1,0,0:0:0:0:
448,192,50534,1,0,0:0:0:0:
192,192,50799,1,0,0:0:0:0:
64,192,51063,1,0,0:0:0:0:
320,192,51063,1,0,0:0:0:0:
448,192,51416,1,0,0:0:0:0:
320,192,51593,1,0,0:0:0:0:
192,192,51769,1,0,0:0:0:0:
64,192,51946,1,0,0:0:0:0:
448,192,52122,1,0,0:0:0:0:
320,192,52299,1,0,0:0:0:0:
192,192,52475,1,0,0:0:0:0:
320,192,52652,1,0,0:0:0:0:
192,192,52828,1,0,0:0:0:0:
64,192,52828,1,0,0:0:0:0:
448,192,53093,1,0,0:0:0:0:
192,192,53358,1,0,0:0:0:0:
64,192,53622,1,0,0:0:0:0:
320,192,53887,1,0,0:0:0:0:
448,192,53887,1,0,0:0:0:0:
64,192,54240,1,0,0:0:0:0:
320,192,54240,1,0,0:0:0:0:
192,192,54505,1,0,0:0:0:0:
448,192,54769,1,0,0:0:0:0:
64,192,55034,1,0,0:0:0:0:
320,192,55299,1,0,0:0:0:0:
448,192,55299,1,0,0:0:0:0:
192,192,55475,1,0,0:0:0:0:
320,192,55652,1,0,0:0:0:0:
448,192,55652,1,0,0:0:0:0:
192,192,55916,1,0,0:0:0:0:
64,192,56181,1,0,0:0:0:0:
192,192,56446,1,0,0:0:0:0:
320,192,56710,1,0,0:0:0:0:
448,192,56710,1,0,0:0:0:0:
64,192,57063,1,0,0:0:0:0:
320,192,57416,1,0,0:0:0:0:
192,192,57769,1,0,0:0:0:0:
320,192,57946,1,0,0:0:0:0:
192,192,58122,1,0,0:0:0:0:
320,192,58299,1,0,0:0:0:0:
192,192,58475,1,0,0:0:0:0:
448,192,58475,1,0,0:0:0:0:
64,192,58828,1,0,0:0:0:0:
320,192,58828,1,0,0:0:0:0:
448,192,59181,1,0,0:0:0:0:
192,192,59534,1,0,0:0:0:0:
448,192,59887,1,0,0:0:0:0:
64,192,60240,1,0,0:0:0:0:
448,192,60593,1,0,0:0:0:0:
320,192,60769,1,0,0:0:0:0:
192,192,60946,1,0,0:0:0:0:
64,192,61122,1,0,0:0:0:0:
448,192,61299,1,0,0:0:0:0:
192,192,61652,1,0,0:0:0:0:
64,192,62005,1,0,0:0:0:0:
320,192,62357,1,0,0:0:0:0:
448,192,62710,1,0,0:0:0:0:
192,192,63063,1,0,0:0:0:0:
64,192,63416,1,0,0:0:0:0:
320,192,63769,1,0,0:0:0:0:
192,192,64122,1,0,0:0:0:0:
448,192,64475,1,0,0:0:0:0:
320,192,64828,1,0,0:0:0:0:
64,192,65181,1,0,0:0:0:0:
320,192,65534,1,0,0:0:0:0:
448,192,65887,1,0,0:0:0:0:
192,192,66240,1,0,0:0:0:0:
320,192,66593,1,0,0:0:0:0:
192,192,66946,1,0,0:0:0:0:
64,192,67299,1,0,0:0:0:0:
192,192,67652,1,0,0:0:0:0:
320,192,68005,1,0,0:0:0:0:
448,192,68357,1,0,0:0:0:0:
320,192,68534,1,0,0:0:0:0:
192,192,68710,1,0,0:0:0:0:
64,192,68887,1,0,0:0:0:0:
192,192,69063,1,0,0:0:0:0:
320,192,69240,1,0,0:0:0:0:
448,192,69416,1,0,0:0:0:0:
320,192,69593,1,0,0:0:0:0:
192,192,69769,1,0,0:0:0:0:
64,192,69946,1,0,0:0:0:0:
192,192,70122,1,0,0:0:0:0:
320,192,70299,1,0,0:0:0:0:
448,192,70475,1,0,0:0:0:0:
320,192,70652,1,0,0:0:0:0:
192,192,70828,1,0,0:0:0:0:
64,192,71005,1,0,0:0:0:0:
192,192,71181,1,0,0:0:0:0:
320,192,71357,1,0,0:0:0:0:
192,192,71534,1,0,0:0:0:0:
320,192,71710,1,0,0:0:0:0:
192,192,71887,1,0,0:0:0:0:
320,192,72063,1,0,0:0:0:0:
192,192,72240,1,0,0:0:0:0:
320,192,72416,1,0,0:0:0:0:
192,192,72593,1,0,0:0:0:0:
64,192,72593,1,0,0:0:0:0:
448,192,72593,128,0,73299:0:0:0:0:
192,192,73299,128,0,73652:0:0:0:0:
320,192,73652,128,0,74005:0:0:0:0:
64,192,74005,128,0,74710:0:0:0:0:
320,192,74710,128,0,75063:0:0:0:0:
192,192,75416,128,0,76122:0:0:0:0:
320,192,76122,128,0,76475:0:0:0:0:
448,192,76475,128,0,76828:0:0:0:0:
320,192,76828,128,0,77181:0:0:0:0:
192,192,77181,128,0,77534:0:0:0:0:
448,192,77181,1,0,0:0:0:0:
64,192,77534,128,0,77887:0:0:0:0:
320,192,77887,1,0,0:0:0:0:
448,192,77887,128,0,78240:0:0:0:0:
320,192,78240,128,0,78593:0:0:0:0:
192,192,78946,128,0,79299:0:0:0:0:
320,192,79299,128,0,79652:0:0:0:0:
448,192,79652,128,0,80005:0:0:0:0:
192,192,80357,128,0,80710:0:0:0:0:
64,192,80710,128,0,81063:0:0:0:0:
320,192,81063,128,0,81769:0:0:0:0:
192,192,81769,128,0,82122:0:0:0:0:
448,192,82475,128,0,83181:0:0:0:0:
320,192,83181,128,0,83887:0:0:0:0:
192,192,83887,128,0,85299:0:0:0:0:
448,192,85652,128,0,86005:0:0:0:0:
192,192,86005,128,0,86357:0:0:0:0:
320,192,86357,128,0,86710:0:0:0:0:
64,192,86710,128,0,87063:0:0:0:0:
192,192,87063,128,0,87416:0:0:0:0:
448,192,87063,1,0,0:0:0:0:
320,192,87416,128,0,87769:0:0:0:0:
448,192,87769,128,0,88122:0:0:0:0:
192,192,87769,1,0,0:0:0:0:
64,192,88122,128,0,89534:0:0:0:0:
320,192,88122,1,0,0:0:0:0:
448,192,88387,1,0,0:0:0:0:
320,192,88652,1,0,0:0:0:0:
192,192,88916,1,0,0:0:0:0:
320,192,89181,1,0,0:0:0:0:
448,192,89181,1,0,0:0:0:0:
320,192,89534,128,0,90946:0:0:0:0:
192,192,89534,1,0,0:0:0:0:
448,192,89799,1,0,0:0:0:0:
192,192,90063,1,0,0:0:0:0:
64,192,90328,1,0,0:0:0:0:
448,192,90593,1,0,0:0:0:0:
192,192,90593,1,0,0:0:0:0:
64,192,90769,1,0,0:0:0:0:
192,192,90946,128,0,91652:0:0:0:0:
448,192,90946,1,0,0:0:0:0:
320,192,91210,1,0,0:0:0:0:
64,192,91475,1,0,0:0:0:0:
320,192,91740,1,0,0:0:0:0:
64,192,92005,1,0,0:0:0:0:
448,192,92005,1,0,0:0:0:0:
64,192,92357,1,0,0:0:0:0:
192,192,92534,1,0,0:0:0:0:
448,192,92710,1,0,0:0:0:0:
64,192,92887,1,0,0:0:0:0:
320,192,93063,1,0,0:0:0:0:
192,192,93240,1,0,0:0:0:0:
320,192,93416,1,0,0:0:0:0:
448,192,93593,1,0,0:0:0:0:
320,192,93769,1,0,0:0:0:0:
64,192,93769,1,0,0:0:0:0:
192,192,94034,1,0,0:0:0:0:
64,192,94299,1,0,0:0:0:0:
320,192,94563,1,0,0:0:0:0:
192,192,94828,1,0,0:0:0:0:
64,192,94828,1,0,0:0:0:0:
320,192,95181,1,0,0:0:0:0:
448,192,95181,1,0,0:0:0:0:
64,192,95446,1,0,0:0:0:0:
192,192,95710,1,0,0:0:0:0:
320,192,95975,1,0,0:0:0:0:
192,192,96240,1,0,0:0:0:0:
64,192,96240,1,0,0:0:0:0:
320,192,96416,1,0,0:0:0:0:
448,192,96593,1,0,0:0:0:0:
192,192,96593,1,0,0:0:0:0:
320,192,96857,1,0,0:0:0:0:
192,192,97122,1,0,0:0:0:0:
64,192,97387,1,0,0:0:0:0:
192,192,97652,1,0,0:0:0:0:
448,192,97652,1,0,0:0:0:0:
320,192,98005,1,0,0:0:0:0:
320,192,98357,1,0,0:0:0:0:
320,192,98710,1,0,0:0:0:0:
192,192,98887,1,0,0:0:0:0:
320,192,99063,1,0,0:0:0:0:
192,192,99240,1,0,0:0:0:0:
320,192,99416,1,0,0:0:0:0:
64,192,99416,128,0,99769:0:0:0:0:
192,192,99769,128,0,100122:0:0:0:0:
320,192,100122,128,0,100475:0:0:0:0:
448,192,100475,128,0,100828:0:0:0:0:
320,192,100828,1,0,0:0:0:0:
192,192,101181,1,0,0:0:0:0:
448,192,101534,1,0,0:0:0:0:
64,192,101887,1,0,0:0:0:0:
192,192,101887,1,0,0:0:0:0:
320,192,102240,128,0,102593:0:0:0:0:
448,192,102593,128,0,102946:0:0:0:0:
320,192,102946,128,0,103299:0:0:0:0:
192,192,103299,128,0,103652:0:0:0:0:
448,192,103652,1,0,0:0:0:0:
320,192,104005,1,0,0:0:0:0:
192,192,104357,1,0,0:0:0:0:
64,192,104710,1,0,0:0:0:0:
320,192,104710,1,0,0:0:0:0:
192,192,105063,1,0,0:0:0:0:
448,192,105416,1,0,0:0:0:0:
192,192,105769,1,0,0:0:0:0:
64,192,106122,1,0,0:0:0:0:
320,192,106475,1,0,0:0:0:0:
192,192,106828,1,0,0:0:0:0:
448,192,107181,1,0,0:0:0:0:
320,192,107534,1,0,0:0:0:0:
192,192,107887,1,0,0:0:0:0:
64,192,108240,1,0,0:0:0:0:
320,192,108593,1,0,0:0:0:0:
192,192,108946,1,0,0:0:0:0:
320,192,109299,1,0,0:0:0:0:
448,192,109652,1,0,0:0:0:0:
320,192,110005,1,0,0:0:0:0:
192,192,110357,1,0,0:0:0:0:
64,192,110710,1,0,0:0:0:0:
320,192,110887,1,0,0:0:0:0:
192,192,111063,1,0,0:0:0:0:
320,192,111240,1,0,0:0:0:0:
192,192,111416,1,0,0:0:0:0:
448,192,111593,1,0,0:0:0:0:
192,192,111769,1,0,0:0:0:0:
320,192,111946,1,0,0:0:0:0:
192,192,112122,1,0,0:0:0:0:
64,192,112122,128,0,112828:0:0:0:0:
192,192,112828,128,0,113181:0:0:0:0:
448,192,113181,128,0,113534:0:0:0:0:
320,192,113534,128,0,114240:0:0:0:0:
192,192,114240,128,0,114593:0:0:0:0:
448,192,114946,128,0,115652:0:0:0:0:
192,192,115652,128,0,116005:0:0:0:0:
64,192,116005,128,0,116357:0:0:0:0:
192,192,116357,128,0,116710:0:0:0:0:
320,192,116710,128,0,117063:0:0:0:0:
64,192,116710,1,0,0:0:0:0:
448,192,117063,128,0,117416:0:0:0:0:
320,192,117416,128,0,117769:0:0:0:0:
64,192,117416,1,0,0:0:0:0:
192,192,117769,128,0,118475:0:0:0:0:
448,192,118475,1,0,0:0:0:0:
320,192,118828,1,0,0:0:0:0:
64,192,119181,1,0,0:0:0:0:
192,192,119181,128,0,119887:0:0:0:0:
448,192,119887,128,0,120240:0:0:0:0:
320,192,120240,128,0,120593:0:0:0:0:
192,192,120593,128,0,121299:0:0:0:0:
448,192,121299,128,0,121652:0:0:0:0:
64,192,122005,128,0,122710:0:0:0:0:
192,192,122710,128,0,123416:0:0:0:0:
448,192,123416,128,0,124828:0:0:0:0:
64,192,123769,1,0,0:0:0:0:
192,192,124475,1,0,0:0:0:0:
64,192,124828,128,0,126240:0:0:0:0:
192,192,125181,1,0,0:0:0:0:
448,192,125887,1,0,0:0:0:0:
192,192,126240,1,0,0:0:0:0:
320,192,126240,128,0,126946:0:0:0:0:
448,192,126946,128,0,127652:0:0:0:0:
64,192,127299,1,0,0:0:0:0:
192,192,127652,1,0,0:0:0:0:
320,192,127828,1,0,0:0:0:0:
192,192,128005,1,0,0:0:0:0:
448,192,128181,1,0,0:0:0:0:
192,192,128269,1,0,0:0:0:0:
64,192,128446,1,0,0:0:0:0:
320,192,128534,1,0,0:0:0:0:
448,192,128710,128,0,128887:0:0:0:0:
192,192,128887,128,0,129063:0:0:0:0:
320,192,129063,1,0,0:0:0:0:
192,192,129240,1,0,0:0:0:0:
320,192,129416,1,0,0:0:0:0:
64,192,129593,1,0,0:0:0:0:
320,192,129681,1,0,0:0:0:0:
448,192,129857,1,0,0:0:0:0:
192,192,129946,1,0,0:0:0:0:
448,192,130122,1,0,0:0:0:0:
64,192,130299,1,0,0:0:0:0:
192,192,130475,1,0,0:0:0:0:
320,192,130652,1,0,0:0:0:0:
192,192,130828,1,0,0:0:0:0:
448,192,131005,1,0,0:0:0:0:
64,192,131093,1,0,0:0:0:0:
192,192,131269,1,0,0:0:0:0:
448,192,131357,1,0,0:0:0:0:
320,192,131534,1,0,0:0:0:0:
64,192,131710,1,0,0:0:0:0:
192,192,131887,1,0,0:0:0:0:
320,192,132063,1,0,0:0:0:0:
448,192,132240,1,0,0:0:0:0:
64,192,132416,1,0,0:0:0:0:
192,192,132505,1,0,0:0:0:0:
448,192,132681,1,0,0:0:0:0:
320,192,132769,1,0,0:0:0:0:
64,192,132946,1,0,0:0:0:0:
320,192,133122,1,0,0:0:0:0:
64,192,133299,1,0,0:0:0:0:
320,192,133475,1,0,0:0:0:0:
192,192,133652,1,0,0:0:0:0:
448,192,133828,1,0,0:0:0:0:
320,192,134005,1,0,0:0:0:0:
192,192,134181,1,0,0:0:0:0:
64,192,134357,1,0,0:0:0:0:
320,192,134357,1,0,0:0:0:0:
192,192,134534,1,0,0:0:0:0:
448,192,134534,1,0,0:0:0:0:
64,192,136122,1,0,0:0:0:0:
320,192,136299,1,0,0:0:0:0:
192,192,136475,1,0,0:0:0:0:
448,192,136652,1,0,0:0:0:0:
320,192,136828,1,0,0:0:0:0:
192,192,137005,1,0,0:0:0:0:
64,192,137181,1,0,0:0:0:0:
192,192,137357,1,0,0:0:0:0:
64,192,137534,1,0,0:0:0:0:
448,192,137534,128,0,138946:0:0:0:0:
192,192,138946,128,0,140357:0:0:0:0:
320,192,140357,128,0,141769:0:0:0:0:
192,192,141769,128,0,142475:0:0:0:0:
64,192,142475,128,0,143181:0:0:0:0:
320,192,143181,128,0,144593:0:0:0:0:
448,192,144593,128,0,146005:0:0:0:0:
192,192,146005,128,0,147416:0:0:0:0:
320,192,147416,128,0,148828:0:0:0:0:
64,192,148828,1,0,0:0:0:0:
192,192,149181,1,0,0:0:0:0:
448,192,149534,1,0,0:0:0:0:
192,192,149887,1,0,0:0:0:0:
448,192,150240,128,0,150946:0:0:0:0:
192,192,150946,1,0,0:0:0:0:
192,192,151652,128,0,152357:0:0:0:0:
448,192,152357,1,0,0:0:0:0:
320,192,152710,1,0,0:0:0:0:
192,192,153063,1,0,0:0:0:0:
64,192,153416,1,0,0:0:0:0:
192,192,153769,1,0,0:0:0:0:
320,192,154122,1,0,0:0:0:0:
64,192,154475,128,0,155181:0:0:0:0:
320,192,155181,1,0,0:0:0:0:
192,192,155534,1,0,0:0:0:0:
448,192,155887,128,0,156593:0:0:0:0:
192,192,156593,1,0,0:0:0:0:
320,192,156946,1,0,0:0:0:0:
448,192,157299,128,0,158005:0:0:0:0:
192,192,158005,1,0,0:0:0:0:
64,192,158710,128,0,159416:0:0:0:0:
192,192,159416,128,0,160122:0:0:0:0:
320,192,160122,128,0,161534:0:0:0:0:
192,192,161534,1,0,0:0:0:0:
448,192,161887,1,0,0:0:0:0:
320,192,162240,1,0,0:0:0:0:
192,192,162593,1,0,0:0:0:0:
320,192,162946,1,0,0:0:0:0:
448,192,163299,1,0,0:0:0:0:
320,192,163652,1,0,0:0:0:0:
192,192,164005,1,0,0:0:0:0:
64,192,164357,1,0,0:0:0:0:
448,192,164357,128,0,165769:0:0:0:0:
320,192,165769,128,0,167181:0:0:0:0:
192,192,167181,128,0,168593:0:0:0:0:
