osu file format v14

[General]
AudioFilename: Xepher.mp3
AudioLeadIn: 0
PreviewTime: 72593
Countdown: 0
SampleSet: Soft
StackLeniency: 0.7
Mode: 3
LetterboxInBreaks: 0
SpecialStyle: 0
WidescreenStoryboard: 0

[Editor]
DistanceSpacing: 1.3
BeatDivisor: 6
GridSize: 4
TimelineZoom: 2

[Metadata]
Title:Xepher
TitleUnicode:Xepher
Artist:Tatsh
ArtistUnicode:Tatsh
Creator:zZ_Natsu_Zz
Version:Another
Source:O2jam
Tags:
BeatmapID:760174
BeatmapSetID:344055

[Difficulty]
HPDrainRate:8
CircleSize:4
OverallDifficulty:8
ApproachRate:5
SliderMultiplier:1.4
SliderTickRate:1

[Events]
//Background and Video events
0,0,"xepher-bg.png",0,0
//Break Periods
//Storyboard Layer 0 (Background)
//Storyboard Layer 1 (Fail)
//Storyboard Layer 2 (Pass)
//Storyboard Layer 3 (Foreground)
//Storyboard Sound Samples

[TimingPoints]
20358,352.941176470588,4,2,0,30,1,0
74005,-100,4,2,0,30,0,1
99416,-100,4,2,0,30,0,0

[HitObjects]
448,192,20358,128,0,21063:0:0:0:13:
64,192,20358,1,0,0:0:0:13:
192,192,20475,1,0,0:0:0:26:
320,192,20593,1,0,0:0:0:26:
192,192,20710,1,0,0:0:0:26:
64,192,20828,1,0,0:0:0:26:
320,192,20946,1,0,0:0:0:26:
192,192,21063,128,0,21769:0:0:0:13:
64,192,21063,1,0,0:0:0:13:
320,192,21181,1,0,0:0:0:26:
448,192,21299,1,0,0:0:0:26:
64,192,21416,1,0,0:0:0:26:
320,192,21534,1,0,0:0:0:26:
448,192,21652,1,0,0:0:0:26:
64,192,21769,128,0,22475:0:0:0:13:
320,192,21769,1,0,0:0:0:13:
192,192,21887,1,0,0:0:0:26:
320,192,22005,1,0,0:0:0:26:
448,192,22122,1,0,0:0:0:26:
320,192,22240,1,0,0:0:0:26:
192,192,22358,1,0,0:0:0:26:
320,192,22475,128,0,23181:0:0:0:13:
448,192,22475,1,0,0:0:0:13:
192,192,22593,1,0,0:0:0:26:
448,192,22710,1,0,0:0:0:26:
64,192,22828,1,0,0:0:0:26:
192,192,22946,1,0,0:0:0:26:
448,192,23063,1,0,0:0:0:26:
192,192,23181,128,0,23887:0:0:0:13:
64,192,23181,1,0,0:0:0:13:
320,192,23299,1,0,0:0:0:26:
448,192,23416,1,0,0:0:0:26:
320,192,23534,1,0,0:0:0:26:
64,192,23652,1,0,0:0:0:26:
448,192,23769,1,0,0:0:0:26:
448,192,23887,128,0,24593:0:0:0:13:
320,192,23887,1,0,0:0:0:13:
192,192,24005,1,0,0:0:0:26:
64,192,24122,1,0,0:0:0:26:
320,192,24240,1,0,0:0:0:26:
192,192,24358,1,0,0:0:0:26:
320,192,24475,1,0,0:0:0:26:
64,192,24593,128,0,25299:0:0:0:13:
192,192,24593,1,0,0:0:0:13:
448,192,24710,1,0,0:0:0:26:
320,192,24828,1,0,0:0:0:26:
192,192,24946,1,0,0:0:0:26:
320,192,25063,1,0,0:0:0:26:
448,192,25181,1,0,0:0:0:26:
320,192,25299,128,0,26005:0:0:0:13:
192,192,25299,1,0,0:0:0:13:
448,192,25416,1,0,0:0:0:26:
192,192,25534,1,0,0:0:0:26:
64,192,25652,1,0,0:0:0:26:
448,192,25769,1,0,0:0:0:26:
192,192,25887,1,0,0:0:0:26:
192,192,26005,128,0,26710:0:0:0:13:
64,192,26005,1,0,0:0:0:13:
320,192,26122,1,0,0:0:0:26:
448,192,26240,1,0,0:0:0:26:
64,192,26358,1,0,0:0:0:26:
448,192,26475,1,0,0:0:0:26:
320,192,26593,1,0,0:0:0:26:
448,192,26710,128,0,27416:0:0:0:13:
64,192,26710,1,0,0:0:0:13:
192,192,26828,1,0,0:0:0:26:
320,192,26946,1,0,0:0:0:26:
192,192,27063,1,0,0:0:0:26:
320,192,27181,1,0,0:0:0:26:
192,192,27299,1,0,0:0:0:26:
64,192,27416,1,0,0:0:0:13:
320,192,27416,128,0,28828:0:0:0:13:
192,192,27534,1,0,0:0:0:26:
448,192,27652,1,0,0:0:0:26:
192,192,27769,1,0,0:0:0:26:
64,192,27887,1,0,0:0:0:26:
192,192,28005,1,0,0:0:0:26:
448,192,28122,1,0,0:0:0:26:
192,192,28240,1,0,0:0:0:26:
64,192,28299,1,0,0:0:0:0:
448,192,28358,1,0,0:0:0:0:
192,192,28416,1,0,0:0:0:0:
64,192,28475,1,0,0:0:0:0:
448,192,28534,1,0,0:0:0:0:
192,192,28593,1,0,0:0:0:26:
64,192,28652,1,0,0:0:0:0:
448,192,28710,1,0,0:0:0:0:
192,192,28769,1,0,0:0:0:0:
192,192,28828,128,0,29534:0:0:0:13:
64,192,28828,1,0,0:0:0:0:
320,192,28887,1,0,0:0:0:0:
448,192,28946,1,0,0:0:0:0:
64,192,29005,1,0,0:0:0:0:
320,192,29063,1,0,0:0:0:0:
448,192,29122,1,0,0:0:0:0:
64,192,29181,1,0,0:0:0:0:
320,192,29240,1,0,0:0:0:0:
448,192,29299,1,0,0:0:0:0:
64,192,29416,1,0,0:0:0:26:
448,192,29534,128,0,30240:0:0:0:13:
320,192,29534,1,0,0:0:0:13:
64,192,29652,1,0,0:0:0:26:
192,192,29769,1,0,0:0:0:26:
320,192,29887,1,0,0:0:0:26:
192,192,30005,1,0,0:0:0:26:
320,192,30122,1,0,0:0:0:26:
64,192,30240,128,0,31652:0:0:0:13:
192,192,30240,1,0,0:0:0:13:
320,192,30358,1,0,0:0:0:26:
448,192,30475,1,0,0:0:0:26:
320,192,30593,1,0,0:0:0:26:
192,192,30710,1,0,0:0:0:26:
320,192,30828,1,0,0:0:0:26:
448,192,30946,1,0,0:0:0:26:
320,192,31063,1,0,0:0:0:26:
192,192,31181,1,0,0:0:0:26:
320,192,31299,1,0,0:0:0:26:
448,192,31416,1,0,0:0:0:26:
320,192,31534,1,0,0:0:0:26:
448,192,31652,128,0,32887:0:0:0:13:
192,192,31652,1,0,0:0:0:13:
320,192,31769,1,0,0:0:0:26:
64,192,31887,1,0,0:0:0:26:
192,192,32005,1,0,0:0:0:26:
320,192,32122,1,0,0:0:0:26:
192,192,32240,1,0,0:0:0:26:
64,192,32358,1,0,0:0:0:26:
320,192,32475,1,0,0:0:0:26:
64,192,32593,1,0,0:0:0:26:
192,192,32710,1,0,0:0:0:26:
64,192,32828,1,0,0:0:0:26:
320,192,32887,1,0,0:0:0:26:
192,192,32975,1,0,0:0:0:26:
64,192,33063,128,0,33769:0:0:0:13:
320,192,33063,1,0,0:0:0:13:
448,192,33181,1,0,0:0:0:26:
320,192,33299,1,0,0:0:0:26:
192,192,33416,1,0,0:0:0:26:
448,192,33534,1,0,0:0:0:26:
320,192,33652,1,0,0:0:0:26:
192,192,33769,128,0,34122:0:0:0:13:
448,192,33769,1,0,0:0:0:13:
64,192,33887,1,0,0:0:0:26:
448,192,34005,1,0,0:0:0:26:
320,192,34122,128,0,34475:0:0:0:13:
64,192,34122,1,0,0:0:0:13:
192,192,34240,1,0,0:0:0:26:
448,192,34358,1,0,0:0:0:26:
64,192,34475,128,0,35181:0:0:0:13:
192,192,34475,1,0,0:0:0:13:
448,192,34593,1,0,0:0:0:26:
320,192,34710,1,0,0:0:0:26:
192,192,34828,1,0,0:0:0:26:
320,192,34946,1,0,0:0:0:26:
448,192,35063,1,0,0:0:0:26:
320,192,35181,128,0,35887:0:0:0:13:
192,192,35181,1,0,0:0:0:13:
448,192,35299,1,0,0:0:0:26:
192,192,35416,1,0,0:0:0:26:
64,192,35534,1,0,0:0:0:26:
192,192,35652,1,0,0:0:0:26:
448,192,35769,1,0,0:0:0:26:
192,192,35887,128,0,36593:0:0:0:13:
64,192,35887,1,0,0:0:0:13:
320,192,36005,1,0,0:0:0:26:
448,192,36122,1,0,0:0:0:26:
320,192,36240,1,0,0:0:0:26:
64,192,36358,1,0,0:0:0:26:
320,192,36475,1,0,0:0:0:26:
448,192,36593,128,0,37299:0:0:0:13:
64,192,36593,1,0,0:0:0:13:
192,192,36710,1,0,0:0:0:26:
320,192,36828,1,0,0:0:0:26:
192,192,36946,1,0,0:0:0:26:
64,192,37063,1,0,0:0:0:26:
320,192,37181,1,0,0:0:0:26:
192,192,37299,128,0,38005:0:0:0:13:
64,192,37299,1,0,0:0:0:13:
320,192,37416,1,0,0:0:0:26:
448,192,37534,1,0,0:0:0:26:
64,192,37652,1,0,0:0:0:26:
320,192,37769,1,0,0:0:0:26:
64,192,37887,1,0,0:0:0:26:
448,192,38005,128,0,38710:0:0:0:13:
320,192,38005,1,0,0:0:0:13:
192,192,38122,1,0,0:0:0:26:
64,192,38240,1,0,0:0:0:26:
192,192,38358,1,0,0:0:0:26:
320,192,38475,1,0,0:0:0:26:
192,192,38593,1,0,0:0:0:26:
64,192,38710,128,0,40122:0:0:0:13:
320,192,38710,1,0,0:0:0:13:
448,192,38828,1,0,0:0:0:26:
320,192,38946,1,0,0:0:0:26:
192,192,39063,1,0,0:0:0:26:
320,192,39181,1,0,0:0:0:26:
448,192,39299,1,0,0:0:0:26:
192,192,39416,1,0,0:0:0:26:
448,192,39534,1,0,0:0:0:0:
320,192,39593,1,0,0:0:0:0:
192,192,39652,1,0,0:0:0:0:
448,192,39710,1,0,0:0:0:0:
320,192,39769,1,0,0:0:0:0:
192,192,39828,1,0,0:0:0:0:
448,192,39887,1,0,0:0:0:0:
320,192,39946,1,0,0:0:0:0:
192,192,40005,1,0,0:0:0:0:
448,192,40063,1,0,0:0:0:0:
192,192,40122,128,0,41534:0:0:0:13:
320,192,40122,1,0,0:0:0:0:
64,192,40181,1,0,0:0:0:0:
448,192,40240,1,0,0:0:0:0:
320,192,40299,1,0,0:0:0:0:
64,192,40358,1,0,0:0:0:0:
448,192,40416,1,0,0:0:0:0:
320,192,40475,1,0,0:0:0:0:
64,192,40534,1,0,0:0:0:0:
448,192,40593,1,0,0:0:0:0:
320,192,40652,1,0,0:0:0:0:
64,192,40710,1,0,0:0:0:0:
448,192,40769,1,0,0:0:0:0:
320,192,40828,1,0,0:0:0:26:
64,192,40887,1,0,0:0:0:0:
448,192,40946,1,0,0:0:0:26:
320,192,41005,1,0,0:0:0:0:
64,192,41063,1,0,0:0:0:0:
448,192,41181,1,0,0:0:0:26:
64,192,41299,1,0,0:0:0:26:
320,192,41416,1,0,0:0:0:26:
448,192,41534,128,0,44358:0:0:0:13:
64,192,41534,1,0,0:0:0:13:
320,192,41652,1,0,0:0:0:26:
192,192,41769,1,0,0:0:0:26:
64,192,41887,1,0,0:0:0:26:
192,192,42005,1,0,0:0:0:26:
320,192,42122,1,0,0:0:0:26:
192,192,42240,1,0,0:0:0:26:
64,192,42358,1,0,0:0:0:26:
320,192,42475,1,0,0:0:0:26:
192,192,42593,1,0,0:0:0:26:
64,192,42710,1,0,0:0:0:26:
192,192,42828,1,0,0:0:0:26:
320,192,42946,1,0,0:0:0:26:
192,192,43063,1,0,0:0:0:26:
64,192,43181,1,0,0:0:0:26:
320,192,43299,1,0,0:0:0:26:
192,192,43416,1,0,0:0:0:26:
64,192,43534,1,0,0:0:0:26:
192,192,43652,1,0,0:0:0:26:
320,192,43769,1,0,0:0:0:26:
192,192,43887,1,0,0:0:0:26:
64,192,44005,1,0,0:0:0:26:
192,192,44122,1,0,0:0:0:26:
320,192,44240,1,0,0:0:0:26:
192,192,44358,128,0,46475:0:0:0:26:
64,192,44358,128,0,46475:0:0:0:0:
320,192,47181,1,0,0:0:0:8:
448,192,47181,1,0,0:0:0:8:
64,192,47181,1,0,0:0:0:8:
192,192,47269,1,0,0:0:0:26:
64,192,47358,1,0,0:0:0:26:
448,192,47446,1,0,0:0:0:13:
192,192,47446,1,0,0:0:0:13:
320,192,47534,1,0,0:0:0:26:
64,192,47622,1,0,0:0:0:26:
192,192,47710,1,0,0:0:0:13:
320,192,47710,1,0,0:0:0:13:
448,192,47799,1,0,0:0:0:26:
192,192,47887,1,0,0:0:0:26:
64,192,47975,1,0,0:0:0:13:
320,192,47975,1,0,0:0:0:13:
192,192,48063,1,0,0:0:0:26:
320,192,48152,1,0,0:0:0:26:
64,192,48240,128,0,48593:0:0:0:8:
192,192,48240,1,0,0:0:0:8:
448,192,48240,128,0,48593:0:0:0:8:
192,192,48593,1,0,0:0:0:13:
320,192,48593,1,0,0:0:0:13:
448,192,48681,1,0,0:0:0:26:
320,192,48769,1,0,0:0:0:26:
192,192,48858,1,0,0:0:0:13:
64,192,48858,1,0,0:0:0:13:
320,192,48946,1,0,0:0:0:26:
448,192,49034,1,0,0:0:0:26:
192,192,49122,1,0,0:0:0:13:
64,192,49122,1,0,0:0:0:13:
320,192,49210,1,0,0:0:0:26:
192,192,49299,1,0,0:0:0:26:
320,192,49387,1,0,0:0:0:13:
448,192,49387,1,0,0:0:0:13:
64,192,49475,1,0,0:0:0:26:
192,192,49563,1,0,0:0:0:26:
320,192,49652,1,0,0:0:0:8:
448,192,49652,1,0,0:0:0:8:
64,192,49652,1,0,0:0:0:8:
320,192,49828,1,0,0:0:0:8:
192,192,49828,1,0,0:0:0:8:
64,192,49828,1,0,0:0:0:8:
64,192,50005,1,0,0:0:0:13:
448,192,50005,1,0,0:0:0:13:
192,192,50093,1,0,0:0:0:26:
320,192,50181,1,0,0:0:0:26:
448,192,50269,1,0,0:0:0:13:
192,192,50269,1,0,0:0:0:13:
320,192,50358,1,0,0:0:0:26:
448,192,50446,1,0,0:0:0:26:
64,192,50534,1,0,0:0:0:13:
192,192,50534,1,0,0:0:0:13:
320,192,50622,1,0,0:0:0:26:
192,192,50710,1,0,0:0:0:26:
64,192,50799,1,0,0:0:0:13:
320,192,50799,1,0,0:0:0:13:
448,192,50887,1,0,0:0:0:26:
64,192,50975,1,0,0:0:0:26:
320,192,51063,1,0,0:0:0:13:
448,192,51063,1,0,0:0:0:13:
192,192,51063,1,0,0:0:0:0:
320,192,51152,1,0,0:0:0:13:
448,192,51152,1,0,0:0:0:13:
192,192,51152,1,0,0:0:0:0:
320,192,51240,1,0,0:0:0:13:
448,192,51240,1,0,0:0:0:13:
192,192,51240,1,0,0:0:0:0:
64,192,51416,1,0,0:0:0:13:
448,192,51416,1,0,0:0:0:13:
192,192,51505,1,0,0:0:0:26:
320,192,51593,1,0,0:0:0:13:
64,192,51593,1,0,0:0:0:13:
192,192,51681,1,0,0:0:0:26:
320,192,51769,1,0,0:0:0:13:
448,192,51769,1,0,0:0:0:13:
64,192,51946,1,0,0:0:0:26:
192,192,52034,1,0,0:0:0:13:
320,192,52034,1,0,0:0:0:13:
448,192,52122,1,0,0:0:0:26:
64,192,52210,1,0,0:0:0:13:
320,192,52210,1,0,0:0:0:13:
192,192,52299,1,0,0:0:0:26:
64,192,52387,1,0,0:0:0:26:
320,192,52475,1,0,0:0:0:13:
448,192,52475,1,0,0:0:0:13:
192,192,52563,1,0,0:0:0:26:
320,192,52652,1,0,0:0:0:26:
64,192,52652,1,0,0:0:0:0:
192,192,52740,1,0,0:0:0:26:
64,192,52828,1,0,0:0:0:13:
448,192,52828,1,0,0:0:0:13:
320,192,52916,1,0,0:0:0:26:
448,192,53005,1,0,0:0:0:26:
64,192,53093,1,0,0:0:0:13:
192,192,53093,1,0,0:0:0:13:
320,192,53181,1,0,0:0:0:26:
192,192,53269,1,0,0:0:0:26:
320,192,53358,1,0,0:0:0:13:
448,192,53358,1,0,0:0:0:13:
192,192,53446,1,0,0:0:0:26:
64,192,53534,1,0,0:0:0:26:
448,192,53622,1,0,0:0:0:13:
192,192,53622,1,0,0:0:0:13:
320,192,53710,1,0,0:0:0:26:
448,192,53799,1,0,0:0:0:26:
64,192,53887,128,0,54240:0:0:0:8:
192,192,53887,128,0,54240:0:0:0:8:
320,192,53887,1,0,0:0:0:8:
448,192,54240,1,0,0:0:0:13:
320,192,54240,1,0,0:0:0:13:
192,192,54328,1,0,0:0:0:26:
448,192,54416,1,0,0:0:0:26:
320,192,54505,1,0,0:0:0:13:
192,192,54505,1,0,0:0:0:13:
64,192,54593,1,0,0:0:0:26:
448,192,54681,1,0,0:0:0:26:
320,192,54769,1,0,0:0:0:13:
64,192,54769,1,0,0:0:0:13:
192,192,54858,1,0,0:0:0:26:
320,192,54946,1,0,0:0:0:26:
448,192,55034,1,0,0:0:0:13:
192,192,55034,1,0,0:0:0:13:
320,192,55122,1,0,0:0:0:26:
192,192,55210,1,0,0:0:0:26:
320,192,55299,1,0,0:0:0:8:
448,192,55299,1,0,0:0:0:8:
64,192,55299,1,0,0:0:0:8:
192,192,55475,1,0,0:0:0:8:
320,192,55475,1,0,0:0:0:8:
448,192,55475,1,0,0:0:0:8:
64,192,55652,1,0,0:0:0:13:
320,192,55652,1,0,0:0:0:13:
448,192,55740,1,0,0:0:0:26:
320,192,55828,1,0,0:0:0:26:
192,192,55916,1,0,0:0:0:13:
64,192,55916,1,0,0:0:0:13:
320,192,56005,1,0,0:0:0:26:
64,192,56093,1,0,0:0:0:26:
320,192,56181,1,0,0:0:0:13:
448,192,56181,1,0,0:0:0:13:
192,192,56269,1,0,0:0:0:26:
448,192,56358,1,0,0:0:0:26:
192,192,56446,1,0,0:0:0:13:
64,192,56446,1,0,0:0:0:13:
320,192,56534,1,0,0:0:0:26:
448,192,56622,1,0,0:0:0:26:
192,192,56710,128,0,57063:0:0:0:8:
320,192,56710,1,0,0:0:0:8:
64,192,56710,128,0,57063:0:0:0:8:
320,192,57063,1,0,0:0:0:13:
448,192,57063,1,0,0:0:0:13:
192,192,57240,1,0,0:0:0:26:
64,192,57416,1,0,0:0:0:13:
320,192,57416,1,0,0:0:0:13:
448,192,57593,1,0,0:0:0:26:
64,192,57769,1,0,0:0:0:13:
192,192,57769,1,0,0:0:0:13:
320,192,57858,1,0,0:0:0:13:
448,192,57858,1,0,0:0:0:13:
64,192,57946,1,0,0:0:0:13:
192,192,57946,1,0,0:0:0:13:
320,192,58034,1,0,0:0:0:13:
448,192,58034,1,0,0:0:0:13:
192,192,58122,1,0,0:0:0:13:
64,192,58122,1,0,0:0:0:13:
320,192,58210,1,0,0:0:0:13:
448,192,58210,1,0,0:0:0:13:
192,192,58299,1,0,0:0:0:13:
64,192,58299,1,0,0:0:0:13:
320,192,58387,1,0,0:0:0:13:
448,192,58387,1,0,0:0:0:13:
64,192,58475,1,0,0:0:0:13:
192,192,58475,1,0,0:0:0:13:
448,192,58475,1,0,0:0:0:0:
192,192,58652,1,0,0:0:0:13:
448,192,58652,1,0,0:0:0:13:
64,192,58828,1,0,0:0:0:13:
192,192,58828,1,0,0:0:0:13:
320,192,58828,1,0,0:0:0:0:
448,192,59005,1,0,0:0:0:26:
64,192,59181,1,0,0:0:0:13:
320,192,59181,1,0,0:0:0:13:
192,192,59357,1,0,0:0:0:26:
320,192,59446,1,0,0:0:0:26:
192,192,59534,1,0,0:0:0:13:
64,192,59534,1,0,0:0:0:13:
448,192,59622,1,0,0:0:0:26:
320,192,59710,1,0,0:0:0:26:
64,192,59887,1,0,0:0:0:13:
320,192,59887,1,0,0:0:0:13:
192,192,60063,1,0,0:0:0:26:
320,192,60240,1,0,0:0:0:13:
448,192,60240,1,0,0:0:0:13:
192,192,60416,1,0,0:0:0:26:
320,192,60593,1,0,0:0:0:13:
448,192,60593,1,0,0:0:0:13:
192,192,60769,1,0,0:0:0:13:
320,192,60769,1,0,0:0:0:13:
192,192,60946,1,0,0:0:0:13:
64,192,60946,1,0,0:0:0:13:
320,192,61122,1,0,0:0:0:13:
192,192,61122,1,0,0:0:0:13:
320,192,61299,1,0,0:0:0:13:
448,192,61299,1,0,0:0:0:13:
192,192,61299,1,0,0:0:0:0:
192,192,61475,1,0,0:0:0:0:
64,192,61475,1,0,0:0:0:0:
448,192,61652,1,0,0:0:0:13:
320,192,61652,1,0,0:0:0:0:
192,192,61652,1,0,0:0:0:0:
320,192,61828,1,0,0:0:0:26:
64,192,62005,1,0,0:0:0:13:
192,192,62005,1,0,0:0:0:13:
448,192,62181,1,0,0:0:0:0:
320,192,62269,1,0,0:0:0:0:
448,192,62357,1,0,0:0:0:13:
192,192,62357,1,0,0:0:0:0:
320,192,62446,1,0,0:0:0:0:
64,192,62534,1,0,0:0:0:0:
320,192,62710,1,0,0:0:0:13:
448,192,62710,1,0,0:0:0:13:
64,192,62887,1,0,0:0:0:13:
320,192,62887,1,0,0:0:0:13:
192,192,63063,1,0,0:0:0:13:
320,192,63063,1,0,0:0:0:13:
448,192,63240,1,0,0:0:0:26:
64,192,63416,1,0,0:0:0:13:
320,192,63416,1,0,0:0:0:13:
192,192,63505,1,0,0:0:0:26:
448,192,63593,1,0,0:0:0:26:
64,192,63681,1,0,0:0:0:26:
320,192,63769,1,0,0:0:0:13:
448,192,63769,1,0,0:0:0:13:
192,192,63857,1,0,0:0:0:26:
64,192,63946,1,0,0:0:0:26:
320,192,64122,1,0,0:0:0:13:
448,192,64122,1,0,0:0:0:13:
192,192,64122,1,0,0:0:0:0:
64,192,64299,1,0,0:0:0:13:
192,192,64299,1,0,0:0:0:13:
192,192,64475,1,0,0:0:0:13:
448,192,64475,1,0,0:0:0:13:
64,192,64475,1,0,0:0:0:0:
320,192,64652,1,0,0:0:0:26:
64,192,64828,1,0,0:0:0:13:
192,192,64828,1,0,0:0:0:13:
448,192,65005,1,0,0:0:0:26:
320,192,65093,1,0,0:0:0:26:
192,192,65181,1,0,0:0:0:13:
64,192,65181,1,0,0:0:0:13:
320,192,65269,1,0,0:0:0:26:
448,192,65357,1,0,0:0:0:26:
64,192,65534,1,0,0:0:0:13:
320,192,65534,1,0,0:0:0:13:
192,192,65710,1,0,0:0:0:13:
448,192,65710,1,0,0:0:0:13:
192,192,65887,1,0,0:0:0:13:
64,192,65887,1,0,0:0:0:13:
448,192,66063,1,0,0:0:0:26:
64,192,66240,1,0,0:0:0:13:
320,192,66240,1,0,0:0:0:13:
192,192,66416,1,0,0:0:0:26:
448,192,66416,1,0,0:0:0:0:
320,192,66505,1,0,0:0:0:26:
448,192,66593,1,0,0:0:0:13:
64,192,66593,1,0,0:0:0:13:
192,192,66681,1,0,0:0:0:26:
64,192,66769,1,0,0:0:0:26:
320,192,66946,1,0,0:0:0:13:
448,192,66946,1,0,0:0:0:13:
64,192,67122,1,0,0:0:0:13:
192,192,67122,1,0,0:0:0:13:
192,192,67299,1,0,0:0:0:13:
448,192,67299,1,0,0:0:0:13:
320,192,67475,1,0,0:0:0:26:
64,192,67475,1,0,0:0:0:0:
192,192,67563,1,0,0:0:0:26:
320,192,67652,1,0,0:0:0:13:
448,192,67652,1,0,0:0:0:13:
64,192,67740,1,0,0:0:0:26:
192,192,67828,1,0,0:0:0:26:
64,192,68005,1,0,0:0:0:13:
448,192,68005,1,0,0:0:0:13:
320,192,68181,1,0,0:0:0:26:
192,192,68357,1,0,0:0:0:13:
64,192,68357,1,0,0:0:0:13:
448,192,68357,128,0,68534:0:0:0:0:
192,192,68534,1,0,0:0:0:0:
320,192,68534,128,0,68710:0:0:0:0:
64,192,68710,1,0,0:0:0:13:
192,192,68710,128,0,68887:0:0:0:0:
448,192,68887,1,0,0:0:0:13:
320,192,68887,128,0,69063:0:0:0:0:
64,192,69063,128,0,69416:0:0:0:13:
192,192,69063,1,0,0:0:0:13:
320,192,69240,1,0,0:0:0:26:
448,192,69240,1,0,0:0:0:0:
192,192,69416,1,0,0:0:0:0:
320,192,69416,128,0,69593:0:0:0:0:
448,192,69593,1,0,0:0:0:0:
192,192,69769,1,0,0:0:0:13:
64,192,69769,1,0,0:0:0:13:
192,192,69946,1,0,0:0:0:13:
64,192,69946,1,0,0:0:0:13:
192,192,70122,1,0,0:0:0:13:
64,192,70122,1,0,0:0:0:13:
192,192,70299,1,0,0:0:0:13:
64,192,70299,1,0,0:0:0:13:
448,192,70475,1,0,0:0:0:13:
192,192,70475,1,0,0:0:0:13:
448,192,70652,1,0,0:0:0:13:
192,192,70652,1,0,0:0:0:13:
64,192,70828,1,0,0:0:0:0:
320,192,70828,1,0,0:0:0:0:
64,192,71005,1,0,0:0:0:0:
320,192,71005,1,0,0:0:0:0:
320,192,71181,1,0,0:0:0:13:
448,192,71181,1,0,0:0:0:13:
192,192,71269,1,0,0:0:0:13:
64,192,71269,1,0,0:0:0:13:
320,192,71357,1,0,0:0:0:13:
448,192,71357,1,0,0:0:0:13:
64,192,71446,1,0,0:0:0:13:
192,192,71446,1,0,0:0:0:13:
320,192,71534,1,0,0:0:0:13:
448,192,71534,1,0,0:0:0:13:
192,192,71622,1,0,0:0:0:13:
64,192,71622,1,0,0:0:0:13:
320,192,71710,1,0,0:0:0:13:
448,192,71710,1,0,0:0:0:13:
192,192,71799,1,0,0:0:0:13:
64,192,71799,1,0,0:0:0:13:
320,192,71887,1,0,0:0:0:13:
448,192,71887,1,0,0:0:0:13:
192,192,71975,1,0,0:0:0:13:
64,192,71975,1,0,0:0:0:13:
320,192,72063,1,0,0:0:0:13:
448,192,72063,1,0,0:0:0:13:
192,192,72152,1,0,0:0:0:13:
64,192,72152,1,0,0:0:0:13:
320,192,72240,1,0,0:0:0:13:
448,192,72240,1,0,0:0:0:13:
192,192,72328,1,0,0:0:0:13:
64,192,72328,1,0,0:0:0:13:
320,192,72416,1,0,0:0:0:13:
448,192,72416,1,0,0:0:0:13:
192,192,72505,1,0,0:0:0:13:
64,192,72505,1,0,0:0:0:13:
448,192,72593,128,0,73299:0:0:0:13:
320,192,72593,128,0,74005:0:0:0:0:
192,192,72593,1,0,0:0:0:0:
64,192,73299,128,0,73652:0:0:0:0:
192,192,73652,128,0,74005:0:0:0:26:
448,192,74005,1,0,0:0:0:13:
64,192,74005,1,0,0:0:0:0:
320,192,74093,1,0,0:0:0:0:
192,192,74181,1,0,0:0:0:26:
320,192,74269,1,0,0:0:0:26:
448,192,74357,1,0,0:0:0:13:
64,192,74357,1,0,0:0:0:13:
192,192,74446,1,0,0:0:0:26:
320,192,74534,1,0,0:0:0:26:
192,192,74622,1,0,0:0:0:26:
448,192,74710,1,0,0:0:0:13:
320,192,74710,1,0,0:0:0:13:
64,192,74799,1,0,0:0:0:26:
320,192,74887,1,0,0:0:0:26:
192,192,74975,1,0,0:0:0:26:
64,192,75063,1,0,0:0:0:13:
320,192,75063,1,0,0:0:0:13:
192,192,75152,1,0,0:0:0:26:
320,192,75240,1,0,0:0:0:26:
448,192,75328,1,0,0:0:0:26:
192,192,75416,1,0,0:0:0:13:
64,192,75416,1,0,0:0:0:13:
320,192,75505,1,0,0:0:0:26:
448,192,75593,1,0,0:0:0:26:
64,192,75681,1,0,0:0:0:26:
192,192,75769,1,0,0:0:0:13:
320,192,75769,1,0,0:0:0:13:
448,192,75857,1,0,0:0:0:26:
320,192,75946,1,0,0:0:0:26:
192,192,76034,1,0,0:0:0:26:
320,192,76122,1,0,0:0:0:13:
448,192,76122,1,0,0:0:0:13:
192,192,76210,1,0,0:0:0:26:
320,192,76299,1,0,0:0:0:26:
192,192,76387,1,0,0:0:0:26:
64,192,76475,1,0,0:0:0:13:
320,192,76475,1,0,0:0:0:13:
192,192,76563,1,0,0:0:0:26:
320,192,76652,1,0,0:0:0:26:
448,192,76740,1,0,0:0:0:26:
320,192,76828,1,0,0:0:0:13:
192,192,76828,1,0,0:0:0:13:
64,192,76916,1,0,0:0:0:26:
448,192,77005,1,0,0:0:0:26:
320,192,77093,1,0,0:0:0:26:
192,192,77181,1,0,0:0:0:8:
64,192,77181,1,0,0:0:0:8:
448,192,77181,1,0,0:0:0:8:
320,192,77269,1,0,0:0:0:26:
64,192,77357,1,0,0:0:0:26:
192,192,77446,1,0,0:0:0:26:
320,192,77534,1,0,0:0:0:13:
448,192,77534,1,0,0:0:0:13:
192,192,77622,1,0,0:0:0:26:
64,192,77710,1,0,0:0:0:26:
448,192,77799,1,0,0:0:0:26:
320,192,77887,1,0,0:0:0:8:
192,192,77887,1,0,0:0:0:8:
64,192,77887,1,0,0:0:0:8:
448,192,77975,1,0,0:0:0:26:
64,192,78063,1,0,0:0:0:26:
320,192,78152,1,0,0:0:0:26:
192,192,78240,1,0,0:0:0:13:
448,192,78240,1,0,0:0:0:13:
64,192,78328,1,0,0:0:0:26:
320,192,78416,1,0,0:0:0:26:
192,192,78505,1,0,0:0:0:26:
64,192,78593,1,0,0:0:0:13:
448,192,78593,1,0,0:0:0:13:
192,192,78681,1,0,0:0:0:26:
320,192,78769,1,0,0:0:0:26:
192,192,78857,1,0,0:0:0:26:
320,192,78946,1,0,0:0:0:13:
448,192,78946,1,0,0:0:0:13:
64,192,79034,1,0,0:0:0:26:
192,192,79122,1,0,0:0:0:26:
320,192,79210,1,0,0:0:0:26:
448,192,79299,1,0,0:0:0:13:
192,192,79299,1,0,0:0:0:13:
64,192,79387,1,0,0:0:0:26:
320,192,79475,1,0,0:0:0:26:
192,192,79563,1,0,0:0:0:26:
320,192,79652,1,0,0:0:0:13:
448,192,79652,1,0,0:0:0:13:
64,192,79740,1,0,0:0:0:26:
192,192,79828,1,0,0:0:0:26:
448,192,79916,1,0,0:0:0:26:
320,192,80005,1,0,0:0:0:13:
192,192,80005,1,0,0:0:0:13:
64,192,80093,1,0,0:0:0:26:
448,192,80181,1,0,0:0:0:26:
320,192,80269,1,0,0:0:0:26:
192,192,80357,1,0,0:0:0:13:
64,192,80357,1,0,0:0:0:13:
320,192,80446,1,0,0:0:0:26:
192,192,80534,1,0,0:0:0:26:
320,192,80622,1,0,0:0:0:26:
448,192,80710,1,0,0:0:0:13:
64,192,80710,1,0,0:0:0:13:
320,192,80799,1,0,0:0:0:26:
64,192,80887,1,0,0:0:0:26:
192,192,80975,1,0,0:0:0:26:
320,192,81063,1,0,0:0:0:13:
448,192,81063,1,0,0:0:0:13:
192,192,81152,1,0,0:0:0:26:
64,192,81240,1,0,0:0:0:26:
448,192,81328,1,0,0:0:0:26:
320,192,81416,1,0,0:0:0:13:
64,192,81416,1,0,0:0:0:13:
192,192,81505,1,0,0:0:0:26:
320,192,81593,1,0,0:0:0:26:
192,192,81681,1,0,0:0:0:26:
64,192,81769,1,0,0:0:0:13:
448,192,81769,1,0,0:0:0:13:
320,192,81857,1,0,0:0:0:26:
64,192,81946,1,0,0:0:0:26:
192,192,82034,1,0,0:0:0:26:
448,192,82122,1,0,0:0:0:13:
320,192,82122,1,0,0:0:0:13:
192,192,82210,1,0,0:0:0:26:
448,192,82299,1,0,0:0:0:26:
320,192,82387,1,0,0:0:0:26:
64,192,82475,1,0,0:0:0:13:
448,192,82475,1,0,0:0:0:13:
192,192,82563,1,0,0:0:0:26:
320,192,82652,1,0,0:0:0:26:
64,192,82740,1,0,0:0:0:26:
192,192,82828,1,0,0:0:0:13:
448,192,82828,1,0,0:0:0:13:
320,192,82916,1,0,0:0:0:26:
192,192,83005,1,0,0:0:0:26:
448,192,83093,1,0,0:0:0:26:
320,192,83181,1,0,0:0:0:13:
192,192,83181,1,0,0:0:0:13:
64,192,83269,1,0,0:0:0:26:
320,192,83357,1,0,0:0:0:26:
64,192,83446,1,0,0:0:0:26:
320,192,83534,1,0,0:0:0:13:
448,192,83534,1,0,0:0:0:13:
192,192,83622,1,0,0:0:0:26:
448,192,83710,1,0,0:0:0:26:
320,192,83799,1,0,0:0:0:26:
192,192,83887,1,0,0:0:0:13:
64,192,83887,1,0,0:0:0:13:
320,192,83975,1,0,0:0:0:26:
448,192,84063,1,0,0:0:0:26:
64,192,84152,1,0,0:0:0:26:
192,192,84240,1,0,0:0:0:13:
320,192,84240,1,0,0:0:0:13:
448,192,84328,1,0,0:0:0:26:
64,192,84416,1,0,0:0:0:26:
192,192,84505,1,0,0:0:0:26:
320,192,84593,1,0,0:0:0:13:
64,192,84593,1,0,0:0:0:13:
192,192,84681,1,0,0:0:0:26:
448,192,84769,1,0,0:0:0:26:
320,192,84857,1,0,0:0:0:26:
64,192,84946,1,0,0:0:0:13:
448,192,84946,1,0,0:0:0:13:
192,192,85034,1,0,0:0:0:26:
320,192,85122,1,0,0:0:0:26:
192,192,85210,1,0,0:0:0:26:
320,192,85299,1,0,0:0:0:13:
448,192,85299,1,0,0:0:0:13:
192,192,85387,1,0,0:0:0:26:
320,192,85475,1,0,0:0:0:26:
448,192,85563,1,0,0:0:0:26:
64,192,85652,1,0,0:0:0:13:
192,192,85652,1,0,0:0:0:13:
320,192,85740,1,0,0:0:0:26:
192,192,85828,1,0,0:0:0:26:
320,192,85916,1,0,0:0:0:26:
192,192,86005,1,0,0:0:0:13:
448,192,86005,1,0,0:0:0:13:
64,192,86093,1,0,0:0:0:26:
320,192,86181,1,0,0:0:0:26:
192,192,86269,1,0,0:0:0:26:
448,192,86357,1,0,0:0:0:13:
320,192,86357,1,0,0:0:0:13:
64,192,86446,1,0,0:0:0:26:
192,192,86534,1,0,0:0:0:26:
64,192,86622,1,0,0:0:0:26:
320,192,86710,1,0,0:0:0:13:
448,192,86710,1,0,0:0:0:13:
192,192,86799,1,0,0:0:0:26:
320,192,86887,1,0,0:0:0:26:
192,192,86975,1,0,0:0:0:26:
320,192,87063,1,0,0:0:0:8:
64,192,87063,1,0,0:0:0:8:
448,192,87063,1,0,0:0:0:8:
192,192,87152,1,0,0:0:0:26:
448,192,87240,1,0,0:0:0:26:
320,192,87328,1,0,0:0:0:26:
192,192,87416,1,0,0:0:0:13:
448,192,87416,1,0,0:0:0:13:
64,192,87505,1,0,0:0:0:26:
320,192,87593,1,0,0:0:0:26:
448,192,87681,1,0,0:0:0:26:
320,192,87769,1,0,0:0:0:8:
192,192,87769,1,0,0:0:0:8:
64,192,87769,1,0,0:0:0:8:
448,192,87857,1,0,0:0:0:26:
64,192,87946,1,0,0:0:0:26:
320,192,88034,1,0,0:0:0:26:
192,192,88122,1,0,0:0:0:13:
448,192,88122,1,0,0:0:0:13:
320,192,88210,1,0,0:0:0:26:
192,192,88299,1,0,0:0:0:26:
64,192,88387,1,0,0:0:0:13:
320,192,88387,1,0,0:0:0:13:
448,192,88475,1,0,0:0:0:26:
192,192,88475,1,0,0:0:0:0:
320,192,88563,1,0,0:0:0:26:
192,192,88652,1,0,0:0:0:13:
64,192,88652,1,0,0:0:0:13:
320,192,88740,1,0,0:0:0:26:
448,192,88828,1,0,0:0:0:26:
192,192,88916,1,0,0:0:0:13:
320,192,88916,1,0,0:0:0:13:
64,192,89005,1,0,0:0:0:26:
448,192,89093,1,0,0:0:0:26:
320,192,89181,128,0,89534:0:0:0:8:
192,192,89181,128,0,89534:0:0:0:8:
64,192,89181,1,0,0:0:0:8:
448,192,89534,1,0,0:0:0:13:
64,192,89534,1,0,0:0:0:13:
320,192,89622,1,0,0:0:0:26:
192,192,89710,1,0,0:0:0:26:
320,192,89799,1,0,0:0:0:13:
448,192,89799,1,0,0:0:0:13:
192,192,89887,1,0,0:0:0:26:
64,192,89887,1,0,0:0:0:0:
320,192,89975,1,0,0:0:0:26:
64,192,90063,1,0,0:0:0:13:
448,192,90063,1,0,0:0:0:0:
320,192,90152,1,0,0:0:0:26:
192,192,90240,1,0,0:0:0:26:
448,192,90240,1,0,0:0:0:0:
64,192,90328,1,0,0:0:0:13:
320,192,90328,1,0,0:0:0:13:
192,192,90416,1,0,0:0:0:26:
320,192,90505,1,0,0:0:0:26:
192,192,90593,1,0,0:0:0:8:
64,192,90593,1,0,0:0:0:8:
448,192,90593,1,0,0:0:0:8:
320,192,90769,1,0,0:0:0:8:
192,192,90769,1,0,0:0:0:8:
448,192,90769,1,0,0:0:0:8:
64,192,90946,1,0,0:0:0:13:
320,192,90946,1,0,0:0:0:13:
192,192,91034,1,0,0:0:0:26:
320,192,91122,1,0,0:0:0:26:
192,192,91210,1,0,0:0:0:13:
64,192,91210,1,0,0:0:0:13:
320,192,91299,1,0,0:0:0:26:
448,192,91299,1,0,0:0:0:0:
64,192,91387,1,0,0:0:0:26:
320,192,91475,1,0,0:0:0:13:
448,192,91475,1,0,0:0:0:13:
192,192,91563,1,0,0:0:0:26:
320,192,91652,1,0,0:0:0:26:
64,192,91652,1,0,0:0:0:0:
448,192,91740,1,0,0:0:0:13:
192,192,91740,1,0,0:0:0:13:
320,192,91828,1,0,0:0:0:26:
64,192,91916,1,0,0:0:0:26:
192,192,92005,1,0,0:0:0:13:
320,192,92005,1,0,0:0:0:13:
448,192,92005,1,0,0:0:0:0:
192,192,92093,1,0,0:0:0:13:
320,192,92093,1,0,0:0:0:13:
448,192,92093,1,0,0:0:0:0:
192,192,92181,1,0,0:0:0:13:
320,192,92181,1,0,0:0:0:13:
448,192,92181,1,0,0:0:0:0:
64,192,92357,1,0,0:0:0:13:
192,192,92357,1,0,0:0:0:13:
448,192,92446,1,0,0:0:0:26:
192,192,92534,1,0,0:0:0:26:
320,192,92622,1,0,0:0:0:26:
64,192,92710,1,0,0:0:0:13:
448,192,92710,1,0,0:0:0:13:
320,192,92887,1,0,0:0:0:26:
192,192,92975,1,0,0:0:0:26:
64,192,93063,1,0,0:0:0:13:
320,192,93063,1,0,0:0:0:13:
192,192,93152,1,0,0:0:0:13:
448,192,93152,1,0,0:0:0:13:
64,192,93240,1,0,0:0:0:13:
320,192,93240,1,0,0:0:0:13:
192,192,93328,1,0,0:0:0:13:
448,192,93328,1,0,0:0:0:13:
64,192,93416,1,0,0:0:0:13:
320,192,93416,1,0,0:0:0:13:
192,192,93505,1,0,0:0:0:13:
448,192,93505,1,0,0:0:0:13:
320,192,93593,1,0,0:0:0:13:
64,192,93593,1,0,0:0:0:13:
192,192,93681,1,0,0:0:0:13:
448,192,93681,1,0,0:0:0:13:
64,192,93769,1,0,0:0:0:13:
320,192,93769,1,0,0:0:0:13:
448,192,93857,1,0,0:0:0:26:
192,192,93946,1,0,0:0:0:26:
320,192,94034,1,0,0:0:0:13:
64,192,94034,1,0,0:0:0:13:
192,192,94122,1,0,0:0:0:26:
448,192,94122,1,0,0:0:0:0:
320,192,94210,1,0,0:0:0:26:
192,192,94299,1,0,0:0:0:13:
64,192,94299,1,0,0:0:0:13:
320,192,94387,1,0,0:0:0:0:
448,192,94475,1,0,0:0:0:0:
192,192,94475,1,0,0:0:0:0:
64,192,94563,1,0,0:0:0:13:
320,192,94563,1,0,0:0:0:0:
192,192,94652,1,0,0:0:0:0:
448,192,94740,1,0,0:0:0:26:
192,192,94828,128,0,95181:0:0:0:8:
64,192,94828,128,0,95181:0:0:0:8:
320,192,94828,1,0,0:0:0:8:
320,192,95181,1,0,0:0:0:13:
448,192,95181,1,0,0:0:0:13:
192,192,95269,1,0,0:0:0:26:
64,192,95357,1,0,0:0:0:26:
192,192,95446,1,0,0:0:0:13:
448,192,95446,1,0,0:0:0:13:
64,192,95534,1,0,0:0:0:26:
320,192,95534,1,0,0:0:0:0:
448,192,95622,1,0,0:0:0:0:
192,192,95710,1,0,0:0:0:13:
64,192,95710,1,0,0:0:0:13:
320,192,95799,1,0,0:0:0:26:
448,192,95887,1,0,0:0:0:26:
64,192,95887,1,0,0:0:0:0:
320,192,95975,1,0,0:0:0:13:
192,192,95975,1,0,0:0:0:13:
64,192,96063,1,0,0:0:0:26:
448,192,96152,1,0,0:0:0:26:
320,192,96240,1,0,0:0:0:8:
64,192,96240,1,0,0:0:0:8:
192,192,96240,1,0,0:0:0:8:
192,192,96416,1,0,0:0:0:8:
320,192,96416,1,0,0:0:0:8:
448,192,96416,1,0,0:0:0:8:
64,192,96593,1,0,0:0:0:13:
192,192,96593,1,0,0:0:0:13:
320,192,96681,1,0,0:0:0:26:
448,192,96769,1,0,0:0:0:26:
320,192,96857,1,0,0:0:0:13:
192,192,96857,1,0,0:0:0:13:
64,192,96946,1,0,0:0:0:26:
448,192,96946,1,0,0:0:0:0:
320,192,97034,1,0,0:0:0:26:
448,192,97122,1,0,0:0:0:13:
192,192,97122,1,0,0:0:0:13:
320,192,97210,1,0,0:0:0:26:
192,192,97299,1,0,0:0:0:26:
64,192,97299,1,0,0:0:0:0:
448,192,97387,1,0,0:0:0:13:
320,192,97387,1,0,0:0:0:13:
192,192,97475,1,0,0:0:0:26:
64,192,97563,1,0,0:0:0:26:
192,192,97652,1,0,0:0:0:8:
320,192,97652,128,0,98005:0:0:0:8:
448,192,97652,128,0,98005:0:0:0:8:
192,192,98005,1,0,0:0:0:13:
64,192,98005,1,0,0:0:0:13:
320,192,98181,1,0,0:0:0:0:
448,192,98357,1,0,0:0:0:13:
192,192,98357,1,0,0:0:0:13:
320,192,98534,1,0,0:0:0:0:
64,192,98710,1,0,0:0:0:13:
192,192,98710,1,0,0:0:0:13:
320,192,98799,1,0,0:0:0:13:
448,192,98799,1,0,0:0:0:13:
192,192,98887,1,0,0:0:0:13:
64,192,98887,1,0,0:0:0:13:
320,192,98975,1,0,0:0:0:13:
448,192,98975,1,0,0:0:0:13:
64,192,99063,1,0,0:0:0:13:
192,192,99063,1,0,0:0:0:13:
320,192,99152,1,0,0:0:0:13:
448,192,99152,1,0,0:0:0:13:
192,192,99240,1,0,0:0:0:13:
64,192,99240,1,0,0:0:0:13:
320,192,99328,1,0,0:0:0:13:
448,192,99328,1,0,0:0:0:13:
192,192,99416,1,0,0:0:0:13:
64,192,99416,128,0,99769:0:0:0:13:
320,192,99416,1,0,0:0:0:0:
320,192,99593,1,0,0:0:0:26:
320,192,99769,128,0,100122:0:0:0:13:
448,192,99769,1,0,0:0:0:13:
192,192,99946,1,0,0:0:0:26:
192,192,100122,128,0,100475:0:0:0:13:
64,192,100122,1,0,0:0:0:13:
320,192,100299,1,0,0:0:0:26:
64,192,100475,128,0,100828:0:0:0:13:
448,192,100475,1,0,0:0:0:13:
192,192,100652,1,0,0:0:0:26:
448,192,100828,128,0,101181:0:0:0:13:
320,192,100828,1,0,0:0:0:13:
192,192,101005,1,0,0:0:0:26:
320,192,101093,1,0,0:0:0:26:
64,192,101181,128,0,101534:0:0:0:13:
192,192,101181,1,0,0:0:0:13:
320,192,101357,1,0,0:0:0:26:
192,192,101446,1,0,0:0:0:26:
320,192,101534,128,0,101887:0:0:0:13:
448,192,101534,1,0,0:0:0:13:
192,192,101622,1,0,0:0:0:26:
64,192,101710,1,0,0:0:0:26:
192,192,101799,1,0,0:0:0:26:
448,192,101887,128,0,102240:0:0:0:13:
64,192,101887,1,0,0:0:0:13:
192,192,101975,1,0,0:0:0:26:
320,192,102063,1,0,0:0:0:26:
192,192,102152,1,0,0:0:0:26:
64,192,102240,128,0,102593:0:0:0:13:
320,192,102240,1,0,0:0:0:13:
192,192,102416,1,0,0:0:0:26:
448,192,102593,128,0,102946:0:0:0:13:
320,192,102593,1,0,0:0:0:13:
192,192,102769,1,0,0:0:0:26:
192,192,102946,128,0,103299:0:0:0:13:
64,192,102946,1,0,0:0:0:13:
320,192,103122,1,0,0:0:0:26:
320,192,103299,128,0,103652:0:0:0:13:
448,192,103299,1,0,0:0:0:13:
64,192,103475,1,0,0:0:0:26:
64,192,103652,128,0,104005:0:0:0:13:
192,192,103652,1,0,0:0:0:13:
448,192,103828,1,0,0:0:0:26:
320,192,103916,1,0,0:0:0:26:
448,192,104005,128,0,104357:0:0:0:13:
192,192,104005,1,0,0:0:0:13:
320,192,104093,1,0,0:0:0:26:
192,192,104181,1,0,0:0:0:26:
64,192,104269,1,0,0:0:0:26:
192,192,104357,128,0,104710:0:0:0:13:
320,192,104357,1,0,0:0:0:13:
448,192,104446,1,0,0:0:0:26:
320,192,104534,1,0,0:0:0:26:
64,192,104622,1,0,0:0:0:26:
448,192,104710,128,0,105063:0:0:0:13:
320,192,104710,1,0,0:0:0:13:
192,192,104799,1,0,0:0:0:26:
64,192,104887,1,0,0:0:0:26:
192,192,104975,1,0,0:0:0:26:
320,192,105063,1,0,0:0:0:13:
64,192,105063,1,0,0:0:0:13:
64,192,105240,1,0,0:0:0:26:
192,192,105328,1,0,0:0:0:26:
320,192,105416,1,0,0:0:0:13:
448,192,105416,1,0,0:0:0:13:
64,192,105505,1,0,0:0:0:26:
448,192,105593,1,0,0:0:0:26:
192,192,105681,1,0,0:0:0:26:
64,192,105769,1,0,0:0:0:13:
448,192,105769,1,0,0:0:0:13:
320,192,105946,1,0,0:0:0:26:
192,192,106034,1,0,0:0:0:26:
320,192,106122,1,0,0:0:0:13:
448,192,106122,1,0,0:0:0:13:
64,192,106210,1,0,0:0:0:26:
192,192,106299,1,0,0:0:0:26:
448,192,106387,1,0,0:0:0:26:
320,192,106475,1,0,0:0:0:13:
64,192,106475,1,0,0:0:0:13:
192,192,106563,1,0,0:0:0:26:
448,192,106652,1,0,0:0:0:26:
320,192,106740,1,0,0:0:0:26:
192,192,106828,1,0,0:0:0:13:
64,192,106828,1,0,0:0:0:13:
320,192,106916,1,0,0:0:0:26:
448,192,107005,1,0,0:0:0:26:
192,192,107093,1,0,0:0:0:26:
64,192,107181,1,0,0:0:0:13:
320,192,107181,1,0,0:0:0:13:
192,192,107269,1,0,0:0:0:26:
448,192,107357,1,0,0:0:0:26:
320,192,107446,1,0,0:0:0:26:
192,192,107534,1,0,0:0:0:13:
64,192,107534,1,0,0:0:0:13:
320,192,107622,1,0,0:0:0:26:
448,192,107710,1,0,0:0:0:26:
192,192,107799,1,0,0:0:0:26:
320,192,107887,1,0,0:0:0:13:
448,192,107887,1,0,0:0:0:13:
192,192,107975,1,0,0:0:0:26:
64,192,108063,1,0,0:0:0:26:
448,192,108152,1,0,0:0:0:26:
320,192,108240,1,0,0:0:0:13:
64,192,108240,1,0,0:0:0:13:
192,192,108328,1,0,0:0:0:26:
64,192,108416,1,0,0:0:0:26:
448,192,108505,1,0,0:0:0:26:
320,192,108593,1,0,0:0:0:13:
192,192,108593,1,0,0:0:0:13:
64,192,108681,1,0,0:0:0:26:
320,192,108769,1,0,0:0:0:26:
448,192,108857,1,0,0:0:0:26:
320,192,108946,1,0,0:0:0:13:
64,192,108946,1,0,0:0:0:13:
192,192,109034,1,0,0:0:0:26:
64,192,109122,1,0,0:0:0:26:
448,192,109210,1,0,0:0:0:26:
320,192,109299,1,0,0:0:0:13:
192,192,109299,1,0,0:0:0:13:
64,192,109387,1,0,0:0:0:26:
448,192,109475,1,0,0:0:0:26:
320,192,109563,1,0,0:0:0:26:
192,192,109652,1,0,0:0:0:13:
64,192,109652,1,0,0:0:0:13:
448,192,109740,1,0,0:0:0:26:
320,192,109828,1,0,0:0:0:26:
192,192,109916,1,0,0:0:0:26:
320,192,110005,1,0,0:0:0:13:
448,192,110005,1,0,0:0:0:13:
192,192,110093,1,0,0:0:0:26:
320,192,110181,1,0,0:0:0:26:
64,192,110269,1,0,0:0:0:26:
320,192,110357,1,0,0:0:0:13:
448,192,110357,1,0,0:0:0:13:
192,192,110446,1,0,0:0:0:26:
448,192,110534,1,0,0:0:0:26:
320,192,110622,1,0,0:0:0:26:
192,192,110710,1,0,0:0:0:13:
64,192,110710,1,0,0:0:0:13:
448,192,110710,1,0,0:0:0:0:
320,192,110799,1,0,0:0:0:26:
448,192,110887,1,0,0:0:0:13:
64,192,110887,1,0,0:0:0:0:
192,192,110975,1,0,0:0:0:0:
64,192,111063,1,0,0:0:0:13:
448,192,111063,1,0,0:0:0:0:
320,192,111063,1,0,0:0:0:0:
192,192,111152,1,0,0:0:0:0:
448,192,111240,1,0,0:0:0:13:
64,192,111240,1,0,0:0:0:0:
192,192,111328,1,0,0:0:0:0:
320,192,111416,1,0,0:0:0:13:
448,192,111416,1,0,0:0:0:13:
64,192,111416,1,0,0:0:0:0:
192,192,111505,1,0,0:0:0:26:
320,192,111593,1,0,0:0:0:13:
64,192,111593,1,0,0:0:0:13:
448,192,111681,1,0,0:0:0:26:
320,192,111769,1,0,0:0:0:13:
192,192,111769,1,0,0:0:0:13:
64,192,111769,1,0,0:0:0:0:
448,192,111857,1,0,0:0:0:0:
192,192,111946,1,0,0:0:0:13:
320,192,111946,1,0,0:0:0:0:
64,192,112034,1,0,0:0:0:0:
192,192,112122,1,0,0:0:0:13:
448,192,112122,1,0,0:0:0:0:
320,192,112122,1,0,0:0:0:0:
64,192,112210,1,0,0:0:0:0:
448,192,112299,1,0,0:0:0:26:
192,192,112299,1,0,0:0:0:0:
320,192,112387,1,0,0:0:0:0:
192,192,112475,1,0,0:0:0:13:
64,192,112475,1,0,0:0:0:0:
448,192,112563,1,0,0:0:0:26:
320,192,112652,1,0,0:0:0:26:
192,192,112740,1,0,0:0:0:26:
320,192,112828,1,0,0:0:0:13:
448,192,112828,1,0,0:0:0:13:
192,192,112916,1,0,0:0:0:26:
64,192,113005,1,0,0:0:0:26:
448,192,113093,1,0,0:0:0:26:
320,192,113181,1,0,0:0:0:13:
192,192,113181,1,0,0:0:0:13:
64,192,113269,1,0,0:0:0:26:
448,192,113357,1,0,0:0:0:26:
192,192,113446,1,0,0:0:0:26:
320,192,113534,1,0,0:0:0:13:
448,192,113534,1,0,0:0:0:13:
64,192,113622,1,0,0:0:0:26:
192,192,113710,1,0,0:0:0:26:
448,192,113799,1,0,0:0:0:26:
192,192,113887,1,0,0:0:0:13:
64,192,113887,1,0,0:0:0:13:
448,192,113975,1,0,0:0:0:26:
320,192,114063,1,0,0:0:0:26:
64,192,114152,1,0,0:0:0:26:
192,192,114240,1,0,0:0:0:13:
320,192,114240,1,0,0:0:0:13:
448,192,114328,1,0,0:0:0:26:
192,192,114416,1,0,0:0:0:26:
320,192,114505,1,0,0:0:0:26:
192,192,114593,1,0,0:0:0:13:
64,192,114593,1,0,0:0:0:13:
448,192,114681,1,0,0:0:0:26:
320,192,114769,1,0,0:0:0:26:
192,192,114857,1,0,0:0:0:26:
320,192,114946,1,0,0:0:0:13:
448,192,114946,1,0,0:0:0:13:
192,192,115034,1,0,0:0:0:26:
448,192,115122,1,0,0:0:0:26:
64,192,115210,1,0,0:0:0:26:
320,192,115299,1,0,0:0:0:13:
192,192,115299,1,0,0:0:0:13:
448,192,115387,1,0,0:0:0:26:
64,192,115475,1,0,0:0:0:26:
192,192,115563,1,0,0:0:0:26:
320,192,115652,1,0,0:0:0:13:
448,192,115652,1,0,0:0:0:13:
192,192,115740,1,0,0:0:0:26:
64,192,115828,1,0,0:0:0:26:
448,192,115916,1,0,0:0:0:26:
320,192,116005,1,0,0:0:0:13:
192,192,116005,1,0,0:0:0:13:
64,192,116093,1,0,0:0:0:26:
448,192,116181,1,0,0:0:0:26:
320,192,116269,1,0,0:0:0:26:
64,192,116357,1,0,0:0:0:13:
192,192,116357,1,0,0:0:0:13:
320,192,116446,1,0,0:0:0:26:
448,192,116534,1,0,0:0:0:26:
192,192,116622,1,0,0:0:0:26:
64,192,116710,1,0,0:0:0:8:
320,192,116710,1,0,0:0:0:8:
448,192,116710,1,0,0:0:0:8:
192,192,116799,1,0,0:0:0:26:
320,192,116887,1,0,0:0:0:26:
192,192,116975,1,0,0:0:0:26:
320,192,117063,1,0,0:0:0:13:
448,192,117063,1,0,0:0:0:13:
64,192,117152,1,0,0:0:0:26:
320,192,117240,1,0,0:0:0:26:
192,192,117328,1,0,0:0:0:26:
64,192,117416,1,0,0:0:0:8:
320,192,117416,1,0,0:0:0:8:
448,192,117416,1,0,0:0:0:8:
192,192,117505,1,0,0:0:0:26:
448,192,117593,1,0,0:0:0:26:
320,192,117681,1,0,0:0:0:26:
192,192,117769,1,0,0:0:0:13:
64,192,117769,1,0,0:0:0:13:
320,192,117857,1,0,0:0:0:26:
64,192,117946,1,0,0:0:0:26:
192,192,118034,1,0,0:0:0:26:
320,192,118122,1,0,0:0:0:13:
448,192,118122,1,0,0:0:0:13:
192,192,118210,1,0,0:0:0:26:
64,192,118299,1,0,0:0:0:26:
448,192,118387,1,0,0:0:0:26:
320,192,118475,1,0,0:0:0:13:
192,192,118475,1,0,0:0:0:13:
64,192,118563,1,0,0:0:0:26:
192,192,118652,1,0,0:0:0:26:
64,192,118740,1,0,0:0:0:26:
448,192,118828,1,0,0:0:0:13:
320,192,118828,1,0,0:0:0:13:
64,192,118916,1,0,0:0:0:26:
320,192,119005,1,0,0:0:0:26:
192,192,119093,1,0,0:0:0:26:
448,192,119181,1,0,0:0:0:13:
320,192,119181,1,0,0:0:0:13:
64,192,119269,1,0,0:0:0:26:
320,192,119357,1,0,0:0:0:26:
448,192,119446,1,0,0:0:0:26:
64,192,119534,1,0,0:0:0:13:
192,192,119534,1,0,0:0:0:13:
320,192,119622,1,0,0:0:0:26:
64,192,119710,1,0,0:0:0:26:
192,192,119799,1,0,0:0:0:26:
320,192,119887,1,0,0:0:0:13:
448,192,119887,1,0,0:0:0:13:
192,192,119975,1,0,0:0:0:26:
64,192,120063,1,0,0:0:0:26:
448,192,120152,1,0,0:0:0:26:
320,192,120240,1,0,0:0:0:13:
192,192,120240,1,0,0:0:0:13:
64,192,120328,1,0,0:0:0:26:
448,192,120416,1,0,0:0:0:26:
320,192,120505,1,0,0:0:0:26:
192,192,120593,1,0,0:0:0:13:
64,192,120593,1,0,0:0:0:13:
320,192,120681,1,0,0:0:0:26:
448,192,120769,1,0,0:0:0:26:
192,192,120857,1,0,0:0:0:26:
320,192,120946,1,0,0:0:0:13:
64,192,120946,1,0,0:0:0:13:
192,192,121034,1,0,0:0:0:26:
64,192,121122,1,0,0:0:0:26:
448,192,121210,1,0,0:0:0:26:
320,192,121299,1,0,0:0:0:13:
64,192,121299,1,0,0:0:0:13:
192,192,121387,1,0,0:0:0:26:
448,192,121475,1,0,0:0:0:26:
320,192,121563,1,0,0:0:0:26:
64,192,121652,1,0,0:0:0:13:
448,192,121652,1,0,0:0:0:13:
192,192,121740,1,0,0:0:0:26:
448,192,121828,1,0,0:0:0:26:
192,192,121916,1,0,0:0:0:26:
64,192,122005,1,0,0:0:0:13:
448,192,122005,1,0,0:0:0:13:
192,192,122093,1,0,0:0:0:26:
320,192,122181,1,0,0:0:0:26:
192,192,122269,1,0,0:0:0:26:
64,192,122357,1,0,0:0:0:13:
320,192,122357,1,0,0:0:0:13:
448,192,122446,1,0,0:0:0:26:
320,192,122534,1,0,0:0:0:26:
192,192,122622,1,0,0:0:0:26:
64,192,122710,1,0,0:0:0:13:
448,192,122710,1,0,0:0:0:13:
192,192,122799,1,0,0:0:0:26:
320,192,122887,1,0,0:0:0:26:
64,192,122975,1,0,0:0:0:26:
192,192,123063,1,0,0:0:0:13:
448,192,123063,1,0,0:0:0:13:
320,192,123152,1,0,0:0:0:26:
64,192,123240,1,0,0:0:0:26:
320,192,123328,1,0,0:0:0:26:
192,192,123416,1,0,0:0:0:13:
448,192,123416,1,0,0:0:0:13:
320,192,123505,1,0,0:0:0:26:
192,192,123593,1,0,0:0:0:26:
64,192,123681,1,0,0:0:0:26:
192,192,123769,1,0,0:0:0:8:
448,192,123769,1,0,0:0:0:8:
320,192,123769,1,0,0:0:0:8:
64,192,123857,1,0,0:0:0:26:
320,192,123946,1,0,0:0:0:26:
192,192,124034,1,0,0:0:0:26:
320,192,124122,1,0,0:0:0:13:
448,192,124122,1,0,0:0:0:13:
192,192,124210,1,0,0:0:0:26:
64,192,124299,1,0,0:0:0:26:
448,192,124387,1,0,0:0:0:26:
192,192,124475,1,0,0:0:0:8:
320,192,124475,1,0,0:0:0:8:
64,192,124475,1,0,0:0:0:8:
448,192,124563,1,0,0:0:0:26:
320,192,124652,1,0,0:0:0:26:
192,192,124740,1,0,0:0:0:26:
64,192,124828,1,0,0:0:0:13:
320,192,124828,1,0,0:0:0:13:
192,192,124916,1,0,0:0:0:26:
448,192,125005,1,0,0:0:0:26:
320,192,125093,1,0,0:0:0:26:
192,192,125181,1,0,0:0:0:13:
64,192,125181,1,0,0:0:0:13:
448,192,125181,1,0,0:0:0:0:
320,192,125269,1,0,0:0:0:26:
448,192,125357,1,0,0:0:0:26:
64,192,125446,1,0,0:0:0:26:
192,192,125534,1,0,0:0:0:13:
448,192,125534,1,0,0:0:0:13:
320,192,125622,1,0,0:0:0:26:
64,192,125710,1,0,0:0:0:26:
192,192,125799,1,0,0:0:0:26:
64,192,125887,1,0,0:0:0:8:
320,192,125887,1,0,0:0:0:8:
448,192,125887,1,0,0:0:0:8:
192,192,125975,1,0,0:0:0:26:
448,192,126063,1,0,0:0:0:26:
320,192,126152,1,0,0:0:0:26:
192,192,126240,1,0,0:0:0:8:
448,192,126240,1,0,0:0:0:8:
64,192,126240,128,0,126946:0:0:0:8:
320,192,126416,1,0,0:0:0:0:
448,192,126593,1,0,0:0:0:0:
320,192,126769,1,0,0:0:0:0:
320,192,126946,128,0,127652:0:0:0:26:
192,192,126946,1,0,0:0:0:0:
448,192,127122,1,0,0:0:0:0:
64,192,127299,1,0,0:0:0:13:
448,192,127299,1,0,0:0:0:13:
192,192,127475,1,0,0:0:0:0:
192,192,127652,1,0,0:0:0:13:
64,192,127652,1,0,0:0:0:13:
320,192,127740,1,0,0:0:0:13:
448,192,127740,1,0,0:0:0:13:
192,192,127828,1,0,0:0:0:13:
64,192,127828,1,0,0:0:0:13:
320,192,127916,1,0,0:0:0:13:
448,192,127916,1,0,0:0:0:13:
64,192,128005,1,0,0:0:0:13:
192,192,128005,1,0,0:0:0:13:
448,192,128005,1,0,0:0:0:0:
64,192,128181,1,0,0:0:0:13:
320,192,128181,1,0,0:0:0:13:
192,192,128269,1,0,0:0:0:13:
448,192,128269,1,0,0:0:0:13:
192,192,128446,1,0,0:0:0:13:
448,192,128446,1,0,0:0:0:13:
320,192,128534,1,0,0:0:0:13:
64,192,128534,1,0,0:0:0:13:
192,192,128710,1,0,0:0:0:13:
448,192,128710,1,0,0:0:0:13:
64,192,128887,1,0,0:0:0:13:
320,192,128887,1,0,0:0:0:13:
64,192,129063,1,0,0:0:0:13:
320,192,129063,1,0,0:0:0:13:
192,192,129152,1,0,0:0:0:13:
448,192,129152,1,0,0:0:0:13:
64,192,129240,1,0,0:0:0:13:
320,192,129240,1,0,0:0:0:13:
192,192,129328,1,0,0:0:0:13:
448,192,129328,1,0,0:0:0:13:
64,192,129416,1,0,0:0:0:13:
320,192,129416,1,0,0:0:0:13:
192,192,129416,1,0,0:0:0:0:
64,192,129593,1,0,0:0:0:13:
448,192,129593,1,0,0:0:0:13:
192,192,129681,1,0,0:0:0:13:
320,192,129681,1,0,0:0:0:13:
192,192,129857,1,0,0:0:0:13:
320,192,129857,1,0,0:0:0:13:
64,192,129946,1,0,0:0:0:13:
448,192,129946,1,0,0:0:0:13:
64,192,130122,1,0,0:0:0:13:
448,192,130122,1,0,0:0:0:13:
192,192,130299,1,0,0:0:0:13:
320,192,130299,1,0,0:0:0:13:
64,192,130475,1,0,0:0:0:13:
448,192,130475,1,0,0:0:0:13:
192,192,130563,1,0,0:0:0:13:
320,192,130563,1,0,0:0:0:13:
64,192,130652,1,0,0:0:0:13:
448,192,130652,1,0,0:0:0:13:
192,192,130740,1,0,0:0:0:13:
320,192,130740,1,0,0:0:0:13:
64,192,130828,1,0,0:0:0:13:
448,192,130828,1,0,0:0:0:13:
320,192,130828,1,0,0:0:0:0:
64,192,131005,1,0,0:0:0:13:
192,192,131005,1,0,0:0:0:13:
448,192,131093,1,0,0:0:0:13:
320,192,131093,1,0,0:0:0:13:
64,192,131269,1,0,0:0:0:13:
320,192,131269,1,0,0:0:0:13:
192,192,131357,1,0,0:0:0:13:
448,192,131357,1,0,0:0:0:13:
448,192,131534,1,0,0:0:0:13:
64,192,131534,1,0,0:0:0:13:
192,192,131710,1,0,0:0:0:13:
320,192,131710,1,0,0:0:0:13:
64,192,131887,1,0,0:0:0:13:
192,192,131887,1,0,0:0:0:13:
448,192,131975,1,0,0:0:0:13:
320,192,131975,1,0,0:0:0:13:
64,192,132063,1,0,0:0:0:13:
192,192,132063,1,0,0:0:0:13:
448,192,132152,1,0,0:0:0:13:
320,192,132152,1,0,0:0:0:13:
64,192,132240,1,0,0:0:0:13:
192,192,132240,1,0,0:0:0:13:
320,192,132240,1,0,0:0:0:0:
320,192,132416,1,0,0:0:0:13:
448,192,132416,1,0,0:0:0:13:
192,192,132505,1,0,0:0:0:13:
64,192,132505,1,0,0:0:0:13:
64,192,132681,1,0,0:0:0:13:
320,192,132681,1,0,0:0:0:13:
192,192,132769,1,0,0:0:0:13:
448,192,132769,1,0,0:0:0:13:
320,192,132946,1,0,0:0:0:13:
64,192,132946,1,0,0:0:0:13:
192,192,133122,1,0,0:0:0:13:
448,192,133122,1,0,0:0:0:13:
64,192,133299,1,0,0:0:0:13:
320,192,133299,1,0,0:0:0:13:
192,192,133387,1,0,0:0:0:13:
448,192,133387,1,0,0:0:0:13:
64,192,133475,1,0,0:0:0:13:
320,192,133475,1,0,0:0:0:13:
192,192,133563,1,0,0:0:0:13:
448,192,133563,1,0,0:0:0:13:
320,192,133652,1,0,0:0:0:13:
64,192,133652,1,0,0:0:0:13:
192,192,133828,1,0,0:0:0:26:
320,192,133916,1,0,0:0:0:26:
192,192,134093,1,0,0:0:0:26:
64,192,134181,1,0,0:0:0:26:
192,192,134357,1,0,0:0:0:8:
320,192,134357,1,0,0:0:0:8:
448,192,134357,1,0,0:0:0:8:
64,192,134534,1,0,0:0:0:8:
320,192,134534,1,0,0:0:0:8:
192,192,134534,1,0,0:0:0:8:
64,192,136122,1,0,0:0:0:13:
320,192,136122,1,0,0:0:0:13:
192,192,136210,1,0,0:0:0:26:
448,192,136299,1,0,0:0:0:26:
320,192,136299,1,0,0:0:0:0:
192,192,136387,1,0,0:0:0:0:
64,192,136475,1,0,0:0:0:13:
320,192,136475,1,0,0:0:0:0:
192,192,136563,1,0,0:0:0:0:
448,192,136652,1,0,0:0:0:26:
320,192,136652,1,0,0:0:0:0:
64,192,136740,1,0,0:0:0:26:
192,192,136828,1,0,0:0:0:13:
320,192,136828,1,0,0:0:0:13:
448,192,136916,1,0,0:0:0:26:
320,192,137005,1,0,0:0:0:26:
192,192,137005,1,0,0:0:0:0:
64,192,137093,1,0,0:0:0:26:
192,192,137181,1,0,0:0:0:13:
448,192,137181,1,0,0:0:0:13:
320,192,137269,1,0,0:0:0:26:
192,192,137357,1,0,0:0:0:26:
64,192,137357,1,0,0:0:0:0:
448,192,137446,1,0,0:0:0:26:
320,192,137534,1,0,0:0:0:8:
192,192,137534,1,0,0:0:0:8:
64,192,137534,128,0,138946:0:0:0:8:
320,192,138946,128,0,140357:0:0:0:13:
448,192,138946,1,0,0:0:0:0:
64,192,140357,1,0,0:0:0:13:
192,192,140357,128,0,141769:0:0:0:13:
320,192,141769,128,0,142475:0:0:0:13:
448,192,141769,1,0,0:0:0:13:
192,192,142475,1,0,0:0:0:13:
448,192,142475,128,0,143181:0:0:0:13:
64,192,143181,1,0,0:0:0:13:
192,192,143181,128,0,144593:0:0:0:13:
448,192,144593,1,0,0:0:0:13:
320,192,144593,128,0,146005:0:0:0:13:
448,192,146005,1,0,0:0:0:13:
64,192,146005,128,0,147416:0:0:0:13:
448,192,147416,1,0,0:0:0:13:
192,192,147416,128,0,148828:0:0:0:13:
320,192,147769,128,0,148828:0:0:0:26:
64,192,148828,128,0,150240:0:0:0:13:
448,192,148828,128,0,149181:0:0:0:13:
192,192,149181,128,0,149534:0:0:0:26:
320,192,149534,128,0,149887:0:0:0:26:
448,192,149887,128,0,150240:0:0:0:26:
192,192,150240,128,0,151652:0:0:0:13:
320,192,150240,128,0,150946:0:0:0:13:
64,192,150946,128,0,151652:0:0:0:13:
448,192,150946,1,0,0:0:0:13:
448,192,151652,128,0,153063:0:0:0:13:
320,192,151652,128,0,152357:0:0:0:13:
64,192,152357,128,0,152710:0:0:0:26:
192,192,152710,128,0,153063:0:0:0:26:
64,192,153063,128,0,153769:0:0:0:13:
320,192,153063,128,0,153416:0:0:0:13:
448,192,153416,128,0,153769:0:0:0:13:
192,192,153416,1,0,0:0:0:13:
192,192,153769,128,0,154475:0:0:0:13:
320,192,153769,128,0,154122:0:0:0:13:
64,192,154122,128,0,154475:0:0:0:13:
448,192,154122,1,0,0:0:0:13:
448,192,154475,128,0,155887:0:0:0:13:
320,192,154475,128,0,155181:0:0:0:13:
64,192,155181,128,0,155534:0:0:0:26:
192,192,155534,128,0,155887:0:0:0:26:
64,192,155887,128,0,157299:0:0:0:13:
320,192,155887,128,0,156593:0:0:0:13:
448,192,156593,128,0,156946:0:0:0:26:
192,192,156946,128,0,157299:0:0:0:26:
448,192,157299,128,0,158710:0:0:0:13:
320,192,157299,128,0,158005:0:0:0:13:
192,192,158005,128,0,158357:0:0:0:13:
64,192,158005,1,0,0:0:0:13:
64,192,158710,128,0,160122:0:0:0:13:
320,192,158710,128,0,159416:0:0:0:13:
192,192,159416,128,0,160122:0:0:0:13:
448,192,159416,1,0,0:0:0:13:
448,192,160122,128,0,161534:0:0:0:13:
320,192,160122,128,0,161534:0:0:0:13:
64,192,161534,1,0,0:0:0:13:
192,192,161534,128,0,164357:0:0:0:13:
320,192,161887,128,0,162240:0:0:0:26:
448,192,162240,128,0,162593:0:0:0:26:
64,192,162593,128,0,162946:0:0:0:26:
320,192,162946,128,0,164357:0:0:0:0:
448,192,163299,128,0,163652:0:0:0:26:
64,192,163652,128,0,164005:0:0:0:26:
448,192,164005,128,0,164357:0:0:0:0:
64,192,164357,128,0,165769:0:0:0:0:
448,192,165769,128,0,167181:0:0:0:0:
192,192,167181,128,0,168593:0:0:0:0:
