osu file format v7

[General]
AudioFilename: Tr.36 - Xepher.mp3
AudioLeadIn: 0
PreviewTime: -1
Countdown: 0
SampleSet: Normal
StackLeniency: 0.7
Mode: 0
LetterboxInBreaks: 1

[Editor]
DistanceSpacing: 0.800000011920929
BeatDivisor: 4
GridSize: 16

[Metadata]
Title:Xepher
Artist:Tatsh
Creator:Takuma
Version:Hard
Source:
Tags:

[Difficulty]
HPDrainRate:3
CircleSize:5
OverallDifficulty:8
SliderMultiplier:2
SliderTickRate:1

[Events]
//Background and Video events
0,0,"xepher-bg.png"
//Break Periods
2,86117,90817
//Storyboard Layer 0 (Background)
//Storyboard Layer 1 (Fail)
//Storyboard Layer 2 (Pass)
//Storyboard Layer 3 (Foreground)
//Storyboard Sound Samples
//Background Colour Transformations
3,100,163,162,255

[TimingPoints]
28045,353.128126655288,4,1,0,70,1,0
29104,-200,4,1,0,70,0,0
29280,-100,4,2,0,0,0,0
29368,-100,4,1,0,70,0,0
53470,1333.33333333333,4,1,0,70,1,0
53636,-100,4,2,0,0,0,0
54136,353.128126655288,4,1,0,70,1,0
64641,-200,4,1,0,70,0,0
64818,-100,4,2,0,0,0,0
65789,-100,4,1,0,70,0,0
66230,-100,4,1,0,70,0,0
70026,-200,4,1,0,70,0,0
70115,-100,4,2,0,0,0,0
70291,-100,4,1,0,70,0,0
80179,-200,4,1,0,70,0,0
80355,-100,4,2,0,0,0,0
80885,-100,4,1,0,50,0,0
81061,-100,4,2,0,0,0,0
81591,-100,4,1,0,50,0,0
81767,-100,4,2,0,0,0,0
82208,-100,4,1,0,50,0,0
82384,-100,4,1,0,0,0,0
83001,-100,4,1,0,50,0,0
83177,-100,4,1,0,0,0,0
83798,-100,4,2,0,50,0,0
84505,-100,4,2,0,0,0,0
85564,-100,4,2,0,70,0,0
85740,-100,4,1,0,70,0,0
116992,-100,4,2,0,0,0,0
118404,-100,4,1,0,70,0,0

[HitObjects]
32,144,28045,6,0,L|32:80,2,50
64,240,28309,2,0,L|64:304,2,50
96,144,28574,2,0,L|96:80,2,50
128,240,28838,2,0,L|128:304,2,50
160,144,29104,2,0,L|160:80,1,50,4|0
192,240,29457,6,0,L|192:304,2,50
224,144,29721,2,0,L|224:80,2,50
256,240,29987,2,0,L|256:304,2,50
288,144,30251,2,0,L|288:80,2,50
320,240,30516,2,4,L|320:352,1,100
352,144,30870,6,0,L|352:80,2,50
384,240,31134,2,0,L|384:304,2,50
416,144,31399,2,0,L|416:80,2,50
448,240,31663,2,0,L|448:304,2,50
480,144,31929,2,0,L|480:80,2,50,4|0|0
256,208,32282,12,0,33341
32,48,33695,1,0
80,48,33783,2,0,L|144:48,1,50
208,128,33959,1,0
160,128,34048,2,0,L|96:128,1,50
32,208,34224,1,0
80,208,34313,2,0,L|144:208,1,50
208,288,34489,1,0
160,288,34577,2,0,L|96:288,1,50
32,352,34754,1,4
480,48,35107,5,0
432,48,35195,2,0,L|368:48,1,50
304,128,35371,1,0
352,128,35460,2,0,L|416:128,1,50
480,208,35636,1,0
432,208,35725,2,0,L|368:208,1,50
304,288,35901,1,0
352,288,35989,2,0,L|416:288,1,50
480,352,36166,2,0,L|368:352,1,100,4|0
208,256,36520,6,0,L|160:304,2,50
304,256,36784,2,0,L|352:304,2,50
304,128,37049,2,0,L|352:80,2,50
208,128,37314,2,0,L|160:80,2,50
208,128,37579,1,4
32,160,37932,5,0
480,224,38285,1,0
384,192,38638,5,0
352,192,38727,1,0
320,192,38815,1,0
288,192,38903,1,0
256,192,38991,1,0
224,192,39080,1,0
192,192,39168,1,0
160,192,39256,1,0
128,192,39345,6,0,L|96:288,1,100,4|0
96,286,39698,1,0
224,352,40051,1,0
272,288,40227,1,0
304,256,40316,1,0
368,288,40492,1,0
400,304,40581,1,0
464,336,40757,6,0,L|464:224,1,100
400,192,41110,2,0,L|400:80,1,100
320,64,41463,1,0
320,128,41640,1,0
256,160,41816,1,0
192,128,41993,1,0
192,64,42170,6,0,B|144:32|96:64,1,100,4|0
48,128,42523,2,0,B|80:176|48:224,1,100,0|0
48,304,42876,1,0
128,304,43052,1,0
144,272,43141,1,0
176,192,43317,1,0
208,192,43406,1,0
288,192,43582,6,0,B|336:224|384:192,1,100
448,144,43935,2,0,B|480:192|448:240,1,100
480,320,44288,1,0
480,320,44377,2,0,L|368:320,1,100
304,352,44730,2,0,L|240:352,1,50
176,352,44995,5,4
176,352,45348,1,0
64,240,45701,2,0,B|96:192|64:144,1,100
65,146,45966,1,0
48,64,46142,1,0
48,64,46231,2,0,L|160:64,1,100
304,64,46760,1,0
400,192,47113,5,0
464,240,47290,1,0
464,240,47378,1,0
400,288,47555,1,0
400,288,47643,1,0
336,240,47820,2,0,L|224:240,1,100
176,288,48173,1,0
112,240,48349,1,0
112,240,48438,2,0,B|144:192|112:144,1,100
208,80,48791,1,0
208,80,48879,2,0,B|176:128|208:176,1,100
304,144,49232,5,0
336,224,49409,1,0
304,304,49585,1,0
208,304,49762,1,0
176,224,49938,1,0
208,144,50292,1,0
320,64,50645,6,0,L|432:64,1,100
192,144,50998,2,0,L|80:144,1,100
352,208,51351,2,0,L|464:208,1,100
160,288,51704,2,0,L|48:288,1,100
256,352,52057,1,0
256,336,52145,1,0
256,320,52234,1,0
256,304,52322,1,0
256,288,52410,1,0
256,272,52499,1,0
256,256,52587,1,0
256,240,52675,1,0
256,224,52763,1,0
256,208,52852,1,0
256,192,52940,1,0
256,176,53028,1,0
256,160,53117,1,0
256,144,53205,1,0
256,128,53293,1,0
256,112,53381,1,0
256,96,53470,2,0,L|256:32,1,50,4|0
48,104,54136,6,0,L|48:312,1,200
48,304,54842,1,4
128,272,55018,1,0
176,336,55195,2,0,L|384:336,1,200
448,336,55725,1,0
416,272,55901,1,0
480,32,56254,6,0,B|352:48|368:192,1,200
256,288,56961,2,0,L|64:224,1,200
32,64,57667,5,0
64,128,57843,1,0
96,64,58020,1,4
480,64,58373,5,0
448,128,58549,1,0
416,64,58726,1,4
256,96,59079,6,0,B|172:96|172:224|256:224,1,200
336,176,59609,1,0
336,176,59786,2,0,L|336:288,1,100
336,352,60139,1,0
176,352,60492,2,0,B|208:284|304:282|336:352,3,200
400,160,61904,6,0,B|416:48|288:0,1,200
112,160,62611,2,0,B|96:48|224:0,1,200
112,224,63317,2,0,B|96:336|224:384,1,200
400,224,64024,2,0,B|416:336|288:384,1,200
255,332,64729,6,0,B|191:252|255:204|255:204|319:156|237:37,1,300,0|4
254,65,66142,1,4
144,64,66495,5,0
32,128,66848,1,0
32,256,67201,1,0
144,320,67554,1,0
144,192,67907,2,0,L|368:192,1,200,4|0
416,192,68437,1,0
416,192,68614,1,4
448,32,68967,5,0
432,32,69055,1,0
416,32,69144,1,0
400,32,69232,1,0
384,32,69320,1,0
368,32,69409,1,0
352,32,69497,1,0
336,32,69585,1,0
320,32,69673,1,0
304,32,69762,1,0
288,32,69850,1,0
272,32,69938,1,0
256,32,70026,2,0,L|192:32,1,50,4|0
64,192,70379,5,0
80,192,70467,1,0
96,192,70556,1,0
112,192,70644,1,0
128,192,70732,1,0
144,192,70821,1,0
160,192,70909,1,0
176,192,70997,1,0
192,192,71085,1,0
208,192,71174,1,0
224,192,71262,1,0
240,192,71350,1,0
256,192,71438,2,0,L|368:192,1,100,4|4
416,352,71792,5,0
400,352,71880,1,0
384,352,71969,1,0
368,352,72057,1,0
352,352,72145,1,0
336,352,72234,1,0
320,352,72322,1,0
304,352,72410,1,0
288,352,72498,1,0
272,352,72587,1,0
256,352,72675,1,0
240,352,72763,1,0
224,352,72851,2,0,L|160:352,2,50,4|0|4
96,352,73204,5,0
80,336,73293,1,0
64,320,73381,1,0
48,304,73469,1,0
64,288,73558,1,8
80,272,73646,1,0
96,256,73734,1,0
80,240,73822,1,0
64,224,73911,1,0
48,208,73999,1,0
64,192,74087,1,0
80,176,74176,1,0
96,160,74264,1,8
80,144,74352,1,0
64,128,74440,1,0
48,112,74529,1,0
48,64,74617,6,0,L|48:0,2,50
112,64,74882,2,0,L|112:0,2,50
176,64,75147,2,0,L|176:0,2,50
240,64,75411,2,0,L|240:0,2,50
304,64,75676,1,4
464,192,76029,6,0,L|464:256,2,50
400,192,76294,2,0,L|400:256,2,50
336,192,76559,2,0,L|336:256,2,50
272,192,76824,2,0,L|272:256,2,50
208,192,77089,1,4
48,320,77442,6,0,L|48:384,2,50
112,320,77707,2,0,L|112:384,2,50
176,320,77972,2,0,L|176:384,2,50
240,320,78236,2,0,L|240:384,2,50
304,320,78501,1,4
480,224,78854,5,0
32,160,79208,1,0
208,128,79561,1,0
208,128,79649,1,0
208,128,79737,1,0
208,128,79826,1,0
208,128,79914,1,0
208,128,80002,1,0
208,128,80090,1,0
208,128,80179,1,0
205,127,80267,6,0,B|255:56|255:56|303:128|303:128|395:143|395:143|340:213|340:213|357:324|357:324|257:267|257:267|155:324|155:324|175:212|175:212|107:144|107:144|210:125,1,1000,4|2
256,192,84151,1,4
256,208,84505,12,2,85564
256,192,85917,5,4
32,144,91567,5,0
32,240,91744,1,0
96,112,91920,1,0
96,272,92097,1,0
160,144,92273,1,0
160,240,92450,1,0
224,192,92626,1,0
224,192,92803,1,0
288,240,92980,6,0,B|316:308|418:308|448:240,1,200,4|8
448,160,93509,1,0
368,192,93686,2,0,B|320:160|336:96,1,100
288,48,94039,1,8
288,48,94392,2,0,B|224:128|96:96,1,200,0|8
32,80,94922,1,0
32,80,95098,2,0,B|-16:192|96:272,1,200,0|8
208,352,95805,6,0,L|384:224,1,200,0|8
432,192,96334,1,0
432,192,96511,2,0,B|464:240|432:288,2,100,0|0|8
496,32,97217,6,0,L|288:32,1,200,0|4
16,352,97923,2,0,L|224:352,1,200,0|4
192,192,98630,6,0,B|193:130|255:105|320:131|320:192,1,200,0|8
352,256,99159,1,0
384,192,99336,1,0
448,192,99512,1,0
480,256,99689,2,0,L|480:368,2,100,8|0|0
480,96,100395,1,8
320,80,100748,2,0,B|208:112|128:32,1,200,0|8
48,48,101278,1,0
48,128,101455,2,0,L|48:336,1,200,0|8
48,328,102161,1,0
192,272,102514,1,8
320,352,102867,6,0,L|448:352,2,100,0|0|8
192,240,103573,2,0,L|80:240,2,100,0|0|8
352,128,104280,2,0,L|480:128,2,100,0|0|4
160,32,104986,2,0,L|48:32,2,100,0|0|4
256,208,105692,12,0,107105
256,192,107811,5,4
256,192,108164,1,4
32,16,108517,5,0
32,32,108606,1,0
32,48,108694,1,0
32,64,108782,1,0
32,80,108870,1,0
32,160,109047,1,0
32,176,109135,1,0
32,256,109312,1,0
32,272,109400,2,0,L|32:384,2,100
176,368,109930,5,0
176,352,110019,1,0
176,336,110107,1,0
176,320,110195,1,0
176,304,110283,1,0
176,224,110460,1,0
176,208,110548,1,0
176,128,110725,1,0
176,112,110813,2,0,L|176:0,2,100
336,16,111342,5,0
336,32,111431,1,0
336,48,111519,1,0
336,64,111607,1,0
336,80,111695,1,0
336,160,111872,1,0
336,176,111960,1,0
336,256,112137,1,0
336,272,112225,2,0,L|336:384,2,100
480,368,112754,5,0
480,352,112843,1,0
480,336,112931,1,0
480,320,113019,1,0
480,304,113107,1,0
480,224,113284,1,0
480,208,113372,1,0
480,128,113549,1,0
480,112,113637,2,0,L|480:0,2,100
384,48,114167,5,0
352,48,114256,1,0
320,48,114344,1,0
288,48,114432,1,0
256,48,114520,1,0
192,112,114697,1,0
160,112,114785,1,0
112,192,114962,1,0
80,192,115050,1,0
16,256,115227,1,4
16,256,115403,1,4
256,208,116992,12,4,118405
