osu file format v14

[General]
AudioFilename: Xepher.mp3
AudioLeadIn: 0
PreviewTime: 8370
Countdown: 0
SampleSet: Normal
StackLeniency: 0.7
Mode: 3
LetterboxInBreaks: 0
SpecialStyle: 0
WidescreenStoryboard: 0

[Editor]
Bookmarks: 72750,129132,175853
DistanceSpacing: 2
BeatDivisor: 4
GridSize: 16
TimelineZoom: 3.099999

[Metadata]
Title:Xepher
TitleUnicode:Xepher
Artist:Tatsh
ArtistUnicode:Tatsh
Creator:Mike Ace
Version:MX
Source:
Tags:
BeatmapID:657241
BeatmapSetID:291939

[Difficulty]
HPDrainRate:8
CircleSize:4
OverallDifficulty:8
ApproachRate:5
SliderMultiplier:1.4
SliderTickRate:1

[Events]
//Background and Video events
0,0,"Xepher-bg.png",0,0
//Break Periods
//Storyboard Layer 0 (Background)
//Storyboard Layer 1 (Fail)
//Storyboard Layer 2 (Pass)
//Storyboard Layer 3 (Foreground)
//Storyboard Sound Samples

[TimingPoints]
8459,352.941176470588,4,1,0,21,1,0

[HitObjects]
448,192,8458,5,0,0:0:0:0:
64,192,8458,1,0,0:0:0:0:
192,192,8458,1,0,0:0:0:0:
320,192,8547,1,0,0:0:0:0:
192,192,8635,1,0,0:0:0:0:
448,192,8723,1,0,0:0:0:0:
64,192,8723,1,0,0:0:0:0:
192,192,8811,1,0,0:0:0:0:
320,192,8900,1,0,0:0:0:0:
192,192,8988,1,0,0:0:0:0:
448,192,8988,1,0,0:0:0:0:
320,192,9076,1,0,0:0:0:0:
448,192,9164,1,0,0:0:0:0:
64,192,9253,1,0,0:0:0:0:
320,192,9253,1,0,0:0:0:0:
192,192,9341,1,0,0:0:0:0:
64,192,9429,1,0,0:0:0:0:
448,192,9517,128,0,9870:0:0:0:0:
320,192,9517,128,0,9870:0:0:0:0:
192,192,9517,128,0,9870:0:0:0:0:
64,192,9870,1,0,0:0:0:0:
192,192,9958,1,0,0:0:0:0:
320,192,10047,1,0,0:0:0:0:
64,192,10135,1,0,0:0:0:0:
192,192,10135,1,0,0:0:0:0:
320,192,10223,1,0,0:0:0:0:
192,192,10311,1,0,0:0:0:0:
64,192,10400,1,0,0:0:0:0:
320,192,10400,1,0,0:0:0:0:
448,192,10488,1,0,0:0:0:0:
320,192,10576,1,0,0:0:0:0:
448,192,10664,1,0,0:0:0:0:
192,192,10664,1,0,0:0:0:0:
64,192,10753,1,0,0:0:0:0:
320,192,10841,1,0,0:0:0:0:
192,192,10929,1,0,0:0:0:0:
64,192,10929,1,0,0:0:0:0:
448,192,10929,1,0,0:0:0:0:
320,192,11106,1,0,0:0:0:0:
192,192,11106,1,0,0:0:0:0:
448,192,11106,1,0,0:0:0:0:
320,192,11282,1,0,0:0:0:0:
64,192,11282,1,0,0:0:0:0:
192,192,11370,1,0,0:0:0:0:
320,192,11458,1,0,0:0:0:0:
64,192,11547,1,0,0:0:0:0:
192,192,11547,1,0,0:0:0:0:
320,192,11635,1,0,0:0:0:0:
448,192,11723,1,0,0:0:0:0:
192,192,11811,1,0,0:0:0:0:
320,192,11811,1,0,0:0:0:0:
448,192,11900,1,0,0:0:0:0:
64,192,11988,1,0,0:0:0:0:
448,192,12076,1,0,0:0:0:0:
192,192,12076,1,0,0:0:0:0:
320,192,12164,1,0,0:0:0:0:
64,192,12253,1,0,0:0:0:0:
448,192,12341,1,0,0:0:0:0:
320,192,12341,1,0,0:0:0:0:
192,192,12341,1,0,0:0:0:0:
320,192,12429,128,0,12694:0:0:0:0:
192,192,12429,128,0,12694:0:0:0:0:
64,192,12429,128,0,12694:0:0:0:0:
448,192,12694,1,0,0:0:0:0:
320,192,12782,1,0,0:0:0:0:
64,192,12870,1,0,0:0:0:0:
192,192,12870,1,0,0:0:0:0:
320,192,12958,1,0,0:0:0:0:
192,192,13047,1,0,0:0:0:0:
320,192,13135,1,0,0:0:0:0:
192,192,13223,1,0,0:0:0:0:
320,192,13311,1,0,0:0:0:0:
64,192,13311,1,0,0:0:0:0:
192,192,13400,1,0,0:0:0:0:
64,192,13488,1,0,0:0:0:0:
320,192,13488,1,0,0:0:0:0:
448,192,13576,1,0,0:0:0:0:
320,192,13664,1,0,0:0:0:0:
448,192,13753,1,0,0:0:0:0:
192,192,13753,1,0,0:0:0:0:
320,192,13841,1,0,0:0:0:0:
448,192,13929,1,0,0:0:0:0:
64,192,13929,1,0,0:0:0:0:
320,192,14017,1,0,0:0:0:0:
448,192,14106,1,0,0:0:0:0:
64,192,14106,1,0,0:0:0:0:
192,192,14194,1,0,0:0:0:0:
320,192,14282,1,0,0:0:0:0:
192,192,14370,1,0,0:0:0:0:
64,192,14370,1,0,0:0:0:0:
448,192,14458,1,0,0:0:0:0:
192,192,14547,1,0,0:0:0:0:
448,192,14635,1,0,0:0:0:0:
320,192,14635,1,0,0:0:0:0:
64,192,14723,1,0,0:0:0:0:
192,192,14811,1,0,0:0:0:0:
64,192,14900,1,0,0:0:0:0:
448,192,14900,1,0,0:0:0:0:
320,192,14988,1,0,0:0:0:0:
448,192,15076,1,0,0:0:0:0:
320,192,15164,128,0,15517:0:0:0:0:
64,192,15164,128,0,15517:0:0:0:0:
192,192,15164,128,0,15517:0:0:0:0:
448,192,15517,1,0,0:0:0:0:
320,192,15606,1,0,0:0:0:0:
448,192,15694,1,0,0:0:0:0:
192,192,15782,1,0,0:0:0:0:
64,192,15782,1,0,0:0:0:0:
320,192,15870,1,0,0:0:0:0:
192,192,15958,1,0,0:0:0:0:
320,192,16047,1,0,0:0:0:0:
448,192,16047,1,0,0:0:0:0:
64,192,16135,1,0,0:0:0:0:
320,192,16223,1,0,0:0:0:0:
64,192,16311,1,0,0:0:0:0:
192,192,16311,1,0,0:0:0:0:
448,192,16400,1,0,0:0:0:0:
320,192,16488,1,0,0:0:0:0:
64,192,16576,1,0,0:0:0:0:
192,192,16576,1,0,0:0:0:0:
448,192,16576,1,0,0:0:0:0:
448,192,16753,1,0,0:0:0:0:
320,192,16753,1,0,0:0:0:0:
192,192,16753,1,0,0:0:0:0:
192,192,16929,1,0,0:0:0:0:
64,192,16929,1,0,0:0:0:0:
320,192,17017,1,0,0:0:0:0:
64,192,17106,1,0,0:0:0:0:
192,192,17194,1,0,0:0:0:0:
448,192,17194,1,0,0:0:0:0:
320,192,17282,1,0,0:0:0:0:
448,192,17370,1,0,0:0:0:0:
192,192,17458,1,0,0:0:0:0:
64,192,17458,1,0,0:0:0:0:
320,192,17547,1,0,0:0:0:0:
192,192,17635,1,0,0:0:0:0:
64,192,17723,1,0,0:0:0:0:
448,192,17723,1,0,0:0:0:0:
320,192,17811,1,0,0:0:0:0:
448,192,17900,1,0,0:0:0:0:
320,192,17988,128,0,18341:0:0:0:0:
192,192,17988,128,0,18341:0:0:0:0:
448,192,17988,128,0,18341:0:0:0:0:
64,192,18341,1,0,0:0:0:0:
320,192,18517,1,0,0:0:0:0:
448,192,18694,1,0,0:0:0:0:
192,192,18694,1,0,0:0:0:0:
64,192,18870,1,0,0:0:0:0:
320,192,19047,1,0,0:0:0:0:
448,192,19047,1,0,0:0:0:0:
192,192,19135,1,0,0:0:0:0:
64,192,19135,1,0,0:0:0:0:
448,192,19223,1,0,0:0:0:0:
320,192,19223,1,0,0:0:0:0:
192,192,19311,1,0,0:0:0:0:
64,192,19311,1,0,0:0:0:0:
448,192,19400,1,0,0:0:0:0:
320,192,19400,1,0,0:0:0:0:
192,192,19488,1,0,0:0:0:0:
64,192,19488,1,0,0:0:0:0:
448,192,19576,1,0,0:0:0:0:
320,192,19576,1,0,0:0:0:0:
192,192,19664,1,0,0:0:0:0:
64,192,19664,1,0,0:0:0:0:
448,192,19753,128,0,20106:0:0:0:0:
320,192,19753,128,0,20106:0:0:0:0:
64,192,19929,1,0,0:0:0:0:
192,192,20106,1,0,0:0:0:0:
64,192,20106,128,0,20458:0:0:0:0:
320,192,20282,1,0,0:0:0:0:
448,192,20458,1,0,0:0:0:0:
192,192,20458,128,0,20635:0:0:0:0:
320,192,20635,128,0,20811:0:0:0:0:
192,192,20723,1,0,0:0:0:0:
448,192,20811,128,0,20988:0:0:0:0:
64,192,20811,1,0,0:0:0:0:
320,192,20900,1,0,0:0:0:0:
192,192,20988,1,0,0:0:0:0:
64,192,21164,1,0,0:0:0:0:
320,192,21164,128,0,21341:0:0:0:0:
448,192,21341,1,0,0:0:0:0:
64,192,21517,1,0,0:0:0:0:
320,192,21517,128,0,21694:0:0:0:0:
448,192,21694,1,0,0:0:0:0:
448,192,21870,128,0,22047:0:0:0:0:
64,192,22047,1,0,0:0:0:0:
320,192,22047,128,0,22223:0:0:0:0:
448,192,22223,128,0,22400:0:0:0:0:
192,192,22223,1,0,0:0:0:0:
64,192,22400,128,0,22576:0:0:0:0:
320,192,22576,1,0,0:0:0:0:
448,192,22576,1,0,0:0:0:0:
192,192,22576,1,0,0:0:0:0:
320,192,22753,1,0,0:0:0:0:
448,192,22929,1,0,0:0:0:0:
192,192,22929,1,0,0:0:0:0:
64,192,22929,1,0,0:0:0:0:
320,192,23106,1,0,0:0:0:0:
448,192,23282,1,0,0:0:0:0:
64,192,23282,1,0,0:0:0:0:
192,192,23458,1,0,0:0:0:0:
64,192,23547,1,0,0:0:0:0:
320,192,23635,128,0,23723:0:0:0:0:
448,192,23635,1,0,0:0:0:0:
192,192,23723,128,0,23811:0:0:0:0:
64,192,23811,128,0,23988:0:0:0:0:
448,192,23988,1,0,0:0:0:0:
320,192,23988,128,0,24164:0:0:0:0:
192,192,24164,1,0,0:0:0:0:
64,192,24341,1,0,0:0:0:0:
448,192,24341,1,0,0:0:0:0:
192,192,24429,1,0,0:0:0:0:
320,192,24517,1,0,0:0:0:0:
192,192,24694,128,0,24782:0:0:0:0:
448,192,24694,1,0,0:0:0:0:
64,192,24782,128,0,24958:0:0:0:0:
320,192,24958,128,0,25135:0:0:0:0:
448,192,25047,1,0,0:0:0:0:
192,192,25047,1,0,0:0:0:0:
64,192,25135,128,0,25223:0:0:0:0:
448,192,25223,128,0,25311:0:0:0:0:
192,192,25311,128,0,25400:0:0:0:0:
448,192,25400,1,0,0:0:0:0:
320,192,25400,1,0,0:0:0:0:
64,192,25400,1,0,0:0:0:0:
192,192,25576,1,0,0:0:0:0:
448,192,25753,1,0,0:0:0:0:
320,192,25753,1,0,0:0:0:0:
64,192,25753,1,0,0:0:0:0:
320,192,25929,1,0,0:0:0:0:
448,192,26106,1,0,0:0:0:0:
64,192,26106,1,0,0:0:0:0:
192,192,26282,1,0,0:0:0:0:
320,192,26370,1,0,0:0:0:0:
448,192,26458,1,0,0:0:0:0:
64,192,26458,1,0,0:0:0:0:
320,192,26635,1,0,0:0:0:0:
64,192,26811,1,0,0:0:0:0:
192,192,26811,1,0,0:0:0:0:
448,192,26988,1,0,0:0:0:0:
192,192,27164,1,0,0:0:0:0:
320,192,27164,1,0,0:0:0:0:
64,192,27341,1,0,0:0:0:0:
448,192,27517,1,0,0:0:0:0:
192,192,27517,128,0,27694:0:0:0:0:
320,192,27694,128,0,27782:0:0:0:0:
192,192,27782,128,0,27870:0:0:0:0:
64,192,27870,1,0,0:0:0:0:
448,192,27870,128,0,28047:0:0:0:0:
64,192,28047,128,0,28223:0:0:0:0:
320,192,28223,1,0,0:0:0:0:
192,192,28223,1,0,0:0:0:0:
448,192,28400,1,0,0:0:0:0:
320,192,28576,1,0,0:0:0:0:
64,192,28576,1,0,0:0:0:0:
192,192,28753,1,0,0:0:0:0:
320,192,28841,1,0,0:0:0:0:
192,192,28929,1,0,0:0:0:0:
448,192,28929,1,0,0:0:0:0:
64,192,29106,1,0,0:0:0:0:
448,192,29282,1,0,0:0:0:0:
192,192,29282,1,0,0:0:0:0:
320,192,29458,1,0,0:0:0:0:
448,192,29635,1,0,0:0:0:0:
192,192,29635,1,0,0:0:0:0:
64,192,29635,1,0,0:0:0:0:
192,192,29811,1,0,0:0:0:0:
320,192,29811,1,0,0:0:0:0:
64,192,29988,1,0,0:0:0:0:
448,192,29988,1,0,0:0:0:0:
320,192,30164,1,0,0:0:0:0:
192,192,30164,1,0,0:0:0:0:
192,192,30341,1,0,0:0:0:0:
64,192,30341,1,0,0:0:0:0:
192,192,30517,1,0,0:0:0:0:
320,192,30517,1,0,0:0:0:0:
448,192,30694,1,0,0:0:0:0:
320,192,30694,1,0,0:0:0:0:
64,192,30870,1,0,0:0:0:0:
192,192,30870,1,0,0:0:0:0:
320,192,31047,1,0,0:0:0:0:
64,192,31047,1,0,0:0:0:0:
448,192,31223,1,0,0:0:0:0:
320,192,31223,1,0,0:0:0:0:
192,192,31400,1,0,0:0:0:0:
320,192,31400,1,0,0:0:0:0:
448,192,31576,1,0,0:0:0:0:
64,192,31576,1,0,0:0:0:0:
64,192,31753,1,0,0:0:0:0:
192,192,31753,1,0,0:0:0:0:
448,192,31929,1,0,0:0:0:0:
192,192,31929,1,0,0:0:0:0:
448,192,32106,1,0,0:0:0:0:
320,192,32106,1,0,0:0:0:0:
320,192,32282,1,0,0:0:0:0:
64,192,32282,1,0,0:0:0:0:
64,192,32458,1,0,0:0:0:0:
320,192,32458,1,0,0:0:0:0:
192,192,32547,1,0,0:0:0:0:
448,192,32547,1,0,0:0:0:0:
320,192,32635,1,0,0:0:0:0:
64,192,32635,1,0,0:0:0:0:
448,192,32723,1,0,0:0:0:0:
192,192,32723,1,0,0:0:0:0:
64,192,32811,1,0,0:0:0:0:
320,192,32811,1,0,0:0:0:0:
448,192,32900,1,0,0:0:0:0:
192,192,32900,1,0,0:0:0:0:
64,192,32988,1,0,0:0:0:0:
320,192,32988,1,0,0:0:0:0:
448,192,33076,1,0,0:0:0:0:
192,192,33076,1,0,0:0:0:0:
64,192,33164,1,0,0:0:0:0:
320,192,33164,1,0,0:0:0:0:
448,192,33253,1,0,0:0:0:0:
192,192,33253,1,0,0:0:0:0:
320,192,33341,1,0,0:0:0:0:
64,192,33341,1,0,0:0:0:0:
448,192,33429,1,0,0:0:0:0:
192,192,33429,1,0,0:0:0:0:
320,192,33517,1,0,0:0:0:0:
64,192,33517,1,0,0:0:0:0:
448,192,33606,1,0,0:0:0:0:
192,192,33606,1,0,0:0:0:0:
320,192,33694,1,0,0:0:0:0:
64,192,33694,1,0,0:0:0:0:
448,192,33782,1,0,0:0:0:0:
192,192,33782,1,0,0:0:0:0:
320,192,33870,128,0,34576:0:0:0:0:
64,192,33870,128,0,34576:0:0:0:0:
448,192,34576,1,0,0:0:0:0:
448,192,35282,1,0,0:0:0:0:
192,192,35282,1,0,0:0:0:0:
64,192,35282,1,0,0:0:0:0:
320,192,35370,1,0,0:0:0:0:
192,192,35458,1,0,0:0:0:0:
320,192,35547,1,0,0:0:0:0:
192,192,35635,1,0,0:0:0:0:
448,192,35635,1,0,0:0:0:0:
320,192,35723,1,0,0:0:0:0:
64,192,35811,1,0,0:0:0:0:
192,192,35900,1,0,0:0:0:0:
320,192,35988,1,0,0:0:0:0:
64,192,35988,1,0,0:0:0:0:
448,192,36076,1,0,0:0:0:0:
320,192,36164,1,0,0:0:0:0:
192,192,36253,1,0,0:0:0:0:
64,192,36341,1,0,0:0:0:0:
448,192,36341,1,0,0:0:0:0:
320,192,36429,1,0,0:0:0:0:
64,192,36517,1,0,0:0:0:0:
192,192,36606,1,0,0:0:0:0:
448,192,36694,1,0,0:0:0:0:
320,192,36694,1,0,0:0:0:0:
192,192,36782,1,0,0:0:0:0:
64,192,36870,1,0,0:0:0:0:
192,192,36958,1,0,0:0:0:0:
64,192,37047,1,0,0:0:0:0:
448,192,37047,1,0,0:0:0:0:
192,192,37135,1,0,0:0:0:0:
320,192,37223,1,0,0:0:0:0:
192,192,37311,1,0,0:0:0:0:
64,192,37400,1,0,0:0:0:0:
448,192,37400,1,0,0:0:0:0:
320,192,37488,1,0,0:0:0:0:
192,192,37576,1,0,0:0:0:0:
64,192,37664,1,0,0:0:0:0:
192,192,37753,1,0,0:0:0:0:
448,192,37753,1,0,0:0:0:0:
320,192,37841,1,0,0:0:0:0:
192,192,37929,1,0,0:0:0:0:
320,192,38017,1,0,0:0:0:0:
64,192,38106,1,0,0:0:0:0:
448,192,38106,1,0,0:0:0:0:
192,192,38282,1,0,0:0:0:0:
192,192,38458,1,0,0:0:0:0:
320,192,38458,1,0,0:0:0:0:
448,192,38458,1,0,0:0:0:0:
64,192,38635,1,0,0:0:0:0:
192,192,38811,1,0,0:0:0:0:
448,192,38811,1,0,0:0:0:0:
448,192,38988,1,0,0:0:0:0:
448,192,39076,1,0,0:0:0:0:
320,192,39164,1,0,0:0:0:0:
192,192,39164,1,0,0:0:0:0:
64,192,39164,1,0,0:0:0:0:
320,192,39517,1,0,0:0:0:0:
448,192,39517,1,0,0:0:0:0:
192,192,39606,1,0,0:0:0:0:
320,192,39694,1,0,0:0:0:0:
192,192,39782,1,0,0:0:0:0:
64,192,39870,1,0,0:0:0:0:
320,192,39870,1,0,0:0:0:0:
192,192,39958,1,0,0:0:0:0:
320,192,40047,1,0,0:0:0:0:
64,192,40135,1,0,0:0:0:0:
448,192,40223,1,0,0:0:0:0:
192,192,40223,1,0,0:0:0:0:
320,192,40311,1,0,0:0:0:0:
192,192,40400,1,0,0:0:0:0:
64,192,40488,1,0,0:0:0:0:
448,192,40576,1,0,0:0:0:0:
192,192,40576,1,0,0:0:0:0:
320,192,40664,1,0,0:0:0:0:
192,192,40753,1,0,0:0:0:0:
320,192,40841,1,0,0:0:0:0:
448,192,40929,1,0,0:0:0:0:
192,192,40929,1,0,0:0:0:0:
320,192,41017,1,0,0:0:0:0:
64,192,41106,1,0,0:0:0:0:
192,192,41194,1,0,0:0:0:0:
64,192,41282,1,0,0:0:0:0:
320,192,41282,1,0,0:0:0:0:
448,192,41370,1,0,0:0:0:0:
64,192,41458,1,0,0:0:0:0:
448,192,41547,1,0,0:0:0:0:
64,192,41635,1,0,0:0:0:0:
320,192,41635,1,0,0:0:0:0:
192,192,41723,1,0,0:0:0:0:
320,192,41811,1,0,0:0:0:0:
448,192,41900,1,0,0:0:0:0:
320,192,41988,1,0,0:0:0:0:
192,192,41988,1,0,0:0:0:0:
64,192,42076,1,0,0:0:0:0:
448,192,42164,1,0,0:0:0:0:
192,192,42253,1,0,0:0:0:0:
320,192,42341,1,0,0:0:0:0:
448,192,42341,1,0,0:0:0:0:
64,192,42429,1,0,0:0:0:0:
320,192,42517,1,0,0:0:0:0:
448,192,42606,1,0,0:0:0:0:
320,192,42694,1,0,0:0:0:0:
192,192,42694,1,0,0:0:0:0:
64,192,42782,1,0,0:0:0:0:
192,192,42870,1,0,0:0:0:0:
320,192,42958,1,0,0:0:0:0:
192,192,43047,1,0,0:0:0:0:
448,192,43047,1,0,0:0:0:0:
320,192,43135,1,0,0:0:0:0:
192,192,43223,1,0,0:0:0:0:
64,192,43311,1,0,0:0:0:0:
192,192,43400,1,0,0:0:0:0:
448,192,43400,1,0,0:0:0:0:
320,192,43488,1,0,0:0:0:0:
64,192,43576,1,0,0:0:0:0:
320,192,43664,1,0,0:0:0:0:
64,192,43753,1,0,0:0:0:0:
448,192,43753,1,0,0:0:0:0:
192,192,43841,1,0,0:0:0:0:
448,192,43929,1,0,0:0:0:0:
320,192,44017,1,0,0:0:0:0:
192,192,44106,1,0,0:0:0:0:
64,192,44106,1,0,0:0:0:0:
320,192,44194,1,0,0:0:0:0:
64,192,44282,1,0,0:0:0:0:
448,192,44370,1,0,0:0:0:0:
320,192,44458,1,0,0:0:0:0:
64,192,44458,1,0,0:0:0:0:
192,192,44547,1,0,0:0:0:0:
320,192,44635,1,0,0:0:0:0:
448,192,44723,1,0,0:0:0:0:
320,192,44811,1,0,0:0:0:0:
64,192,44811,1,0,0:0:0:0:
192,192,44900,1,0,0:0:0:0:
64,192,44988,1,0,0:0:0:0:
320,192,45076,1,0,0:0:0:0:
192,192,45164,1,0,0:0:0:0:
448,192,45164,1,0,0:0:0:0:
64,192,45253,1,0,0:0:0:0:
192,192,45341,1,0,0:0:0:0:
320,192,45429,1,0,0:0:0:0:
192,192,45517,1,0,0:0:0:0:
448,192,45517,1,0,0:0:0:0:
320,192,45606,1,0,0:0:0:0:
64,192,45694,1,0,0:0:0:0:
192,192,45782,1,0,0:0:0:0:
64,192,45870,1,0,0:0:0:0:
320,192,45870,1,0,0:0:0:0:
448,192,45958,1,0,0:0:0:0:
320,192,46047,1,0,0:0:0:0:
192,192,46135,1,0,0:0:0:0:
320,192,46223,1,0,0:0:0:0:
64,192,46223,1,0,0:0:0:0:
192,192,46311,1,0,0:0:0:0:
320,192,46400,1,0,0:0:0:0:
448,192,46488,1,0,0:0:0:0:
320,192,46576,1,0,0:0:0:0:
192,192,46576,1,0,0:0:0:0:
64,192,46664,1,0,0:0:0:0:
192,192,46753,1,0,0:0:0:0:
320,192,46841,1,0,0:0:0:0:
448,192,46929,1,0,0:0:0:0:
64,192,46929,1,0,0:0:0:0:
192,192,47017,1,0,0:0:0:0:
320,192,47106,1,0,0:0:0:0:
448,192,47194,1,0,0:0:0:0:
320,192,47282,1,0,0:0:0:0:
192,192,47282,1,0,0:0:0:0:
64,192,47370,1,0,0:0:0:0:
320,192,47458,1,0,0:0:0:0:
192,192,47547,1,0,0:0:0:0:
320,192,47635,1,0,0:0:0:0:
64,192,47635,1,0,0:0:0:0:
448,192,47723,1,0,0:0:0:0:
320,192,47811,1,0,0:0:0:0:
448,192,47900,1,0,0:0:0:0:
320,192,47988,1,0,0:0:0:0:
64,192,47988,1,0,0:0:0:0:
192,192,48076,1,0,0:0:0:0:
64,192,48164,1,0,0:0:0:0:
192,192,48253,1,0,0:0:0:0:
320,192,48341,1,0,0:0:0:0:
448,192,48341,1,0,0:0:0:0:
192,192,48429,1,0,0:0:0:0:
320,192,48517,1,0,0:0:0:0:
192,192,48606,1,0,0:0:0:0:
64,192,48694,1,0,0:0:0:0:
448,192,48694,1,0,0:0:0:0:
320,192,48782,1,0,0:0:0:0:
448,192,48870,1,0,0:0:0:0:
320,192,48958,1,0,0:0:0:0:
448,192,49047,1,0,0:0:0:0:
64,192,49047,1,0,0:0:0:0:
192,192,49047,1,0,0:0:0:0:
320,192,49135,1,0,0:0:0:0:
192,192,49223,1,0,0:0:0:0:
64,192,49311,1,0,0:0:0:0:
448,192,49400,1,0,0:0:0:0:
192,192,49400,1,0,0:0:0:0:
320,192,49488,1,0,0:0:0:0:
192,192,49576,1,0,0:0:0:0:
320,192,49664,1,0,0:0:0:0:
448,192,49753,1,0,0:0:0:0:
192,192,49753,1,0,0:0:0:0:
64,192,49841,1,0,0:0:0:0:
192,192,49929,1,0,0:0:0:0:
320,192,50017,1,0,0:0:0:0:
64,192,50106,1,0,0:0:0:0:
448,192,50106,1,0,0:0:0:0:
192,192,50194,1,0,0:0:0:0:
320,192,50282,1,0,0:0:0:0:
448,192,50370,1,0,0:0:0:0:
320,192,50458,128,0,50811:0:0:0:0:
192,192,50458,128,0,50811:0:0:0:0:
64,192,50458,128,0,50811:0:0:0:0:
448,192,50811,1,0,0:0:0:0:
192,192,50900,1,0,0:0:0:0:
320,192,50988,1,0,0:0:0:0:
192,192,51076,1,0,0:0:0:0:
448,192,51164,1,0,0:0:0:0:
64,192,51164,1,0,0:0:0:0:
192,192,51253,1,0,0:0:0:0:
320,192,51341,1,0,0:0:0:0:
192,192,51429,1,0,0:0:0:0:
320,192,51517,1,0,0:0:0:0:
64,192,51517,1,0,0:0:0:0:
448,192,51606,1,0,0:0:0:0:
192,192,51694,1,0,0:0:0:0:
320,192,51782,1,0,0:0:0:0:
64,192,51870,1,0,0:0:0:0:
192,192,51870,1,0,0:0:0:0:
448,192,51870,1,0,0:0:0:0:
448,192,52047,1,0,0:0:0:0:
320,192,52047,1,0,0:0:0:0:
192,192,52047,1,0,0:0:0:0:
192,192,52223,1,0,0:0:0:0:
320,192,52223,1,0,0:0:0:0:
448,192,52223,1,0,0:0:0:0:
64,192,52311,1,0,0:0:0:0:
192,192,52400,1,0,0:0:0:0:
448,192,52488,1,0,0:0:0:0:
192,192,52576,1,0,0:0:0:0:
320,192,52576,1,0,0:0:0:0:
64,192,52664,1,0,0:0:0:0:
192,192,52753,1,0,0:0:0:0:
64,192,52841,1,0,0:0:0:0:
192,192,52929,1,0,0:0:0:0:
448,192,52929,1,0,0:0:0:0:
320,192,53017,1,0,0:0:0:0:
192,192,53106,1,0,0:0:0:0:
64,192,53194,1,0,0:0:0:0:
192,192,53282,1,0,0:0:0:0:
448,192,53282,1,0,0:0:0:0:
320,192,53282,1,0,0:0:0:0:
448,192,53370,1,0,0:0:0:0:
320,192,53370,1,0,0:0:0:0:
192,192,53370,1,0,0:0:0:0:
192,192,53458,1,0,0:0:0:0:
320,192,53458,1,0,0:0:0:0:
448,192,53458,1,0,0:0:0:0:
64,192,53635,1,0,0:0:0:0:
192,192,53635,1,0,0:0:0:0:
448,192,53723,1,0,0:0:0:0:
320,192,53811,1,0,0:0:0:0:
192,192,53900,1,0,0:0:0:0:
320,192,53988,1,0,0:0:0:0:
64,192,53988,1,0,0:0:0:0:
448,192,54076,1,0,0:0:0:0:
320,192,54164,1,0,0:0:0:0:
192,192,54253,1,0,0:0:0:0:
320,192,54341,1,0,0:0:0:0:
64,192,54341,1,0,0:0:0:0:
448,192,54429,1,0,0:0:0:0:
192,192,54429,1,0,0:0:0:0:
64,192,54517,1,0,0:0:0:0:
320,192,54517,1,0,0:0:0:0:
192,192,54606,1,0,0:0:0:0:
448,192,54606,1,0,0:0:0:0:
320,192,54694,1,0,0:0:0:0:
64,192,54694,1,0,0:0:0:0:
448,192,54782,1,0,0:0:0:0:
192,192,54782,1,0,0:0:0:0:
64,192,54870,1,0,0:0:0:0:
320,192,54870,1,0,0:0:0:0:
192,192,54958,1,0,0:0:0:0:
448,192,54958,1,0,0:0:0:0:
64,192,55047,1,0,0:0:0:0:
192,192,55047,1,0,0:0:0:0:
320,192,55047,1,0,0:0:0:0:
448,192,55135,1,0,0:0:0:0:
320,192,55223,1,0,0:0:0:0:
64,192,55311,1,0,0:0:0:0:
448,192,55400,1,0,0:0:0:0:
192,192,55400,1,0,0:0:0:0:
320,192,55488,1,0,0:0:0:0:
448,192,55576,1,0,0:0:0:0:
64,192,55664,1,0,0:0:0:0:
448,192,55753,1,0,0:0:0:0:
192,192,55753,1,0,0:0:0:0:
320,192,55841,1,0,0:0:0:0:
192,192,55929,1,0,0:0:0:0:
64,192,56017,1,0,0:0:0:0:
448,192,56106,128,0,56458:0:0:0:0:
320,192,56106,128,0,56458:0:0:0:0:
192,192,56106,128,0,56458:0:0:0:0:
64,192,56458,1,0,0:0:0:0:
192,192,56547,1,0,0:0:0:0:
320,192,56635,1,0,0:0:0:0:
192,192,56723,1,0,0:0:0:0:
448,192,56811,1,0,0:0:0:0:
64,192,56811,1,0,0:0:0:0:
192,192,56900,1,0,0:0:0:0:
320,192,56988,1,0,0:0:0:0:
448,192,57076,1,0,0:0:0:0:
192,192,57164,1,0,0:0:0:0:
320,192,57164,1,0,0:0:0:0:
448,192,57253,1,0,0:0:0:0:
320,192,57341,1,0,0:0:0:0:
192,192,57429,1,0,0:0:0:0:
448,192,57517,1,0,0:0:0:0:
64,192,57517,1,0,0:0:0:0:
320,192,57517,1,0,0:0:0:0:
448,192,57694,1,0,0:0:0:0:
64,192,57694,1,0,0:0:0:0:
320,192,57694,1,0,0:0:0:0:
64,192,57870,1,0,0:0:0:0:
192,192,57870,1,0,0:0:0:0:
320,192,57870,1,0,0:0:0:0:
448,192,57958,1,0,0:0:0:0:
320,192,58047,1,0,0:0:0:0:
192,192,58135,1,0,0:0:0:0:
448,192,58223,1,0,0:0:0:0:
64,192,58223,1,0,0:0:0:0:
192,192,58311,1,0,0:0:0:0:
320,192,58400,1,0,0:0:0:0:
448,192,58488,1,0,0:0:0:0:
64,192,58576,1,0,0:0:0:0:
192,192,58576,1,0,0:0:0:0:
320,192,58664,1,0,0:0:0:0:
448,192,58753,1,0,0:0:0:0:
192,192,58841,1,0,0:0:0:0:
64,192,58929,1,0,0:0:0:0:
448,192,58929,1,0,0:0:0:0:
320,192,58929,1,0,0:0:0:0:
192,192,59017,1,0,0:0:0:0:
64,192,59106,1,0,0:0:0:0:
320,192,59194,1,0,0:0:0:0:
64,192,59282,1,0,0:0:0:0:
192,192,59282,1,0,0:0:0:0:
448,192,59282,1,0,0:0:0:0:
320,192,59458,1,0,0:0:0:0:
64,192,59635,1,0,0:0:0:0:
192,192,59635,1,0,0:0:0:0:
320,192,59811,1,0,0:0:0:0:
64,192,59988,1,0,0:0:0:0:
448,192,59988,1,0,0:0:0:0:
320,192,60076,1,0,0:0:0:0:
192,192,60076,1,0,0:0:0:0:
448,192,60164,1,0,0:0:0:0:
64,192,60164,1,0,0:0:0:0:
320,192,60253,1,0,0:0:0:0:
192,192,60253,1,0,0:0:0:0:
448,192,60341,1,0,0:0:0:0:
64,192,60341,1,0,0:0:0:0:
192,192,60429,1,0,0:0:0:0:
320,192,60429,1,0,0:0:0:0:
64,192,60517,1,0,0:0:0:0:
448,192,60517,1,0,0:0:0:0:
320,192,60606,1,0,0:0:0:0:
192,192,60606,1,0,0:0:0:0:
64,192,60694,1,0,0:0:0:0:
448,192,60694,1,0,0:0:0:0:
320,192,62370,128,0,62458:0:0:0:0:
192,192,62458,128,0,62635:0:0:0:0:
320,192,62635,128,0,62723:0:0:0:0:
64,192,62723,128,0,62811:0:0:0:0:
192,192,62811,128,0,62900:0:0:0:0:
320,192,62900,128,0,62988:0:0:0:0:
448,192,62988,128,0,63164:0:0:0:0:
320,192,63164,128,0,63341:0:0:0:0:
64,192,63341,128,0,63517:0:0:0:0:
448,192,64929,128,0,65106:0:0:0:0:
320,192,65106,128,0,65194:0:0:0:0:
192,192,65194,128,0,65282:0:0:0:0:
64,192,65282,128,0,65458:0:0:0:0:
64,192,66341,5,0,0:0:0:0:
448,192,66341,1,0,0:0:0:0:
320,192,66341,1,0,0:0:0:0:
192,192,66429,1,0,0:0:0:0:
320,192,66517,1,0,0:0:0:0:
448,192,66606,1,0,0:0:0:0:
64,192,66694,1,0,0:0:0:0:
192,192,66694,1,0,0:0:0:0:
320,192,66782,1,0,0:0:0:0:
192,192,66870,1,0,0:0:0:0:
320,192,66958,1,0,0:0:0:0:
192,192,67047,1,0,0:0:0:0:
448,192,67047,1,0,0:0:0:0:
320,192,67135,1,0,0:0:0:0:
192,192,67223,1,0,0:0:0:0:
64,192,67311,1,0,0:0:0:0:
320,192,67400,1,0,0:0:0:0:
192,192,67400,1,0,0:0:0:0:
64,192,67488,1,0,0:0:0:0:
192,192,67576,1,0,0:0:0:0:
320,192,67664,1,0,0:0:0:0:
192,192,67753,1,0,0:0:0:0:
448,192,67753,1,0,0:0:0:0:
320,192,67841,1,0,0:0:0:0:
192,192,67929,1,0,0:0:0:0:
64,192,68017,1,0,0:0:0:0:
192,192,68106,1,0,0:0:0:0:
448,192,68106,1,0,0:0:0:0:
320,192,68194,1,0,0:0:0:0:
192,192,68282,1,0,0:0:0:0:
64,192,68370,1,0,0:0:0:0:
320,192,68458,1,0,0:0:0:0:
192,192,68458,1,0,0:0:0:0:
448,192,68547,1,0,0:0:0:0:
64,192,68635,1,0,0:0:0:0:
192,192,68723,1,0,0:0:0:0:
64,192,68811,1,0,0:0:0:0:
320,192,68811,1,0,0:0:0:0:
192,192,68900,1,0,0:0:0:0:
320,192,68988,1,0,0:0:0:0:
448,192,69076,1,0,0:0:0:0:
320,192,69164,1,0,0:0:0:0:
64,192,69164,1,0,0:0:0:0:
448,192,69253,1,0,0:0:0:0:
192,192,69341,1,0,0:0:0:0:
320,192,69429,1,0,0:0:0:0:
64,192,69517,1,0,0:0:0:0:
448,192,69517,1,0,0:0:0:0:
320,192,69606,1,0,0:0:0:0:
192,192,69694,1,0,0:0:0:0:
64,192,69782,1,0,0:0:0:0:
448,192,69870,1,0,0:0:0:0:
320,192,69870,1,0,0:0:0:0:
64,192,69958,1,0,0:0:0:0:
192,192,70047,1,0,0:0:0:0:
448,192,70135,1,0,0:0:0:0:
320,192,70223,1,0,0:0:0:0:
64,192,70223,1,0,0:0:0:0:
192,192,70311,1,0,0:0:0:0:
320,192,70400,1,0,0:0:0:0:
192,192,70488,1,0,0:0:0:0:
64,192,70576,1,0,0:0:0:0:
448,192,70576,1,0,0:0:0:0:
320,192,70664,1,0,0:0:0:0:
192,192,70753,1,0,0:0:0:0:
64,192,70841,1,0,0:0:0:0:
448,192,70929,1,0,0:0:0:0:
320,192,70929,1,0,0:0:0:0:
192,192,71017,1,0,0:0:0:0:
64,192,71106,1,0,0:0:0:0:
320,192,71194,1,0,0:0:0:0:
448,192,71282,1,0,0:0:0:0:
192,192,71282,1,0,0:0:0:0:
64,192,71370,1,0,0:0:0:0:
320,192,71458,1,0,0:0:0:0:
192,192,71547,1,0,0:0:0:0:
64,192,71635,1,0,0:0:0:0:
448,192,71635,1,0,0:0:0:0:
320,192,71723,1,0,0:0:0:0:
192,192,71811,1,0,0:0:0:0:
448,192,71900,1,0,0:0:0:0:
320,192,71988,1,0,0:0:0:0:
64,192,71988,1,0,0:0:0:0:
448,192,72164,1,0,0:0:0:0:
192,192,72164,1,0,0:0:0:0:
64,192,72341,1,0,0:0:0:0:
320,192,72341,1,0,0:0:0:0:
448,192,72517,1,0,0:0:0:0:
192,192,72517,1,0,0:0:0:0:
64,192,72694,1,0,0:0:0:0:
320,192,72694,1,0,0:0:0:0:
448,192,72870,1,0,0:0:0:0:
192,192,72870,1,0,0:0:0:0:
64,192,73047,1,0,0:0:0:0:
320,192,73047,1,0,0:0:0:0:
448,192,73223,1,0,0:0:0:0:
192,192,73223,1,0,0:0:0:0:
64,192,73400,1,0,0:0:0:0:
320,192,73400,1,0,0:0:0:0:
448,192,73400,1,0,0:0:0:0:
192,192,73488,1,0,0:0:0:0:
320,192,73576,1,0,0:0:0:0:
64,192,73664,1,0,0:0:0:0:
192,192,73753,1,0,0:0:0:0:
448,192,73753,1,0,0:0:0:0:
64,192,73841,1,0,0:0:0:0:
320,192,73929,1,0,0:0:0:0:
192,192,74017,1,0,0:0:0:0:
448,192,74106,1,0,0:0:0:0:
64,192,74194,1,0,0:0:0:0:
320,192,74282,1,0,0:0:0:0:
192,192,74370,1,0,0:0:0:0:
448,192,74458,1,0,0:0:0:0:
64,192,74458,1,0,0:0:0:0:
320,192,74547,1,0,0:0:0:0:
448,192,74635,1,0,0:0:0:0:
320,192,74723,1,0,0:0:0:0:
64,192,74811,1,0,0:0:0:0:
448,192,74900,1,0,0:0:0:0:
320,192,74988,1,0,0:0:0:0:
192,192,75076,1,0,0:0:0:0:
64,192,75164,1,0,0:0:0:0:
320,192,75253,1,0,0:0:0:0:
192,192,75341,1,0,0:0:0:0:
64,192,75429,1,0,0:0:0:0:
192,192,75517,1,0,0:0:0:0:
320,192,75517,1,0,0:0:0:0:
448,192,75606,1,0,0:0:0:0:
320,192,75694,1,0,0:0:0:0:
192,192,75782,1,0,0:0:0:0:
320,192,75870,1,0,0:0:0:0:
448,192,75870,1,0,0:0:0:0:
192,192,75958,1,0,0:0:0:0:
64,192,76047,1,0,0:0:0:0:
192,192,76135,1,0,0:0:0:0:
320,192,76223,1,0,0:0:0:0:
64,192,76223,1,0,0:0:0:0:
448,192,76311,1,0,0:0:0:0:
192,192,76400,1,0,0:0:0:0:
320,192,76488,1,0,0:0:0:0:
64,192,76576,1,0,0:0:0:0:
448,192,76576,1,0,0:0:0:0:
192,192,76664,1,0,0:0:0:0:
320,192,76753,1,0,0:0:0:0:
448,192,76841,1,0,0:0:0:0:
192,192,76929,1,0,0:0:0:0:
64,192,76929,1,0,0:0:0:0:
320,192,77017,1,0,0:0:0:0:
192,192,77106,1,0,0:0:0:0:
448,192,77194,1,0,0:0:0:0:
320,192,77282,1,0,0:0:0:0:
64,192,77282,1,0,0:0:0:0:
192,192,77370,1,0,0:0:0:0:
64,192,77458,1,0,0:0:0:0:
192,192,77547,1,0,0:0:0:0:
320,192,77635,1,0,0:0:0:0:
448,192,77635,1,0,0:0:0:0:
192,192,77723,1,0,0:0:0:0:
64,192,77811,1,0,0:0:0:0:
448,192,77900,1,0,0:0:0:0:
192,192,77988,1,0,0:0:0:0:
320,192,77988,1,0,0:0:0:0:
64,192,78076,1,0,0:0:0:0:
320,192,78164,1,0,0:0:0:0:
192,192,78253,1,0,0:0:0:0:
320,192,78341,1,0,0:0:0:0:
448,192,78341,1,0,0:0:0:0:
448,192,78429,1,0,0:0:0:0:
192,192,78517,1,0,0:0:0:0:
64,192,78606,1,0,0:0:0:0:
320,192,78694,1,0,0:0:0:0:
448,192,78694,1,0,0:0:0:0:
192,192,78782,1,0,0:0:0:0:
448,192,78870,1,0,0:0:0:0:
320,192,78958,1,0,0:0:0:0:
64,192,79047,1,0,0:0:0:0:
192,192,79047,1,0,0:0:0:0:
320,192,79135,1,0,0:0:0:0:
192,192,79223,1,0,0:0:0:0:
64,192,79311,1,0,0:0:0:0:
320,192,79400,1,0,0:0:0:0:
192,192,79400,1,0,0:0:0:0:
448,192,79488,1,0,0:0:0:0:
64,192,79576,1,0,0:0:0:0:
320,192,79664,1,0,0:0:0:0:
448,192,79753,1,0,0:0:0:0:
64,192,79753,1,0,0:0:0:0:
192,192,79841,1,0,0:0:0:0:
320,192,79929,1,0,0:0:0:0:
192,192,80017,1,0,0:0:0:0:
64,192,80106,1,0,0:0:0:0:
320,192,80106,1,0,0:0:0:0:
320,192,80194,1,0,0:0:0:0:
448,192,80282,1,0,0:0:0:0:
192,192,80370,1,0,0:0:0:0:
192,192,80458,1,0,0:0:0:0:
64,192,80458,1,0,0:0:0:0:
64,192,80547,1,0,0:0:0:0:
320,192,80635,1,0,0:0:0:0:
192,192,80723,1,0,0:0:0:0:
448,192,80811,1,0,0:0:0:0:
320,192,80811,1,0,0:0:0:0:
320,192,80900,1,0,0:0:0:0:
192,192,80988,1,0,0:0:0:0:
64,192,81076,1,0,0:0:0:0:
192,192,81164,1,0,0:0:0:0:
320,192,81164,1,0,0:0:0:0:
64,192,81253,1,0,0:0:0:0:
192,192,81341,1,0,0:0:0:0:
320,192,81429,1,0,0:0:0:0:
448,192,81517,1,0,0:0:0:0:
320,192,81517,1,0,0:0:0:0:
192,192,81606,1,0,0:0:0:0:
64,192,81694,1,0,0:0:0:0:
192,192,81782,1,0,0:0:0:0:
448,192,81870,1,0,0:0:0:0:
64,192,81870,1,0,0:0:0:0:
320,192,81958,1,0,0:0:0:0:
64,192,82047,1,0,0:0:0:0:
320,192,82135,1,0,0:0:0:0:
192,192,82223,1,0,0:0:0:0:
448,192,82223,1,0,0:0:0:0:
64,192,82311,1,0,0:0:0:0:
320,192,82400,1,0,0:0:0:0:
192,192,82488,1,0,0:0:0:0:
64,192,82576,1,0,0:0:0:0:
320,192,82576,1,0,0:0:0:0:
192,192,82664,1,0,0:0:0:0:
320,192,82753,1,0,0:0:0:0:
448,192,82841,1,0,0:0:0:0:
64,192,82929,1,0,0:0:0:0:
448,192,82929,1,0,0:0:0:0:
192,192,83017,1,0,0:0:0:0:
320,192,83106,1,0,0:0:0:0:
448,192,83194,1,0,0:0:0:0:
320,192,83282,1,0,0:0:0:0:
192,192,83282,1,0,0:0:0:0:
448,192,83370,1,0,0:0:0:0:
320,192,83458,1,0,0:0:0:0:
448,192,83547,1,0,0:0:0:0:
64,192,83635,1,0,0:0:0:0:
320,192,83635,1,0,0:0:0:0:
192,192,83723,1,0,0:0:0:0:
64,192,83811,1,0,0:0:0:0:
192,192,83900,1,0,0:0:0:0:
64,192,83988,1,0,0:0:0:0:
320,192,83988,1,0,0:0:0:0:
320,192,84076,1,0,0:0:0:0:
192,192,84164,1,0,0:0:0:0:
320,192,84253,1,0,0:0:0:0:
448,192,84341,1,0,0:0:0:0:
192,192,84341,1,0,0:0:0:0:
64,192,84429,1,0,0:0:0:0:
448,192,84517,1,0,0:0:0:0:
320,192,84606,1,0,0:0:0:0:
192,192,84694,1,0,0:0:0:0:
448,192,84694,1,0,0:0:0:0:
64,192,84782,1,0,0:0:0:0:
448,192,84870,1,0,0:0:0:0:
320,192,84958,1,0,0:0:0:0:
192,192,85047,1,0,0:0:0:0:
64,192,85047,1,0,0:0:0:0:
448,192,85047,1,0,0:0:0:0:
192,192,85135,1,0,0:0:0:0:
320,192,85223,1,0,0:0:0:0:
192,192,85311,1,0,0:0:0:0:
320,192,85400,1,0,0:0:0:0:
448,192,85400,1,0,0:0:0:0:
192,192,85488,1,0,0:0:0:0:
64,192,85576,1,0,0:0:0:0:
448,192,85664,1,0,0:0:0:0:
320,192,85753,1,0,0:0:0:0:
192,192,85753,1,0,0:0:0:0:
64,192,85753,1,0,0:0:0:0:
448,192,85841,1,0,0:0:0:0:
192,192,85929,1,0,0:0:0:0:
64,192,86017,1,0,0:0:0:0:
320,192,86106,1,0,0:0:0:0:
448,192,86106,1,0,0:0:0:0:
192,192,86194,1,0,0:0:0:0:
64,192,86282,1,0,0:0:0:0:
192,192,86370,1,0,0:0:0:0:
320,192,86458,1,0,0:0:0:0:
192,192,86458,1,0,0:0:0:0:
64,192,86458,1,0,0:0:0:0:
448,192,86547,1,0,0:0:0:0:
320,192,86635,1,0,0:0:0:0:
192,192,86723,1,0,0:0:0:0:
64,192,86811,1,0,0:0:0:0:
192,192,86811,1,0,0:0:0:0:
448,192,86900,1,0,0:0:0:0:
320,192,86988,1,0,0:0:0:0:
448,192,87076,1,0,0:0:0:0:
192,192,87164,1,0,0:0:0:0:
64,192,87164,1,0,0:0:0:0:
448,192,87164,1,0,0:0:0:0:
320,192,87253,1,0,0:0:0:0:
192,192,87341,1,0,0:0:0:0:
320,192,87429,1,0,0:0:0:0:
192,192,87517,1,0,0:0:0:0:
64,192,87517,1,0,0:0:0:0:
448,192,87517,1,0,0:0:0:0:
320,192,87606,1,0,0:0:0:0:
448,192,87694,1,0,0:0:0:0:
64,192,87782,1,0,0:0:0:0:
192,192,87870,1,0,0:0:0:0:
448,192,87870,1,0,0:0:0:0:
320,192,87958,1,0,0:0:0:0:
448,192,88047,1,0,0:0:0:0:
64,192,88135,1,0,0:0:0:0:
64,192,88223,1,0,0:0:0:0:
320,192,88311,1,0,0:0:0:0:
192,192,88400,1,0,0:0:0:0:
448,192,88488,1,0,0:0:0:0:
320,192,88576,1,0,0:0:0:0:
64,192,88576,1,0,0:0:0:0:
192,192,88664,1,0,0:0:0:0:
192,192,88753,1,0,0:0:0:0:
320,192,88841,1,0,0:0:0:0:
448,192,88929,1,0,0:0:0:0:
192,192,88929,1,0,0:0:0:0:
64,192,88929,1,0,0:0:0:0:
192,192,89017,1,0,0:0:0:0:
64,192,89017,1,0,0:0:0:0:
448,192,89017,1,0,0:0:0:0:
64,192,89106,1,0,0:0:0:0:
192,192,89106,1,0,0:0:0:0:
448,192,89106,1,0,0:0:0:0:
64,192,89194,1,0,0:0:0:0:
192,192,89194,1,0,0:0:0:0:
448,192,89194,1,0,0:0:0:0:
64,192,89282,1,0,0:0:0:0:
192,192,89282,1,0,0:0:0:0:
448,192,89282,1,0,0:0:0:0:
192,192,89458,1,0,0:0:0:0:
448,192,89458,1,0,0:0:0:0:
64,192,89547,1,0,0:0:0:0:
320,192,89547,1,0,0:0:0:0:
320,192,89723,1,0,0:0:0:0:
448,192,89723,1,0,0:0:0:0:
192,192,89811,1,0,0:0:0:0:
64,192,89811,1,0,0:0:0:0:
192,192,89988,1,0,0:0:0:0:
320,192,89988,1,0,0:0:0:0:
320,192,90164,1,0,0:0:0:0:
448,192,90164,1,0,0:0:0:0:
320,192,90341,1,0,0:0:0:0:
448,192,90341,1,0,0:0:0:0:
64,192,90341,1,0,0:0:0:0:
64,192,90429,1,0,0:0:0:0:
320,192,90429,1,0,0:0:0:0:
448,192,90429,1,0,0:0:0:0:
64,192,90517,1,0,0:0:0:0:
320,192,90517,1,0,0:0:0:0:
448,192,90517,1,0,0:0:0:0:
64,192,90606,1,0,0:0:0:0:
320,192,90606,1,0,0:0:0:0:
448,192,90606,1,0,0:0:0:0:
64,192,90694,1,0,0:0:0:0:
320,192,90694,1,0,0:0:0:0:
448,192,90694,1,0,0:0:0:0:
192,192,90870,1,0,0:0:0:0:
320,192,90870,1,0,0:0:0:0:
64,192,90958,1,0,0:0:0:0:
448,192,90958,1,0,0:0:0:0:
448,192,91135,1,0,0:0:0:0:
64,192,91135,1,0,0:0:0:0:
192,192,91223,1,0,0:0:0:0:
320,192,91223,1,0,0:0:0:0:
448,192,91400,1,0,0:0:0:0:
64,192,91400,1,0,0:0:0:0:
64,192,91576,1,0,0:0:0:0:
320,192,91576,1,0,0:0:0:0:
64,192,91753,1,0,0:0:0:0:
192,192,91753,1,0,0:0:0:0:
320,192,91753,1,0,0:0:0:0:
64,192,91841,1,0,0:0:0:0:
192,192,91841,1,0,0:0:0:0:
320,192,91841,1,0,0:0:0:0:
64,192,91929,1,0,0:0:0:0:
192,192,91929,1,0,0:0:0:0:
320,192,91929,1,0,0:0:0:0:
64,192,92017,1,0,0:0:0:0:
192,192,92017,1,0,0:0:0:0:
320,192,92017,1,0,0:0:0:0:
64,192,92106,1,0,0:0:0:0:
192,192,92106,1,0,0:0:0:0:
320,192,92106,1,0,0:0:0:0:
448,192,92282,1,0,0:0:0:0:
192,192,92282,1,0,0:0:0:0:
320,192,92370,1,0,0:0:0:0:
448,192,92370,1,0,0:0:0:0:
320,192,92547,1,0,0:0:0:0:
64,192,92547,1,0,0:0:0:0:
64,192,92635,1,0,0:0:0:0:
192,192,92635,1,0,0:0:0:0:
192,192,92811,1,0,0:0:0:0:
448,192,92811,1,0,0:0:0:0:
64,192,92988,1,0,0:0:0:0:
320,192,92988,1,0,0:0:0:0:
448,192,93164,1,0,0:0:0:0:
320,192,93164,1,0,0:0:0:0:
192,192,93164,1,0,0:0:0:0:
192,192,93253,1,0,0:0:0:0:
320,192,93253,1,0,0:0:0:0:
448,192,93253,1,0,0:0:0:0:
192,192,93341,1,0,0:0:0:0:
320,192,93341,1,0,0:0:0:0:
448,192,93341,1,0,0:0:0:0:
192,192,93429,1,0,0:0:0:0:
320,192,93429,1,0,0:0:0:0:
448,192,93429,1,0,0:0:0:0:
192,192,93517,1,0,0:0:0:0:
320,192,93517,1,0,0:0:0:0:
448,192,93517,1,0,0:0:0:0:
64,192,93694,1,0,0:0:0:0:
320,192,93694,1,0,0:0:0:0:
192,192,93782,1,0,0:0:0:0:
320,192,93782,1,0,0:0:0:0:
192,192,93958,1,0,0:0:0:0:
448,192,93958,1,0,0:0:0:0:
192,192,94047,1,0,0:0:0:0:
320,192,94047,1,0,0:0:0:0:
64,192,94223,1,0,0:0:0:0:
192,192,94223,1,0,0:0:0:0:
320,192,94400,1,0,0:0:0:0:
448,192,94400,1,0,0:0:0:0:
64,192,94576,1,0,0:0:0:0:
64,192,94664,1,0,0:0:0:0:
64,192,94753,1,0,0:0:0:0:
64,192,94841,1,0,0:0:0:0:
64,192,94929,1,0,0:0:0:0:
192,192,95106,1,0,0:0:0:0:
192,192,95194,1,0,0:0:0:0:
320,192,95370,1,0,0:0:0:0:
320,192,95458,1,0,0:0:0:0:
448,192,95635,1,0,0:0:0:0:
192,192,95635,1,0,0:0:0:0:
64,192,95635,1,0,0:0:0:0:
448,192,95811,1,0,0:0:0:0:
192,192,95811,1,0,0:0:0:0:
64,192,95811,1,0,0:0:0:0:
64,192,97400,128,0,97488:0:0:0:0:
192,192,97488,128,0,97576:0:0:0:0:
320,192,97576,128,0,97664:0:0:0:0:
448,192,97664,128,0,97753:0:0:0:0:
320,192,97753,128,0,97841:0:0:0:0:
192,192,97841,128,0,97929:0:0:0:0:
320,192,97929,128,0,98017:0:0:0:0:
64,192,98017,128,0,98106:0:0:0:0:
448,192,98106,128,0,98194:0:0:0:0:
192,192,98194,128,0,98282:0:0:0:0:
320,192,98282,128,0,98370:0:0:0:0:
64,192,98370,128,0,98458:0:0:0:0:
192,192,98458,128,0,98547:0:0:0:0:
448,192,98547,128,0,98635:0:0:0:0:
320,192,98635,128,0,98723:0:0:0:0:
192,192,98723,128,0,98811:0:0:0:0:
64,192,98811,1,0,0:0:0:0:
320,192,98811,1,0,0:0:0:0:
448,192,98811,1,0,0:0:0:0:
