osu file format v12

[General]
AudioFilename: mp3.mp3
AudioLeadIn: 2000
PreviewTime: 110421
Countdown: 0
SampleSet: Normal
StackLeniency: 0.7
Mode: 1
LetterboxInBreaks: 0
WidescreenStoryboard: 1

[Editor]
Bookmarks: 176,25206,25574,54654,110421,142998,179807,265574
DistanceSpacing: 1
BeatDivisor: 2
GridSize: 4

[Metadata]
Title:Shinkou -1st Desire-
TitleUnicode:信仰 -1st Desire-
Artist:Tatsh
ArtistUnicode:Tatsh
Creator:jonchua
Version:Zeroth Desire
Source:Touhou
Tags:far east of east vi toyosatomimi no miko shimizu tatsuya yu oda shoutoku legend true administrator ojami neonat psychicrose
BeatmapID:237011
BeatmapSetID:83482

[Difficulty]
HPDrainRate:4
CircleSize:4
OverallDifficulty:4
ApproachRate:10
SliderMultiplier:1.6
SliderTickRate:1

[Events]
//Background and Video events
0,0,"bg.jpg",0,0
//Break Periods
//Storyboard Layer 0 (Background)
//Storyboard Layer 1 (Fail)
//Storyboard Layer 2 (Pass)
//Storyboard Layer 3 (Foreground)
//Storyboard Sound Samples
//Background Colour Transformations
3,100,163,162,255

[TimingPoints]
176,368.098159509202,4,1,0,71,1,0
176,-200,4,1,0,71,0,0
25206,-100,4,1,0,71,0,0
110605,-100,4,1,0,100,0,1
142998,-100,4,1,0,100,0,0
179807,-100,4,1,0,100,0,1
212200,-100,4,1,0,100,0,0
244961,-100,4,1,0,100,0,1
245053,-100,4,1,0,100,0,0
256372,-100,4,1,0,10,0,0

[HitObjects]
256,192,176,1,0,0:0:0:0:
256,192,912,1,0,0:0:0:0:
256,192,1648,1,0,0:0:0:0:
256,192,2384,1,0,0:0:0:0:
256,192,3120,1,0,0:0:0:0:
256,192,3856,1,0,0:0:0:0:
256,192,4593,1,0,0:0:0:0:
256,192,5329,1,0,0:0:0:0:
256,192,5697,1,8,0:0:0:0:
256,192,6065,1,0,0:0:0:0:
256,192,6801,1,0,0:0:0:0:
256,192,7169,1,0,0:0:0:0:
256,192,7537,1,0,0:0:0:0:
256,192,7906,1,0,0:0:0:0:
256,192,8274,1,0,0:0:0:0:
256,192,8642,1,8,0:0:0:0:
256,192,9010,1,0,0:0:0:0:
256,192,9746,1,0,0:0:0:0:
256,192,10482,1,0,0:0:0:0:
256,192,11218,1,0,0:0:0:0:
256,192,11587,1,8,0:0:0:0:
256,192,11955,1,0,0:0:0:0:
256,192,12691,1,0,0:0:0:0:
256,192,13427,1,0,0:0:0:0:
256,192,13795,1,8,0:0:0:0:
256,192,14163,1,0,0:0:0:0:
256,192,14899,1,0,0:0:0:0:
256,192,15635,1,0,0:0:0:0:
256,192,16004,1,8,0:0:0:0:
256,192,16372,1,0,0:0:0:0:
256,192,17108,1,0,0:0:0:0:
256,192,17476,1,0,0:0:0:0:
256,192,17844,1,0,0:0:0:0:
256,192,18580,1,0,0:0:0:0:
256,192,19316,1,0,0:0:0:0:
256,192,19685,1,0,0:0:0:0:
256,192,20053,1,0,0:0:0:0:
256,192,20421,1,8,0:0:0:0:
256,192,20789,1,0,0:0:0:0:
256,192,21157,1,8,0:0:0:0:
256,192,21525,1,0,0:0:0:0:
256,192,21893,1,0,0:0:0:0:
256,192,22261,1,0,0:0:0:0:
256,192,22997,1,0,0:0:0:0:
256,192,23366,1,0,0:0:0:0:
256,192,23734,1,4,0:0:0:0:
256,192,25206,1,0,0:0:0:0:
256,192,25390,1,0,0:0:0:0:
256,192,25574,1,0,0:0:0:0:
256,192,25758,1,8,0:0:0:0:
256,192,26126,1,0,0:0:0:0:
256,192,26310,1,8,0:0:0:0:
256,192,26678,1,0,0:0:0:0:
256,192,26862,1,0,0:0:0:0:
256,192,27046,1,0,0:0:0:0:
256,192,27230,1,8,0:0:0:0:
256,192,27598,1,0,0:0:0:0:
256,192,27782,1,8,0:0:0:0:
256,192,28150,1,0,0:0:0:0:
256,192,28334,1,0,0:0:0:0:
256,192,28518,1,8,0:0:0:0:
256,192,28702,1,8,0:0:0:0:
256,192,28886,1,0,0:0:0:0:
256,192,29163,1,0,0:0:0:0:
256,192,29439,1,0,0:0:0:0:
256,192,29623,1,0,0:0:0:0:
256,192,30359,1,8,0:0:0:0:
256,192,30727,1,8,0:0:0:0:
256,192,31095,1,0,0:0:0:0:
256,192,31279,1,0,0:0:0:0:
256,192,31463,1,0,0:0:0:0:
256,192,31647,1,8,0:0:0:0:
256,192,32015,1,0,0:0:0:0:
256,192,32199,1,8,0:0:0:0:
256,192,32567,1,0,0:0:0:0:
256,192,32751,1,0,0:0:0:0:
256,192,32935,1,0,0:0:0:0:
256,192,33119,1,8,0:0:0:0:
256,192,33487,1,0,0:0:0:0:
256,192,33671,1,8,0:0:0:0:
256,192,34041,1,0,0:0:0:0:
256,192,34225,1,0,0:0:0:0:
256,192,34409,1,8,0:0:0:0:
256,192,34593,1,8,0:0:0:0:
256,192,34777,1,0,0:0:0:0:
256,192,35052,1,0,0:0:0:0:
256,192,35328,1,0,0:0:0:0:
256,192,35512,1,0,0:0:0:0:
256,192,36248,1,8,0:0:0:0:
256,192,36616,1,8,0:0:0:0:
256,192,36985,1,4,0:0:0:0:
256,192,38457,1,12,0:0:0:0:
256,192,39929,1,8,0:0:0:0:
256,192,40482,1,8,0:0:0:0:
256,192,40850,1,0,0:0:0:0:
256,192,41034,1,8,0:0:0:0:
256,192,41218,1,0,0:0:0:0:
256,192,41587,1,8,0:0:0:0:
256,192,41954,1,0,0:0:0:0:
256,192,42138,1,8,0:0:0:0:
256,192,42506,1,8,0:0:0:0:
256,192,42874,1,0,0:0:0:0:
256,192,43365,1,8,0:0:0:0:
256,192,43610,1,0,0:0:0:0:
256,192,44101,1,8,0:0:0:0:
256,192,44347,1,0,0:0:0:0:
256,192,44592,1,0,0:0:0:0:
256,192,44837,1,8,0:0:0:0:
256,192,45083,1,0,0:0:0:0:
256,192,45574,1,8,0:0:0:0:
256,192,45819,1,0,0:0:0:0:
256,192,46310,1,8,0:0:0:0:
256,192,46555,1,0,0:0:0:0:
256,192,46801,1,8,0:0:0:0:
256,192,47046,1,8,0:0:0:0:
256,192,47291,1,8,0:0:0:0:
256,192,47782,1,0,0:0:0:0:
256,192,48028,1,8,0:0:0:0:
256,192,48764,1,0,0:0:0:0:
256,192,49255,1,8,0:0:0:0:
256,192,49500,1,0,0:0:0:0:
256,192,49991,1,8,0:0:0:0:
256,192,50237,1,0,0:0:0:0:
256,192,50482,1,0,0:0:0:0:
256,192,50727,1,8,0:0:0:0:
256,192,50973,1,0,0:0:0:0:
256,192,51464,1,8,0:0:0:0:
256,192,51709,1,0,0:0:0:0:
256,192,52200,1,8,0:0:0:0:
256,192,52445,1,0,0:0:0:0:
256,192,52691,1,8,0:0:0:0:
256,192,52936,1,8,0:0:0:0:
256,192,53181,1,8,0:0:0:0:
256,192,53672,1,0,0:0:0:0:
256,192,53918,1,8,0:0:0:0:
256,192,54653,1,8,0:0:0:0:
256,192,55205,1,8,0:0:0:0:
256,192,55758,1,8,0:0:0:0:
256,192,56126,1,8,0:0:0:0:
256,192,56494,1,0,0:0:0:0:
256,192,56678,1,8,0:0:0:0:
256,192,57046,1,0,0:0:0:0:
256,192,57230,1,8,0:0:0:0:
256,192,57598,1,12,0:0:0:0:
256,192,58150,1,8,0:0:0:0:
256,192,58703,1,8,0:0:0:0:
256,192,59071,1,8,0:0:0:0:
256,192,59439,1,0,0:0:0:0:
256,192,59623,1,8,0:0:0:0:
256,192,59991,1,0,0:0:0:0:
256,192,60175,1,8,0:0:0:0:
256,192,60543,1,8,0:0:0:0:
256,192,61095,1,8,0:0:0:0:
256,192,61463,1,0,0:0:0:0:
256,192,61647,1,8,0:0:0:0:
256,192,61831,1,0,0:0:0:0:
256,192,62015,1,8,0:0:0:0:
256,192,62567,1,8,0:0:0:0:
256,192,63120,1,8,0:0:0:0:
256,192,63488,1,0,0:0:0:0:
256,192,64040,1,8,0:0:0:0:
256,192,64592,1,8,0:0:0:0:
256,192,64960,1,8,0:0:0:0:
256,192,65328,1,0,0:0:0:0:
256,192,65512,1,8,0:0:0:0:
256,192,65880,1,0,0:0:0:0:
256,192,66064,1,8,0:0:0:0:
256,192,66248,1,0,0:0:0:0:
256,192,66617,1,0,0:0:0:0:
256,192,66801,1,8,0:0:0:0:
256,192,66985,1,0,0:0:0:0:
256,192,67353,1,0,0:0:0:0:
256,192,67537,1,8,0:0:0:0:
256,192,67721,1,0,0:0:0:0:
256,192,67905,1,0,0:0:0:0:
256,192,68457,1,0,0:0:0:0:
256,192,69009,1,0,0:0:0:0:
256,192,69377,1,0,0:0:0:0:
256,192,69745,1,0,0:0:0:0:
256,192,69929,1,8,0:0:0:0:
256,192,70298,1,0,0:0:0:0:
256,192,70482,1,8,0:0:0:0:
256,192,70666,1,0,0:0:0:0:
256,192,70850,1,0,0:0:0:0:
256,192,71218,1,0,0:0:0:0:
256,192,71586,1,0,0:0:0:0:
256,192,71954,1,0,0:0:0:0:
256,192,72322,1,0,0:0:0:0:
256,192,72506,1,0,0:0:0:0:
256,192,72874,1,0,0:0:0:0:
256,192,73058,1,8,0:0:0:0:
256,192,73426,1,8,0:0:0:0:
256,192,73610,1,0,0:0:0:0:
256,192,73794,1,0,0:0:0:0:
256,192,74163,1,0,0:0:0:0:
256,192,74347,1,0,0:0:0:0:
256,192,74531,1,0,0:0:0:0:
256,192,74899,1,0,0:0:0:0:
256,192,75083,1,8,0:0:0:0:
256,192,75267,1,0,0:0:0:0:
256,192,75451,1,0,0:0:0:0:
256,192,75819,1,0,0:0:0:0:
256,192,76003,1,0,0:0:0:0:
256,192,76187,1,8,0:0:0:0:
256,192,76371,1,0,0:0:0:0:
256,192,76555,1,8,0:0:0:0:
256,192,76739,1,0,0:0:0:0:
256,192,77107,1,0,0:0:0:0:
256,192,77475,1,0,0:0:0:0:
256,192,77844,1,0,0:0:0:0:
256,192,78212,1,4,0:0:0:0:
256,192,78948,1,12,0:0:0:0:
256,192,79684,1,4,0:0:0:0:
256,192,81156,1,12,0:0:0:0:
256,192,82628,1,8,0:0:0:0:
256,192,83181,1,8,0:0:0:0:
256,192,83550,1,0,0:0:0:0:
256,192,83733,1,8,0:0:0:0:
256,192,83918,1,0,0:0:0:0:
256,192,84285,1,8,0:0:0:0:
256,192,84653,1,0,0:0:0:0:
256,192,84837,1,8,0:0:0:0:
256,192,85205,1,8,0:0:0:0:
256,192,85573,1,0,0:0:0:0:
256,192,86064,1,8,0:0:0:0:
256,192,86309,1,0,0:0:0:0:
256,192,86800,1,8,0:0:0:0:
256,192,87046,1,0,0:0:0:0:
256,192,87291,1,0,0:0:0:0:
256,192,87536,1,8,0:0:0:0:
256,192,87782,1,0,0:0:0:0:
256,192,88273,1,8,0:0:0:0:
256,192,88518,1,0,0:0:0:0:
256,192,89009,1,8,0:0:0:0:
256,192,89254,1,0,0:0:0:0:
256,192,89500,1,8,0:0:0:0:
256,192,89745,1,8,0:0:0:0:
256,192,89990,1,8,0:0:0:0:
256,192,90481,1,0,0:0:0:0:
256,192,90727,1,8,0:0:0:0:
256,192,91463,1,0,0:0:0:0:
256,192,91954,1,8,0:0:0:0:
256,192,92199,1,0,0:0:0:0:
256,192,92690,1,8,0:0:0:0:
256,192,92936,1,0,0:0:0:0:
256,192,93181,1,0,0:0:0:0:
256,192,93426,1,8,0:0:0:0:
256,192,93672,1,0,0:0:0:0:
256,192,94163,1,8,0:0:0:0:
256,192,94408,1,0,0:0:0:0:
256,192,94899,1,8,0:0:0:0:
256,192,95144,1,0,0:0:0:0:
256,192,95390,1,8,0:0:0:0:
256,192,95635,1,8,0:0:0:0:
256,192,95880,1,8,0:0:0:0:
256,192,96371,1,0,0:0:0:0:
256,192,96617,1,8,0:0:0:0:
256,192,97352,1,8,0:0:0:0:
256,192,97906,1,8,0:0:0:0:
256,192,98457,1,8,0:0:0:0:
256,192,98825,1,8,0:0:0:0:
256,192,99193,1,0,0:0:0:0:
256,192,99377,1,8,0:0:0:0:
256,192,99745,1,0,0:0:0:0:
256,192,99929,1,8,0:0:0:0:
256,192,100297,1,12,0:0:0:0:
256,192,100849,1,8,0:0:0:0:
256,192,101402,1,8,0:0:0:0:
256,192,101770,1,8,0:0:0:0:
256,192,102138,1,0,0:0:0:0:
256,192,102322,1,8,0:0:0:0:
256,192,102690,1,0,0:0:0:0:
256,192,102874,1,8,0:0:0:0:
256,192,103242,1,8,0:0:0:0:
256,192,103794,1,8,0:0:0:0:
256,192,104162,1,0,0:0:0:0:
256,192,104346,1,8,0:0:0:0:
256,192,104530,1,0,0:0:0:0:
256,192,104714,1,8,0:0:0:0:
256,192,105268,1,8,0:0:0:0:
256,192,105819,1,8,0:0:0:0:
256,192,106187,1,0,0:0:0:0:
256,192,106739,1,8,0:0:0:0:
256,192,107291,1,8,0:0:0:0:
256,192,107659,1,8,0:0:0:0:
256,192,108027,1,0,0:0:0:0:
256,192,108211,1,8,0:0:0:0:
256,192,108579,1,0,0:0:0:0:
256,192,108763,1,8,0:0:0:0:
256,192,108948,1,0,0:0:0:0:
256,192,109132,1,4,0:0:0:0:
256,192,110604,1,8,0:0:0:0:
256,192,111156,1,8,0:0:0:0:
256,192,111709,1,0,0:0:0:0:
256,192,112077,1,0,0:0:0:0:
256,192,112445,1,0,0:0:0:0:
256,192,112629,1,8,0:0:0:0:
256,192,112997,1,0,0:0:0:0:
256,192,113181,1,8,0:0:0:0:
256,192,113365,1,0,0:0:0:0:
256,192,113549,1,0,0:0:0:0:
256,192,113917,1,0,0:0:0:0:
256,192,114101,1,0,0:0:0:0:
256,192,114469,1,0,0:0:0:0:
256,192,114653,1,8,0:0:0:0:
256,192,114837,1,0,0:0:0:0:
256,192,115021,1,12,0:0:0:0:
256,192,115758,1,8,0:0:0:0:
256,192,116494,1,8,0:0:0:0:
256,192,117046,1,8,0:0:0:0:
256,192,117599,1,0,0:0:0:0:
256,192,117967,1,0,0:0:0:0:
256,192,118335,1,0,0:0:0:0:
256,192,118519,1,8,0:0:0:0:
256,192,118887,1,0,0:0:0:0:
256,192,119071,1,8,0:0:0:0:
256,192,119255,1,0,0:0:0:0:
256,192,119439,1,0,0:0:0:0:
256,192,119807,1,0,0:0:0:0:
256,192,119991,1,0,0:0:0:0:
256,192,120359,1,0,0:0:0:0:
256,192,120543,1,8,0:0:0:0:
256,192,120727,1,0,0:0:0:0:
256,192,120911,1,4,0:0:0:0:
256,192,121648,1,8,0:0:0:0:
256,192,122016,1,8,0:0:0:0:
256,192,122383,1,8,0:0:0:0:
256,192,122935,1,8,0:0:0:0:
256,192,123488,1,0,0:0:0:0:
256,192,123856,1,8,0:0:0:0:
256,192,124224,1,0,0:0:0:0:
256,192,124408,1,0,0:0:0:0:
256,192,124776,1,0,0:0:0:0:
256,192,124960,1,0,0:0:0:0:
256,192,125144,1,8,0:0:0:0:
256,192,125328,1,8,0:0:0:0:
256,192,125696,1,0,0:0:0:0:
256,192,125880,1,0,0:0:0:0:
256,192,126248,1,0,0:0:0:0:
256,192,126432,1,0,0:0:0:0:
256,192,126616,1,8,0:0:0:0:
256,192,126800,1,12,0:0:0:0:
256,192,127537,1,8,0:0:0:0:
256,192,127905,1,8,0:0:0:0:
256,192,128273,1,8,0:0:0:0:
256,192,128825,1,8,0:0:0:0:
256,192,129378,1,0,0:0:0:0:
256,192,129746,1,8,0:0:0:0:
256,192,130114,1,0,0:0:0:0:
256,192,130298,1,0,0:0:0:0:
256,192,130666,1,0,0:0:0:0:
256,192,130850,1,0,0:0:0:0:
256,192,131034,1,8,0:0:0:0:
256,192,131218,1,8,0:0:0:0:
256,192,131586,1,0,0:0:0:0:
256,192,131770,1,0,0:0:0:0:
256,192,132138,1,0,0:0:0:0:
256,192,132322,1,0,0:0:0:0:
256,192,132506,1,8,0:0:0:0:
256,192,132690,1,12,0:0:0:0:
256,192,133427,1,8,0:0:0:0:
256,192,133795,1,8,0:0:0:0:
256,192,134163,1,0,0:0:0:0:
256,192,134715,1,0,0:0:0:0:
256,192,134899,1,8,0:0:0:0:
256,192,135635,1,8,0:0:0:0:
256,192,136187,1,0,0:0:0:0:
256,192,136371,1,8,0:0:0:0:
256,192,136739,1,0,0:0:0:0:
256,192,137107,1,4,0:0:0:0:
256,192,137659,1,4,0:0:0:0:
256,192,138212,1,4,0:0:0:0:
256,192,138580,2,4,L|512:-44,3,320
256,192,141156,1,0,0:0:0:0:
256,192,141525,1,0,0:0:0:0:
256,192,141893,1,0,0:0:0:0:
256,192,142261,1,0,0:0:0:0:
256,192,142629,1,0,0:0:0:0:
256,192,142997,1,0,0:0:0:0:
256,192,143365,1,0,0:0:0:0:
256,192,143549,1,8,0:0:0:0:
256,192,143733,1,0,0:0:0:0:
256,192,144101,1,0,0:0:0:0:
256,192,144469,1,8,0:0:0:0:
256,192,144837,1,8,0:0:0:0:
256,192,145021,1,8,0:0:0:0:
256,192,145205,1,0,0:0:0:0:
256,192,145574,1,8,0:0:0:0:
256,192,145942,1,0,0:0:0:0:
256,192,146126,1,8,0:0:0:0:
256,192,146310,1,0,0:0:0:0:
256,192,146494,1,8,0:0:0:0:
256,192,146862,1,0,0:0:0:0:
256,192,147046,1,8,0:0:0:0:
256,192,147414,1,8,0:0:0:0:
256,192,147598,1,8,0:0:0:0:
256,192,147782,1,0,0:0:0:0:
256,192,147966,1,8,0:0:0:0:
256,192,148334,1,0,0:0:0:0:
256,192,148518,1,8,0:0:0:0:
256,192,148702,1,0,0:0:0:0:
256,192,148886,1,0,0:0:0:0:
256,192,149254,1,0,0:0:0:0:
256,192,149438,1,8,0:0:0:0:
256,192,149622,1,0,0:0:0:0:
256,192,149990,1,0,0:0:0:0:
256,192,150360,1,8,0:0:0:0:
256,192,150728,1,8,0:0:0:0:
256,192,150912,1,8,0:0:0:0:
256,192,151096,1,0,0:0:0:0:
256,192,151463,1,8,0:0:0:0:
256,192,151831,1,0,0:0:0:0:
256,192,152015,1,8,0:0:0:0:
256,192,152199,1,0,0:0:0:0:
256,192,152383,1,8,0:0:0:0:
256,192,152751,1,0,0:0:0:0:
256,192,152935,1,8,0:0:0:0:
256,192,153303,1,8,0:0:0:0:
256,192,153487,1,8,0:0:0:0:
256,192,153671,1,0,0:0:0:0:
256,192,153855,1,8,0:0:0:0:
256,192,154225,1,0,0:0:0:0:
256,192,154409,1,8,0:0:0:0:
256,192,154593,1,0,0:0:0:0:
256,192,154776,1,8,0:0:0:0:
256,192,155145,1,0,0:0:0:0:
256,192,155329,1,8,0:0:0:0:
256,192,155697,1,0,0:0:0:0:
256,192,155880,1,8,0:0:0:0:
256,192,156248,1,8,0:0:0:0:
256,192,156801,1,8,0:0:0:0:
256,192,157353,1,8,0:0:0:0:
256,192,157537,1,8,0:0:0:0:
256,192,157721,2,8,L|528:-4,1,320
256,192,158825,1,8,0:0:0:0:
256,192,159193,1,8,0:0:0:0:
256,192,159561,1,0,0:0:0:0:
256,192,159745,1,8,0:0:0:0:
256,192,160113,1,0,0:0:0:0:
256,192,160298,1,8,0:0:0:0:
256,192,160482,1,0,0:0:0:0:
256,192,160666,12,0,166187,0:0:0:0:
256,192,166555,5,8,0:0:0:0:
256,192,167107,1,8,0:0:0:0:
256,192,167659,1,8,0:0:0:0:
256,192,168028,1,0,0:0:0:0:
256,192,168396,1,0,0:0:0:0:
256,192,168764,1,8,0:0:0:0:
256,192,169132,1,8,0:0:0:0:
256,192,169500,12,0,177966,0:0:0:0:
256,192,179807,1,8,0:0:0:0:
256,192,180359,1,8,0:0:0:0:
256,192,180912,1,0,0:0:0:0:
256,192,181280,1,0,0:0:0:0:
256,192,181648,1,0,0:0:0:0:
256,192,181832,1,8,0:0:0:0:
256,192,182200,1,0,0:0:0:0:
256,192,182384,1,8,0:0:0:0:
256,192,182568,1,0,0:0:0:0:
256,192,182752,1,0,0:0:0:0:
256,192,183120,1,0,0:0:0:0:
256,192,183304,1,0,0:0:0:0:
256,192,183672,1,0,0:0:0:0:
256,192,183856,1,8,0:0:0:0:
256,192,184040,1,0,0:0:0:0:
256,192,184224,1,12,0:0:0:0:
256,192,184961,1,8,0:0:0:0:
256,192,185697,1,8,0:0:0:0:
256,192,186249,1,8,0:0:0:0:
256,192,186802,1,0,0:0:0:0:
256,192,187170,1,0,0:0:0:0:
256,192,187538,1,0,0:0:0:0:
256,192,187722,1,8,0:0:0:0:
256,192,188090,1,0,0:0:0:0:
256,192,188274,1,8,0:0:0:0:
256,192,188458,1,0,0:0:0:0:
256,192,188642,1,0,0:0:0:0:
256,192,189010,1,0,0:0:0:0:
256,192,189194,1,0,0:0:0:0:
256,192,189562,1,0,0:0:0:0:
256,192,189746,1,8,0:0:0:0:
256,192,189930,1,0,0:0:0:0:
256,192,190114,1,4,0:0:0:0:
256,192,190851,1,8,0:0:0:0:
256,192,191218,1,8,0:0:0:0:
256,192,191586,1,8,0:0:0:0:
256,192,192138,1,8,0:0:0:0:
256,192,192691,1,0,0:0:0:0:
256,192,193059,1,8,0:0:0:0:
256,192,193427,1,0,0:0:0:0:
256,192,193611,1,0,0:0:0:0:
256,192,193979,1,0,0:0:0:0:
256,192,194163,1,0,0:0:0:0:
256,192,194347,1,8,0:0:0:0:
256,192,194531,1,8,0:0:0:0:
256,192,194899,1,0,0:0:0:0:
256,192,195083,1,0,0:0:0:0:
256,192,195451,1,0,0:0:0:0:
256,192,195635,1,0,0:0:0:0:
256,192,195819,1,8,0:0:0:0:
256,192,196003,1,12,0:0:0:0:
256,192,196740,1,8,0:0:0:0:
256,192,197108,1,8,0:0:0:0:
256,192,197476,1,8,0:0:0:0:
256,192,198028,1,8,0:0:0:0:
256,192,198581,1,0,0:0:0:0:
256,192,198949,1,8,0:0:0:0:
256,192,199317,1,0,0:0:0:0:
256,192,199501,1,0,0:0:0:0:
256,192,199869,1,0,0:0:0:0:
256,192,200053,1,0,0:0:0:0:
256,192,200237,1,8,0:0:0:0:
256,192,200421,1,8,0:0:0:0:
256,192,200789,1,0,0:0:0:0:
256,192,200973,1,0,0:0:0:0:
256,192,201341,1,0,0:0:0:0:
256,192,201525,1,0,0:0:0:0:
256,192,201709,1,8,0:0:0:0:
256,192,201893,1,12,0:0:0:0:
256,192,202630,1,8,0:0:0:0:
256,192,202998,1,8,0:0:0:0:
256,192,203366,1,0,0:0:0:0:
256,192,203918,1,0,0:0:0:0:
256,192,204102,1,8,0:0:0:0:
256,192,204838,1,8,0:0:0:0:
256,192,205390,1,0,0:0:0:0:
256,192,205574,1,8,0:0:0:0:
256,192,205942,1,0,0:0:0:0:
256,192,206310,1,4,0:0:0:0:
256,192,206862,1,4,0:0:0:0:
256,192,207415,1,4,0:0:0:0:
256,192,207783,2,4,L|512:-44,3,320
256,192,210359,1,0,0:0:0:0:
256,192,210728,1,0,0:0:0:0:
256,192,211096,1,0,0:0:0:0:
256,192,211464,1,0,0:0:0:0:
256,192,211832,1,0,0:0:0:0:
256,192,212199,1,8,0:0:0:0:
256,192,212567,1,8,0:0:0:0:
256,192,212936,1,8,0:0:0:0:
256,192,213120,1,8,0:0:0:0:
256,192,213304,1,8,0:0:0:0:
256,192,213672,1,0,0:0:0:0:
256,192,214040,1,8,0:0:0:0:
256,192,214408,1,8,0:0:0:0:
256,192,214592,1,8,0:0:0:0:
256,192,214776,1,8,0:0:0:0:
256,192,215144,1,8,0:0:0:0:
256,192,215512,1,8,0:0:0:0:
256,192,215881,1,8,0:0:0:0:
256,192,216065,1,8,0:0:0:0:
256,192,216249,1,8,0:0:0:0:
256,192,216617,1,0,0:0:0:0:
256,192,216985,1,8,0:0:0:0:
256,192,217353,1,8,0:0:0:0:
256,192,217537,1,8,0:0:0:0:
256,192,217721,1,8,0:0:0:0:
256,192,218089,1,0,0:0:0:0:
256,192,218641,1,0,0:0:0:0:
256,192,219193,1,0,0:0:0:0:
256,192,219377,1,8,0:0:0:0:
256,192,219561,12,8,223242,0:0:0:0:
256,192,223610,5,0,0:0:0:0:
256,192,223794,1,0,0:0:0:0:
256,192,223979,1,8,0:0:0:0:
256,192,224531,1,8,0:0:0:0:
256,192,225083,1,8,0:0:0:0:
256,192,225451,1,8,0:0:0:0:
256,192,226003,1,0,0:0:0:0:
256,192,226555,1,8,0:0:0:0:
256,192,226739,1,8,0:0:0:0:
256,192,226923,1,0,0:0:0:0:
256,192,227475,1,8,0:0:0:0:
256,192,228028,1,8,0:0:0:0:
256,192,228396,1,0,0:0:0:0:
256,192,228580,1,0,0:0:0:0:
256,192,228764,1,8,0:0:0:0:
256,192,228948,1,0,0:0:0:0:
256,192,229132,1,8,0:0:0:0:
256,192,229316,1,0,0:0:0:0:
256,192,229500,1,8,0:0:0:0:
256,192,229684,1,0,0:0:0:0:
256,192,229868,1,4,0:0:0:0:
256,192,231340,1,8,0:0:0:0:
256,192,231525,1,8,0:0:0:0:
256,192,231709,1,8,0:0:0:0:
256,192,231893,1,8,0:0:0:0:
256,192,232077,1,8,0:0:0:0:
256,192,232261,1,8,0:0:0:0:
256,192,232445,1,0,0:0:0:0:
256,192,232629,1,8,0:0:0:0:
256,192,232813,2,8,L|536:4,1,320
256,192,233917,1,8,0:0:0:0:
256,192,234285,1,0,0:0:0:0:
256,192,234469,1,0,0:0:0:0:
256,192,234653,1,8,0:0:0:0:
256,192,234837,1,0,0:0:0:0:
256,192,235021,1,0,0:0:0:0:
256,192,235205,1,0,0:0:0:0:
256,192,235390,1,8,0:0:0:0:
256,192,235574,1,8,0:0:0:0:
256,192,235758,1,0,0:0:0:0:
256,192,236126,1,8,0:0:0:0:
256,192,236310,1,0,0:0:0:0:
256,192,236862,1,0,0:0:0:0:
256,192,237230,1,0,0:0:0:0:
256,192,237782,1,0,0:0:0:0:
256,192,238334,1,0,0:0:0:0:
256,192,238702,1,8,0:0:0:0:
256,192,239071,1,8,0:0:0:0:
256,192,239439,1,8,0:0:0:0:
256,192,239807,1,8,0:0:0:0:
256,192,240175,1,8,0:0:0:0:
256,192,240359,1,8,0:0:0:0:
256,192,240543,1,8,0:0:0:0:
256,192,240911,1,8,0:0:0:0:
256,192,241095,1,8,0:0:0:0:
256,192,241463,1,8,0:0:0:0:
256,192,241647,1,8,0:0:0:0:
256,192,241831,1,8,0:0:0:0:
256,192,242015,1,8,0:0:0:0:
256,192,242383,1,8,0:0:0:0:
256,192,242567,1,8,0:0:0:0:
256,192,242935,1,8,0:0:0:0:
256,192,243120,1,8,0:0:0:0:
256,192,243304,1,8,0:0:0:0:
256,192,243488,1,8,0:0:0:0:
256,192,243856,1,8,0:0:0:0:
256,192,244040,1,8,0:0:0:0:
256,192,244408,1,8,0:0:0:0:
256,192,244592,1,8,0:0:0:0:
256,192,244960,1,4,0:0:0:0:
