osu file format v12

[General]
AudioFilename: mp3.mp3
AudioLeadIn: 2000
PreviewTime: 110421
Countdown: 0
SampleSet: Normal
StackLeniency: 0.7
Mode: 1
LetterboxInBreaks: 0
WidescreenStoryboard: 1

[Editor]
Bookmarks: 176,25206,25574,54654,110421,142998,179807,265574
DistanceSpacing: 1
BeatDivisor: 4
GridSize: 4

[Metadata]
Title:Shinkou -1st Desire-
TitleUnicode:信仰 -1st Desire-
Artist:Tatsh
ArtistUnicode:Tatsh
Creator:jonchua
Version:Taiko Rose
Source:Touhou
Tags:far east of east vi toyosatomimi no miko shimizu tatsuya yu oda shoutoku legend true administrator ojami neonat psychicrose
BeatmapID:236842
BeatmapSetID:83482

[Difficulty]
HPDrainRate:7
CircleSize:4
OverallDifficulty:8
ApproachRate:9
SliderMultiplier:1.6
SliderTickRate:1

[Events]
//Background and Video events
0,0,"bg.jpg",0,0
//Break Periods
//Storyboard Layer 0 (Background)
//Storyboard Layer 1 (Fail)
//Storyboard Layer 2 (Pass)
//Storyboard Layer 3 (Foreground)
//Storyboard Sound Samples
//Background Colour Transformations
3,100,163,162,255

[TimingPoints]
176,368.098159509202,4,1,0,71,1,0
176,-200,4,1,0,71,0,0
25206,-100,4,1,0,71,0,0
110605,-100,4,1,0,100,0,1
142998,-100,4,1,0,100,0,0
179807,-100,4,1,0,100,0,1
212200,-100,4,1,0,100,0,0
244961,-100,4,1,0,100,0,1
245053,-100,4,1,0,100,0,0
256372,-100,4,1,0,10,0,0

[Colours]
Combo1 : 255,0,0
Combo2 : 0,200,0
Combo3 : 170,170,255
Combo4 : 200,0,200
Combo5 : 255,255,0

[HitObjects]
256,192,176,1,4,0:0:0:0:
256,192,728,1,0,0:0:0:0:
256,192,1280,1,8,0:0:0:0:
256,192,1648,1,4,0:0:0:0:
256,192,2016,1,0,0:0:0:0:
256,192,2200,1,0,0:0:0:0:
256,192,2568,1,0,0:0:0:0:
256,192,2752,1,8,0:0:0:0:
256,192,3120,1,4,0:0:0:0:
256,192,3488,1,0,0:0:0:0:
256,192,3672,1,0,0:0:0:0:
256,192,4041,1,0,0:0:0:0:
256,192,4225,1,8,0:0:0:0:
256,192,4409,1,0,0:0:0:0:
256,192,4593,1,0,0:0:0:0:
256,192,4777,1,0,0:0:0:0:
256,192,4961,1,8,0:0:0:0:
256,192,5145,1,0,0:0:0:0:
256,192,5513,1,0,0:0:0:0:
256,192,5697,1,8,0:0:0:0:
256,192,5881,1,0,0:0:0:0:
256,192,6065,1,0,0:0:0:0:
256,192,6249,1,0,0:0:0:0:
256,192,6341,1,8,0:0:0:0:
256,192,6433,1,8,0:0:0:0:
256,192,6617,1,0,0:0:0:0:
256,192,6801,1,0,0:0:0:0:
256,192,6985,1,0,0:0:0:0:
256,192,7169,1,8,0:0:0:0:
256,192,7353,1,0,0:0:0:0:
256,192,7537,1,4,0:0:0:0:
256,192,7906,1,8,0:0:0:0:
256,192,8090,1,0,0:0:0:0:
256,192,8458,1,8,0:0:0:0:
256,192,8642,1,8,0:0:0:0:
256,192,8826,1,0,0:0:0:0:
256,192,9010,1,8,0:0:0:0:
256,192,9194,1,8,0:0:0:0:
256,192,9378,1,0,0:0:0:0:
256,192,9562,1,8,0:0:0:0:
256,192,9930,1,8,0:0:0:0:
256,192,10114,1,8,0:0:0:0:
256,192,10298,1,0,0:0:0:0:
256,192,10482,1,0,0:0:0:0:
256,192,10666,1,0,0:0:0:0:
256,192,10850,1,8,0:0:0:0:
256,192,11034,1,0,0:0:0:0:
256,192,11218,1,8,0:0:0:0:
256,192,11402,1,8,0:0:0:0:
256,192,11587,1,0,0:0:0:0:
256,192,11771,1,8,0:0:0:0:
256,192,11955,1,4,0:0:0:0:
256,192,12507,1,0,0:0:0:0:
256,192,13059,1,8,0:0:0:0:
256,192,13427,1,4,0:0:0:0:
256,192,13795,1,0,0:0:0:0:
256,192,13979,1,0,0:0:0:0:
256,192,14347,1,0,0:0:0:0:
256,192,14531,1,8,0:0:0:0:
256,192,14899,1,4,0:0:0:0:
256,192,15267,1,0,0:0:0:0:
256,192,15451,1,0,0:0:0:0:
256,192,15820,1,0,0:0:0:0:
256,192,16004,1,8,0:0:0:0:
256,192,16188,1,0,0:0:0:0:
256,192,16372,1,0,0:0:0:0:
256,192,16556,1,0,0:0:0:0:
256,192,16740,1,8,0:0:0:0:
256,192,16924,1,0,0:0:0:0:
256,192,17292,1,0,0:0:0:0:
256,192,17476,1,8,0:0:0:0:
256,192,17660,1,0,0:0:0:0:
256,192,17844,1,0,0:0:0:0:
256,192,18028,1,0,0:0:0:0:
256,192,18212,1,8,0:0:0:0:
256,192,18396,1,0,0:0:0:0:
256,192,18580,1,0,0:0:0:0:
256,192,18764,1,0,0:0:0:0:
256,192,18948,1,8,0:0:0:0:
256,192,19132,1,0,0:0:0:0:
256,192,19316,1,4,0:0:0:0:
256,192,19685,1,8,0:0:0:0:
256,192,19869,1,0,0:0:0:0:
256,192,20237,1,8,0:0:0:0:
256,192,20329,1,8,0:0:0:0:
256,192,20421,1,8,0:0:0:0:
256,192,20605,1,0,0:0:0:0:
256,192,20789,1,8,0:0:0:0:
256,192,20881,1,8,0:0:0:0:
256,192,20973,1,8,0:0:0:0:
256,192,21157,1,0,0:0:0:0:
256,192,21341,1,8,0:0:0:0:
256,192,21525,1,4,0:0:0:0:
256,192,21709,1,8,0:0:0:0:
256,192,21801,1,8,0:0:0:0:
256,192,21893,1,8,0:0:0:0:
256,192,22077,1,0,0:0:0:0:
256,192,22261,1,0,0:0:0:0:
256,192,22445,1,0,0:0:0:0:
256,192,22629,1,8,0:0:0:0:
256,192,22722,1,8,0:0:0:0:
256,192,22813,1,0,0:0:0:0:
256,192,22997,1,8,0:0:0:0:
256,192,23090,1,8,0:0:0:0:
256,192,23181,1,8,0:0:0:0:
256,192,23366,1,0,0:0:0:0:
256,192,23550,1,8,0:0:0:0:
256,192,23642,1,8,0:0:0:0:
256,192,23734,1,4,0:0:0:0:
256,192,25206,1,0,0:0:0:0:
256,192,25298,1,0,0:0:0:0:
256,192,25390,1,0,0:0:0:0:
256,192,25574,1,8,0:0:0:0:
256,192,25666,1,0,0:0:0:0:
256,192,25758,1,0,0:0:0:0:
256,192,25942,1,0,0:0:0:0:
256,192,26034,1,0,0:0:0:0:
256,192,26126,1,0,0:0:0:0:
256,192,26310,1,8,0:0:0:0:
256,192,26402,1,8,0:0:0:0:
256,192,26495,1,0,0:0:0:0:
256,192,26679,1,0,0:0:0:0:
256,192,26771,1,0,0:0:0:0:
256,192,26863,1,0,0:0:0:0:
256,192,27047,1,8,0:0:0:0:
256,192,27231,1,0,0:0:0:0:
256,192,27415,1,8,0:0:0:0:
256,192,27507,1,8,0:0:0:0:
256,192,27599,1,8,0:0:0:0:
256,192,27783,1,0,0:0:0:0:
256,192,27875,1,8,0:0:0:0:
256,192,27967,1,0,0:0:0:0:
256,192,28151,1,0,0:0:0:0:
256,192,28243,1,0,0:0:0:0:
256,192,28335,1,0,0:0:0:0:
256,192,28519,1,8,0:0:0:0:
256,192,28703,1,8,0:0:0:0:
256,192,28887,1,0,0:0:0:0:
256,192,28979,1,8,0:0:0:0:
256,192,29071,1,8,0:0:0:0:
256,192,29163,1,8,0:0:0:0:
256,192,29255,1,0,0:0:0:0:
256,192,29347,1,8,0:0:0:0:
256,192,29439,1,0,0:0:0:0:
256,192,29531,1,0,0:0:0:0:
256,192,29623,1,0,0:0:0:0:
256,192,29807,1,0,0:0:0:0:
256,192,29991,1,8,0:0:0:0:
256,192,30083,1,8,0:0:0:0:
256,192,30175,1,0,0:0:0:0:
256,192,30360,1,0,0:0:0:0:
256,192,30452,1,0,0:0:0:0:
256,192,30544,1,8,0:0:0:0:
256,192,30636,1,0,0:0:0:0:
256,192,30728,1,0,0:0:0:0:
256,192,30912,1,8,0:0:0:0:
256,192,31096,1,0,0:0:0:0:
256,192,31188,1,0,0:0:0:0:
256,192,31280,1,0,0:0:0:0:
256,192,31464,1,8,0:0:0:0:
256,192,31556,1,0,0:0:0:0:
256,192,31648,1,0,0:0:0:0:
256,192,31832,1,0,0:0:0:0:
256,192,31924,1,0,0:0:0:0:
256,192,32016,1,0,0:0:0:0:
256,192,32200,1,8,0:0:0:0:
256,192,32292,1,8,0:0:0:0:
256,192,32383,1,0,0:0:0:0:
256,192,32567,1,0,0:0:0:0:
256,192,32659,1,0,0:0:0:0:
256,192,32753,1,0,0:0:0:0:
256,192,32937,1,8,0:0:0:0:
256,192,33121,1,0,0:0:0:0:
256,192,33305,1,8,0:0:0:0:
256,192,33397,1,8,0:0:0:0:
256,192,33489,1,8,0:0:0:0:
256,192,33673,1,0,0:0:0:0:
256,192,33765,1,8,0:0:0:0:
256,192,33857,1,0,0:0:0:0:
256,192,34041,1,0,0:0:0:0:
256,192,34133,1,0,0:0:0:0:
256,192,34225,1,0,0:0:0:0:
256,192,34409,1,8,0:0:0:0:
256,192,34593,1,8,0:0:0:0:
256,192,34777,1,0,0:0:0:0:
256,192,34869,1,8,0:0:0:0:
256,192,34961,1,8,0:0:0:0:
256,192,35053,1,8,0:0:0:0:
256,192,35145,1,0,0:0:0:0:
256,192,35237,1,8,0:0:0:0:
256,192,35329,1,0,0:0:0:0:
256,192,35421,1,0,0:0:0:0:
256,192,35513,1,0,0:0:0:0:
256,192,35697,1,0,0:0:0:0:
256,192,35881,1,8,0:0:0:0:
256,192,35973,1,8,0:0:0:0:
256,192,36065,1,0,0:0:0:0:
256,192,36157,1,0,0:0:0:0:
256,192,36248,1,0,0:0:0:0:
256,192,36340,1,0,0:0:0:0:
256,192,36432,1,8,0:0:0:0:
256,192,36526,1,0,0:0:0:0:
256,192,36618,1,0,0:0:0:0:
256,192,36802,1,12,0:0:0:0:
256,192,36985,1,4,0:0:0:0:
256,192,37537,1,0,0:0:0:0:
256,192,37629,1,0,0:0:0:0:
256,192,37721,1,0,0:0:0:0:
256,192,37906,1,8,0:0:0:0:
256,192,38090,1,8,0:0:0:0:
256,192,38182,1,8,0:0:0:0:
256,192,38274,1,0,0:0:0:0:
256,192,38458,1,4,0:0:0:0:
256,192,39010,1,8,0:0:0:0:
256,192,39102,1,8,0:0:0:0:
256,192,39194,1,8,0:0:0:0:
256,192,39378,1,0,0:0:0:0:
256,192,39470,1,0,0:0:0:0:
256,192,39562,1,0,0:0:0:0:
256,192,39654,1,8,0:0:0:0:
256,192,39746,1,0,0:0:0:0:
256,192,39930,1,4,0:0:0:0:
256,192,40022,1,0,0:0:0:0:
256,192,40114,1,4,0:0:0:0:
256,192,40482,1,4,0:0:0:0:
256,192,40574,1,0,0:0:0:0:
256,192,40666,1,8,0:0:0:0:
256,192,40850,1,0,0:0:0:0:
256,192,41034,1,8,0:0:0:0:
256,192,41218,1,0,0:0:0:0:
256,192,41402,1,0,0:0:0:0:
256,192,41495,1,0,0:0:0:0:
256,192,41587,1,0,0:0:0:0:
256,192,41771,1,0,0:0:0:0:
256,192,41863,1,0,0:0:0:0:
256,192,41955,1,0,0:0:0:0:
256,192,42139,1,0,0:0:0:0:
256,192,42323,1,8,0:0:0:0:
256,192,42415,1,8,0:0:0:0:
256,192,42507,1,8,0:0:0:0:
256,192,42599,1,8,0:0:0:0:
256,192,42691,1,0,0:0:0:0:
256,192,42875,1,4,0:0:0:0:
256,192,43120,1,0,0:0:0:0:
256,192,43243,1,0,0:0:0:0:
256,192,43366,1,4,0:0:0:0:
256,192,43611,1,12,0:0:0:0:
256,192,43856,1,8,0:0:0:0:
256,192,43979,1,8,0:0:0:0:
256,192,44102,1,4,0:0:0:0:
256,192,44347,1,0,0:0:0:0:
256,192,44470,1,0,0:0:0:0:
256,192,44593,1,0,0:0:0:0:
256,192,44715,1,0,0:0:0:0:
256,192,44838,1,0,0:0:0:0:
256,192,44961,1,0,0:0:0:0:
256,192,45083,1,8,0:0:0:0:
256,192,45206,1,8,0:0:0:0:
256,192,45329,1,8,0:0:0:0:
256,192,45452,1,8,0:0:0:0:
256,192,45574,1,0,0:0:0:0:
256,192,45697,1,8,0:0:0:0:
256,192,45820,1,4,0:0:0:0:
256,192,46065,1,12,0:0:0:0:
256,192,46310,1,4,0:0:0:0:
256,192,46556,1,12,0:0:0:0:
256,192,46801,1,8,0:0:0:0:
256,192,46924,1,8,0:0:0:0:
256,192,47047,1,8,0:0:0:0:
256,192,47169,1,8,0:0:0:0:
256,192,47292,1,12,0:0:0:0:
256,192,47537,1,4,0:0:0:0:
256,192,47783,1,4,0:0:0:0:
256,192,48028,1,12,0:0:0:0:
256,192,48519,1,12,0:0:0:0:
256,192,48764,1,4,0:0:0:0:
256,192,49009,1,4,0:0:0:0:
256,192,49255,1,4,0:0:0:0:
256,192,49500,1,12,0:0:0:0:
256,192,49746,1,12,0:0:0:0:
256,192,49991,1,4,0:0:0:0:
256,192,50236,1,0,0:0:0:0:
256,192,50359,1,0,0:0:0:0:
256,192,50482,1,0,0:0:0:0:
256,192,50727,1,0,0:0:0:0:
256,192,50973,1,8,0:0:0:0:
256,192,51095,1,8,0:0:0:0:
256,192,51218,1,8,0:0:0:0:
256,192,51341,1,8,0:0:0:0:
256,192,51463,1,4,0:0:0:0:
256,192,51709,1,4,0:0:0:0:
256,192,51954,1,0,0:0:0:0:
256,192,52077,1,0,0:0:0:0:
256,192,52200,1,4,0:0:0:0:
256,192,52445,1,12,0:0:0:0:
256,192,52690,1,8,0:0:0:0:
256,192,52813,1,8,0:0:0:0:
256,192,52936,1,4,0:0:0:0:
256,192,53181,1,0,0:0:0:0:
256,192,53304,1,0,0:0:0:0:
256,192,53427,1,0,0:0:0:0:
256,192,53549,1,0,0:0:0:0:
256,192,53672,1,0,0:0:0:0:
256,192,53795,1,0,0:0:0:0:
256,192,53917,1,8,0:0:0:0:
256,192,54040,1,8,0:0:0:0:
256,192,54163,1,8,0:0:0:0:
256,192,54286,1,8,0:0:0:0:
256,192,54408,1,8,0:0:0:0:
256,192,54531,1,8,0:0:0:0:
256,192,54654,1,0,0:0:0:0:
256,192,54746,1,0,0:0:0:0:
256,192,54838,1,0,0:0:0:0:
256,192,54930,1,0,0:0:0:0:
256,192,55022,1,8,0:0:0:0:
256,192,55114,1,0,0:0:0:0:
256,192,55206,1,0,0:0:0:0:
256,192,55298,1,0,0:0:0:0:
256,192,55390,1,0,0:0:0:0:
256,192,55574,1,0,0:0:0:0:
256,192,55666,1,0,0:0:0:0:
256,192,55758,1,8,0:0:0:0:
256,192,55850,1,8,0:0:0:0:
256,192,55942,1,0,0:0:0:0:
256,192,56034,1,0,0:0:0:0:
256,192,56126,1,0,0:0:0:0:
256,192,56218,1,0,0:0:0:0:
256,192,56310,1,0,0:0:0:0:
256,192,56402,1,0,0:0:0:0:
256,192,56495,1,8,0:0:0:0:
256,192,56587,1,8,0:0:0:0:
256,192,56679,1,0,0:0:0:0:
256,192,56771,1,0,0:0:0:0:
256,192,56863,1,0,0:0:0:0:
256,192,56955,1,0,0:0:0:0:
256,192,57047,1,0,0:0:0:0:
256,192,57231,1,8,0:0:0:0:
256,192,57323,1,8,0:0:0:0:
256,192,57415,1,0,0:0:0:0:
256,192,57507,1,0,0:0:0:0:
256,192,57599,1,0,0:0:0:0:
256,192,57783,1,0,0:0:0:0:
256,192,57875,1,0,0:0:0:0:
256,192,57967,1,8,0:0:0:0:
256,192,58151,1,8,0:0:0:0:
256,192,58335,1,0,0:0:0:0:
256,192,58519,1,0,0:0:0:0:
256,192,58611,1,0,0:0:0:0:
256,192,58795,1,0,0:0:0:0:
256,192,58887,1,8,0:0:0:0:
256,192,58979,1,0,0:0:0:0:
256,192,59071,1,0,0:0:0:0:
256,192,59439,1,8,0:0:0:0:
256,192,59531,1,8,0:0:0:0:
256,192,59623,1,8,0:0:0:0:
256,192,59807,1,0,0:0:0:0:
256,192,59899,1,0,0:0:0:0:
256,192,59991,1,0,0:0:0:0:
256,192,60083,1,0,0:0:0:0:
256,192,60175,1,8,0:0:0:0:
256,192,60268,1,8,0:0:0:0:
256,192,60360,1,8,0:0:0:0:
256,192,60544,1,8,0:0:0:0:
256,192,60636,1,8,0:0:0:0:
256,192,60728,1,8,0:0:0:0:
256,192,60820,1,8,0:0:0:0:
256,192,60912,1,8,0:0:0:0:
256,192,61004,1,0,0:0:0:0:
256,192,61096,1,8,0:0:0:0:
256,192,61188,1,8,0:0:0:0:
256,192,61280,1,8,0:0:0:0:
256,192,61372,1,8,0:0:0:0:
256,192,61464,1,8,0:0:0:0:
256,192,61556,1,8,0:0:0:0:
256,192,61648,1,8,0:0:0:0:
256,192,61740,1,0,0:0:0:0:
256,192,61832,1,8,0:0:0:0:
256,192,61924,1,8,0:0:0:0:
256,192,62016,1,8,0:0:0:0:
256,192,62108,1,8,0:0:0:0:
256,192,62200,1,8,0:0:0:0:
256,192,62384,1,8,0:0:0:0:
256,192,62476,1,8,0:0:0:0:
256,192,62568,1,8,0:0:0:0:
256,192,62660,1,8,0:0:0:0:
256,192,62752,1,8,0:0:0:0:
256,192,62844,1,8,0:0:0:0:
256,192,62936,1,8,0:0:0:0:
256,192,63028,1,8,0:0:0:0:
256,192,63120,1,0,0:0:0:0:
256,192,63212,1,8,0:0:0:0:
256,192,63304,1,0,0:0:0:0:
256,192,63396,1,8,0:0:0:0:
256,192,63488,1,0,0:0:0:0:
256,192,63672,1,8,0:0:0:0:
256,192,63764,1,8,0:0:0:0:
256,192,63856,1,0,0:0:0:0:
256,192,64041,1,8,0:0:0:0:
256,192,64225,1,0,0:0:0:0:
256,192,64317,1,0,0:0:0:0:
256,192,64409,1,8,0:0:0:0:
256,192,64593,1,0,0:0:0:0:
256,192,64777,1,8,0:0:0:0:
256,192,64961,1,0,0:0:0:0:
256,192,65053,1,0,0:0:0:0:
256,192,65145,1,8,0:0:0:0:
256,192,65237,1,8,0:0:0:0:
256,192,65329,1,0,0:0:0:0:
256,192,65421,1,0,0:0:0:0:
256,192,65513,1,8,0:0:0:0:
256,192,65605,1,8,0:0:0:0:
256,192,65697,1,0,0:0:0:0:
256,192,65789,1,0,0:0:0:0:
256,192,65881,1,8,0:0:0:0:
256,192,66065,1,0,0:0:0:0:
256,192,66249,1,8,0:0:0:0:
256,192,66433,1,8,0:0:0:0:
256,192,66617,1,0,0:0:0:0:
256,192,66709,1,8,0:0:0:0:
256,192,66893,1,0,0:0:0:0:
256,192,66985,1,8,0:0:0:0:
256,192,67169,1,0,0:0:0:0:
256,192,67353,1,0,0:0:0:0:
256,192,67445,1,8,0:0:0:0:
256,192,67629,1,8,0:0:0:0:
256,192,67722,1,0,0:0:0:0:
256,192,67814,1,8,0:0:0:0:
256,192,67906,1,8,0:0:0:0:
256,192,68182,1,8,0:0:0:0:
256,192,68458,1,8,0:0:0:0:
256,192,68642,1,0,0:0:0:0:
256,192,68826,1,0,0:0:0:0:
256,192,68918,1,8,0:0:0:0:
256,192,69102,1,8,0:0:0:0:
256,192,69193,1,0,0:0:0:0:
256,192,69285,1,8,0:0:0:0:
256,192,69378,1,0,0:0:0:0:
256,192,69562,1,0,0:0:0:0:
256,192,69654,1,8,0:0:0:0:
256,192,69838,1,0,0:0:0:0:
256,192,69930,1,0,0:0:0:0:
256,192,70022,1,0,0:0:0:0:
256,192,70114,1,0,0:0:0:0:
256,192,70206,1,0,0:0:0:0:
256,192,70298,1,0,0:0:0:0:
256,192,70390,1,8,0:0:0:0:
256,192,70574,1,0,0:0:0:0:
256,192,70666,1,8,0:0:0:0:
256,192,70758,1,0,0:0:0:0:
256,192,70850,1,0,0:0:0:0:
256,192,71034,1,0,0:0:0:0:
256,192,71126,1,8,0:0:0:0:
256,192,71218,1,8,0:0:0:0:
256,192,71402,1,0,0:0:0:0:
256,192,71495,1,8,0:0:0:0:
256,192,71587,1,0,0:0:0:0:
256,192,71679,1,0,0:0:0:0:
256,192,71771,1,8,0:0:0:0:
256,192,71863,1,0,0:0:0:0:
256,192,71955,1,8,0:0:0:0:
256,192,72139,1,0,0:0:0:0:
256,192,72323,1,0,0:0:0:0:
256,192,72507,1,0,0:0:0:0:
256,192,72599,1,8,0:0:0:0:
256,192,72783,1,0,0:0:0:0:
256,192,72875,1,8,0:0:0:0:
256,192,72967,1,0,0:0:0:0:
256,192,73059,1,12,0:0:0:0:
256,192,73427,1,4,0:0:0:0:
256,192,73795,1,8,0:0:0:0:
256,192,74071,1,8,0:0:0:0:
256,192,74347,1,8,0:0:0:0:
256,192,74531,1,0,0:0:0:0:
256,192,74715,1,0,0:0:0:0:
256,192,74807,1,8,0:0:0:0:
256,192,74991,1,8,0:0:0:0:
256,192,75084,1,0,0:0:0:0:
256,192,75176,1,8,0:0:0:0:
256,192,75267,1,0,0:0:0:0:
256,192,75451,1,0,0:0:0:0:
256,192,75543,1,8,0:0:0:0:
256,192,75727,1,0,0:0:0:0:
256,192,75819,1,0,0:0:0:0:
256,192,75911,1,0,0:0:0:0:
256,192,76003,1,0,0:0:0:0:
256,192,76095,1,0,0:0:0:0:
256,192,76187,1,0,0:0:0:0:
256,192,76279,1,8,0:0:0:0:
256,192,76463,1,0,0:0:0:0:
256,192,76555,1,8,0:0:0:0:
256,192,76647,1,0,0:0:0:0:
256,192,76739,1,0,0:0:0:0:
256,192,76923,1,0,0:0:0:0:
256,192,77015,1,8,0:0:0:0:
256,192,77107,1,8,0:0:0:0:
256,192,77291,1,0,0:0:0:0:
256,192,77384,1,8,0:0:0:0:
256,192,77476,1,0,0:0:0:0:
256,192,77568,1,0,0:0:0:0:
256,192,77660,1,8,0:0:0:0:
256,192,77752,1,0,0:0:0:0:
256,192,77844,1,8,0:0:0:0:
256,192,78028,1,0,0:0:0:0:
256,192,78212,1,0,0:0:0:0:
256,192,78396,1,0,0:0:0:0:
256,192,78488,1,8,0:0:0:0:
256,192,78672,1,0,0:0:0:0:
256,192,78764,1,8,0:0:0:0:
256,192,78856,1,0,0:0:0:0:
256,192,78948,1,12,0:0:0:0:
256,192,79316,1,4,0:0:0:0:
256,192,79685,1,4,0:0:0:0:
256,192,80053,1,0,0:0:0:0:
256,192,80421,1,0,0:0:0:0:
256,192,80605,1,0,0:0:0:0:
256,192,80789,1,8,0:0:0:0:
256,192,80973,1,0,0:0:0:0:
256,192,81157,1,4,0:0:0:0:
256,192,81525,1,0,0:0:0:0:
256,192,81893,1,0,0:0:0:0:
256,192,82077,1,0,0:0:0:0:
256,192,82169,1,0,0:0:0:0:
256,192,82353,1,0,0:0:0:0:
256,192,82445,1,8,0:0:0:0:
256,192,82537,1,0,0:0:0:0:
256,192,82629,1,0,0:0:0:0:
256,192,82721,1,0,0:0:0:0:
256,192,82813,1,0,0:0:0:0:
256,192,83181,1,0,0:0:0:0:
256,192,83273,1,0,0:0:0:0:
256,192,83365,1,8,0:0:0:0:
256,192,83549,1,0,0:0:0:0:
256,192,83733,1,8,0:0:0:0:
256,192,83917,1,0,0:0:0:0:
256,192,84101,1,0,0:0:0:0:
256,192,84194,1,0,0:0:0:0:
256,192,84286,1,0,0:0:0:0:
256,192,84470,1,0,0:0:0:0:
256,192,84562,1,0,0:0:0:0:
256,192,84654,1,0,0:0:0:0:
256,192,84838,1,0,0:0:0:0:
256,192,85022,1,8,0:0:0:0:
256,192,85114,1,8,0:0:0:0:
256,192,85206,1,8,0:0:0:0:
256,192,85298,1,8,0:0:0:0:
256,192,85390,1,0,0:0:0:0:
256,192,85574,1,4,0:0:0:0:
256,192,85819,1,0,0:0:0:0:
256,192,85942,1,0,0:0:0:0:
256,192,86065,1,4,0:0:0:0:
256,192,86310,1,12,0:0:0:0:
256,192,86555,1,8,0:0:0:0:
256,192,86678,1,8,0:0:0:0:
256,192,86801,1,4,0:0:0:0:
256,192,87046,1,0,0:0:0:0:
256,192,87169,1,0,0:0:0:0:
256,192,87292,1,0,0:0:0:0:
256,192,87414,1,0,0:0:0:0:
256,192,87537,1,0,0:0:0:0:
256,192,87660,1,0,0:0:0:0:
256,192,87782,1,8,0:0:0:0:
256,192,87905,1,8,0:0:0:0:
256,192,88028,1,8,0:0:0:0:
256,192,88151,1,8,0:0:0:0:
256,192,88273,1,0,0:0:0:0:
256,192,88396,1,8,0:0:0:0:
256,192,88519,1,4,0:0:0:0:
256,192,88764,1,12,0:0:0:0:
256,192,89009,1,4,0:0:0:0:
256,192,89255,1,12,0:0:0:0:
256,192,89500,1,8,0:0:0:0:
256,192,89623,1,8,0:0:0:0:
256,192,89746,1,8,0:0:0:0:
256,192,89868,1,8,0:0:0:0:
256,192,89991,1,12,0:0:0:0:
256,192,90236,1,4,0:0:0:0:
256,192,90482,1,4,0:0:0:0:
256,192,90727,1,12,0:0:0:0:
256,192,91218,1,12,0:0:0:0:
256,192,91463,1,4,0:0:0:0:
256,192,91708,1,4,0:0:0:0:
256,192,91954,1,4,0:0:0:0:
256,192,92199,1,12,0:0:0:0:
256,192,92445,1,12,0:0:0:0:
256,192,92690,1,4,0:0:0:0:
256,192,92935,1,0,0:0:0:0:
256,192,93058,1,0,0:0:0:0:
256,192,93181,1,0,0:0:0:0:
256,192,93426,1,0,0:0:0:0:
256,192,93672,1,8,0:0:0:0:
256,192,93794,1,8,0:0:0:0:
256,192,93917,1,8,0:0:0:0:
256,192,94040,1,8,0:0:0:0:
256,192,94162,1,4,0:0:0:0:
256,192,94408,1,4,0:0:0:0:
256,192,94653,1,0,0:0:0:0:
256,192,94776,1,0,0:0:0:0:
256,192,94899,1,4,0:0:0:0:
256,192,95144,1,12,0:0:0:0:
256,192,95389,1,8,0:0:0:0:
256,192,95512,1,8,0:0:0:0:
256,192,95635,1,4,0:0:0:0:
256,192,95880,1,0,0:0:0:0:
256,192,96003,1,0,0:0:0:0:
256,192,96126,1,0,0:0:0:0:
256,192,96248,1,0,0:0:0:0:
256,192,96371,1,0,0:0:0:0:
256,192,96494,1,0,0:0:0:0:
256,192,96616,1,8,0:0:0:0:
256,192,96739,1,8,0:0:0:0:
256,192,96862,1,8,0:0:0:0:
256,192,96985,1,8,0:0:0:0:
256,192,97107,1,8,0:0:0:0:
256,192,97230,1,8,0:0:0:0:
256,192,97353,1,4,0:0:0:0:
256,192,97721,1,8,0:0:0:0:
256,192,97905,1,8,0:0:0:0:
256,192,98089,1,0,0:0:0:0:
256,192,98273,1,0,0:0:0:0:
256,192,98365,1,0,0:0:0:0:
256,192,98457,1,8,0:0:0:0:
256,192,98641,1,0,0:0:0:0:
256,192,98825,1,0,0:0:0:0:
256,192,98917,1,0,0:0:0:0:
256,192,99009,1,0,0:0:0:0:
256,192,99101,1,0,0:0:0:0:
256,192,99193,1,8,0:0:0:0:
256,192,99285,1,8,0:0:0:0:
256,192,99377,1,8,0:0:0:0:
256,192,99561,1,0,0:0:0:0:
256,192,99745,1,0,0:0:0:0:
256,192,99837,1,0,0:0:0:0:
256,192,99929,1,8,0:0:0:0:
256,192,100113,1,8,0:0:0:0:
256,192,100298,1,0,0:0:0:0:
256,192,100482,1,0,0:0:0:0:
256,192,100666,1,8,0:0:0:0:
256,192,100850,1,0,0:0:0:0:
256,192,101034,1,8,0:0:0:0:
256,192,101126,1,8,0:0:0:0:
256,192,101218,1,8,0:0:0:0:
256,192,101310,1,8,0:0:0:0:
256,192,101402,1,0,0:0:0:0:
256,192,101494,1,8,0:0:0:0:
256,192,101586,1,0,0:0:0:0:
256,192,101770,1,0,0:0:0:0:
256,192,101862,1,0,0:0:0:0:
256,192,101954,1,0,0:0:0:0:
256,192,102046,1,0,0:0:0:0:
256,192,102138,1,8,0:0:0:0:
256,192,102322,1,0,0:0:0:0:
256,192,102414,1,0,0:0:0:0:
256,192,102506,1,0,0:0:0:0:
256,192,102598,1,0,0:0:0:0:
256,192,102690,1,8,0:0:0:0:
256,192,102874,1,0,0:0:0:0:
256,192,103058,1,0,0:0:0:0:
256,192,103242,1,0,0:0:0:0:
256,192,103334,1,0,0:0:0:0:
256,192,103426,1,8,0:0:0:0:
256,192,103610,1,0,0:0:0:0:
256,192,103794,1,0,0:0:0:0:
256,192,103979,1,0,0:0:0:0:
256,192,104071,1,0,0:0:0:0:
256,192,104163,1,8,0:0:0:0:
256,192,104255,1,0,0:0:0:0:
256,192,104347,1,8,0:0:0:0:
256,192,104439,1,0,0:0:0:0:
256,192,104623,1,8,0:0:0:0:
256,192,104715,1,0,0:0:0:0:
256,192,104899,1,0,0:0:0:0:
256,192,105083,1,8,0:0:0:0:
256,192,105267,1,8,0:0:0:0:
256,192,105451,1,0,0:0:0:0:
256,192,105543,1,8,0:0:0:0:
256,192,105727,1,0,0:0:0:0:
256,192,105819,1,0,0:0:0:0:
256,192,105911,1,0,0:0:0:0:
256,192,106003,1,8,0:0:0:0:
256,192,106187,1,0,0:0:0:0:
256,192,106371,1,0,0:0:0:0:
256,192,106463,1,0,0:0:0:0:
256,192,106555,1,8,0:0:0:0:
256,192,106739,1,0,0:0:0:0:
256,192,106831,1,0,0:0:0:0:
256,192,106923,1,0,0:0:0:0:
256,192,107107,1,8,0:0:0:0:
256,192,107291,1,8,0:0:0:0:
256,192,107475,1,0,0:0:0:0:
256,192,107659,1,8,0:0:0:0:
256,192,107844,1,8,0:0:0:0:
256,192,107936,1,8,0:0:0:0:
256,192,108028,1,8,0:0:0:0:
256,192,108212,1,8,0:0:0:0:
256,192,108396,1,8,0:0:0:0:
256,192,108488,1,8,0:0:0:0:
256,192,108580,1,8,0:0:0:0:
256,192,108672,1,0,0:0:0:0:
256,192,108764,1,8,0:0:0:0:
256,192,108856,1,0,0:0:0:0:
256,192,108948,1,8,0:0:0:0:
256,192,109132,1,4,0:0:0:0:
256,192,110420,1,8,0:0:0:0:
256,192,110604,1,12,0:0:0:0:
256,192,110972,1,8,0:0:0:0:
256,192,111156,1,0,0:0:0:0:
256,192,111340,1,0,0:0:0:0:
256,192,111432,1,0,0:0:0:0:
256,192,111525,1,0,0:0:0:0:
256,192,111709,1,8,0:0:0:0:
256,192,111893,1,0,0:0:0:0:
256,192,112077,1,0,0:0:0:0:
256,192,112261,1,0,0:0:0:0:
256,192,112445,1,8,0:0:0:0:
256,192,112629,1,0,0:0:0:0:
256,192,112813,1,0,0:0:0:0:
256,192,112905,1,0,0:0:0:0:
256,192,112997,1,0,0:0:0:0:
256,192,113089,1,0,0:0:0:0:
256,192,113181,1,8,0:0:0:0:
256,192,113365,1,0,0:0:0:0:
256,192,113549,1,0,0:0:0:0:
256,192,113641,1,0,0:0:0:0:
256,192,113733,1,0,0:0:0:0:
256,192,113825,1,0,0:0:0:0:
256,192,113917,1,0,0:0:0:0:
256,192,114101,1,0,0:0:0:0:
256,192,114285,1,8,0:0:0:0:
256,192,114377,1,8,0:0:0:0:
256,192,114469,1,8,0:0:0:0:
256,192,114561,1,8,0:0:0:0:
256,192,114653,1,8,0:0:0:0:
256,192,114745,1,0,0:0:0:0:
256,192,114837,1,8,0:0:0:0:
256,192,115021,1,8,0:0:0:0:
256,192,115113,1,8,0:0:0:0:
256,192,115205,1,8,0:0:0:0:
256,192,115298,1,8,0:0:0:0:
256,192,115390,1,0,0:0:0:0:
256,192,115574,1,8,0:0:0:0:
256,192,115758,1,8,0:0:0:0:
256,192,115850,1,8,0:0:0:0:
256,192,115942,1,8,0:0:0:0:
256,192,116035,1,8,0:0:0:0:
256,192,116127,1,0,0:0:0:0:
256,192,116218,1,8,0:0:0:0:
256,192,116402,1,0,0:0:0:0:
256,192,116494,1,12,0:0:0:0:
256,192,116862,1,8,0:0:0:0:
256,192,117046,1,0,0:0:0:0:
256,192,117230,1,0,0:0:0:0:
256,192,117322,1,0,0:0:0:0:
256,192,117415,1,0,0:0:0:0:
256,192,117599,1,8,0:0:0:0:
256,192,117783,1,0,0:0:0:0:
256,192,117967,1,0,0:0:0:0:
256,192,118151,1,0,0:0:0:0:
256,192,118335,1,8,0:0:0:0:
256,192,118519,1,0,0:0:0:0:
256,192,118703,1,0,0:0:0:0:
256,192,118795,1,0,0:0:0:0:
256,192,118887,1,0,0:0:0:0:
256,192,118979,1,0,0:0:0:0:
256,192,119071,1,8,0:0:0:0:
256,192,119255,1,0,0:0:0:0:
256,192,119439,1,0,0:0:0:0:
256,192,119531,1,0,0:0:0:0:
256,192,119623,1,0,0:0:0:0:
256,192,119715,1,0,0:0:0:0:
256,192,119807,1,0,0:0:0:0:
256,192,119991,1,0,0:0:0:0:
256,192,120175,1,8,0:0:0:0:
256,192,120267,1,8,0:0:0:0:
256,192,120359,1,8,0:0:0:0:
256,192,120451,1,8,0:0:0:0:
256,192,120543,1,8,0:0:0:0:
256,192,120635,1,0,0:0:0:0:
256,192,120727,1,8,0:0:0:0:
256,192,120911,1,8,0:0:0:0:
256,192,121003,1,8,0:0:0:0:
256,192,121095,1,8,0:0:0:0:
256,192,121188,1,8,0:0:0:0:
256,192,121280,1,0,0:0:0:0:
256,192,121464,1,8,0:0:0:0:
256,192,121648,1,8,0:0:0:0:
256,192,121740,1,8,0:0:0:0:
256,192,121832,1,8,0:0:0:0:
256,192,121923,1,8,0:0:0:0:
256,192,122015,1,0,0:0:0:0:
256,192,122108,1,8,0:0:0:0:
256,192,122292,1,0,0:0:0:0:
256,192,122383,1,4,0:0:0:0:
256,192,122752,1,8,0:0:0:0:
256,192,122844,1,8,0:0:0:0:
256,192,122936,1,0,0:0:0:0:
256,192,123028,1,0,0:0:0:0:
256,192,123120,1,0,0:0:0:0:
256,192,123304,1,8,0:0:0:0:
256,192,123488,1,0,0:0:0:0:
256,192,123580,1,0,0:0:0:0:
256,192,123672,1,8,0:0:0:0:
256,192,123764,1,0,0:0:0:0:
256,192,123856,1,0,0:0:0:0:
256,192,123948,1,0,0:0:0:0:
256,192,124040,1,8,0:0:0:0:
256,192,124132,1,0,0:0:0:0:
256,192,124224,1,0,0:0:0:0:
256,192,124316,1,0,0:0:0:0:
256,192,124408,1,0,0:0:0:0:
256,192,124500,1,0,0:0:0:0:
256,192,124592,1,8,0:0:0:0:
256,192,124684,1,0,0:0:0:0:
256,192,124868,1,8,0:0:0:0:
256,192,124960,1,0,0:0:0:0:
256,192,125144,1,8,0:0:0:0:
256,192,125328,1,0,0:0:0:0:
256,192,125696,1,8,0:0:0:0:
256,192,125880,1,0,0:0:0:0:
256,192,126064,1,0,0:0:0:0:
256,192,126156,1,0,0:0:0:0:
256,192,126248,1,8,0:0:0:0:
256,192,126432,1,0,0:0:0:0:
256,192,126525,1,0,0:0:0:0:
256,192,126617,1,8,0:0:0:0:
256,192,126801,1,4,0:0:0:0:
256,192,127169,1,8,0:0:0:0:
256,192,127261,1,8,0:0:0:0:
256,192,127353,1,0,0:0:0:0:
256,192,127445,1,0,0:0:0:0:
256,192,127537,1,0,0:0:0:0:
256,192,127629,1,0,0:0:0:0:
256,192,127721,1,0,0:0:0:0:
256,192,127813,1,0,0:0:0:0:
256,192,127905,1,8,0:0:0:0:
256,192,127997,1,0,0:0:0:0:
256,192,128181,1,8,0:0:0:0:
256,192,128273,1,4,0:0:0:0:
256,192,128457,1,0,0:0:0:0:
256,192,128641,1,8,0:0:0:0:
256,192,128825,1,0,0:0:0:0:
256,192,129009,1,4,0:0:0:0:
256,192,129193,1,0,0:0:0:0:
256,192,129377,1,8,0:0:0:0:
256,192,129469,1,8,0:0:0:0:
256,192,129561,1,0,0:0:0:0:
256,192,129745,1,0,0:0:0:0:
256,192,129837,1,0,0:0:0:0:
256,192,129929,1,0,0:0:0:0:
256,192,130113,1,8,0:0:0:0:
256,192,130298,1,0,0:0:0:0:
256,192,130482,1,0,0:0:0:0:
256,192,130666,1,0,0:0:0:0:
256,192,130758,1,0,0:0:0:0:
256,192,130850,1,8,0:0:0:0:
256,192,131034,1,0,0:0:0:0:
256,192,131218,1,0,0:0:0:0:
256,192,131402,1,0,0:0:0:0:
256,192,131494,1,0,0:0:0:0:
256,192,131678,1,0,0:0:0:0:
256,192,131770,1,8,0:0:0:0:
256,192,131862,1,0,0:0:0:0:
256,192,131954,1,0,0:0:0:0:
256,192,132138,1,0,0:0:0:0:
256,192,132230,1,0,0:0:0:0:
256,192,132322,1,8,0:0:0:0:
256,192,132414,1,0,0:0:0:0:
256,192,132506,1,8,0:0:0:0:
256,192,132598,1,0,0:0:0:0:
256,192,132690,1,0,0:0:0:0:
256,192,132782,1,0,0:0:0:0:
256,192,132874,1,8,0:0:0:0:
256,192,132966,1,0,0:0:0:0:
256,192,133058,1,8,0:0:0:0:
256,192,133150,1,8,0:0:0:0:
256,192,133242,1,0,0:0:0:0:
256,192,133334,1,8,0:0:0:0:
256,192,133426,1,0,0:0:0:0:
256,192,133518,1,0,0:0:0:0:
256,192,133610,1,0,0:0:0:0:
256,192,133702,1,0,0:0:0:0:
256,192,133794,1,8,0:0:0:0:
256,192,133886,1,0,0:0:0:0:
256,192,133979,1,0,0:0:0:0:
256,192,134071,1,8,0:0:0:0:
256,192,134163,1,0,0:0:0:0:
256,192,134255,1,0,0:0:0:0:
256,192,134347,1,0,0:0:0:0:
256,192,134715,1,0,0:0:0:0:
256,192,134807,1,0,0:0:0:0:
256,192,134899,1,0,0:0:0:0:
256,192,135267,1,4,0:0:0:0:
256,192,135635,1,0,0:0:0:0:
256,192,135727,1,0,0:0:0:0:
256,192,135819,1,0,0:0:0:0:
256,192,136187,1,0,0:0:0:0:
256,192,136279,1,0,0:0:0:0:
256,192,136371,1,0,0:0:0:0:
256,192,136739,1,8,0:0:0:0:
256,192,136831,1,8,0:0:0:0:
256,192,136923,1,0,0:0:0:0:
256,192,137107,1,4,0:0:0:0:
256,192,137659,1,4,0:0:0:0:
256,192,138212,1,4,0:0:0:0:
256,192,138580,1,4,0:0:0:0:
256,192,139316,1,8,0:0:0:0:
256,192,139500,1,8,0:0:0:0:
256,192,139684,1,8,0:0:0:0:
256,192,139776,1,8,0:0:0:0:
256,192,139868,1,8,0:0:0:0:
256,192,139960,1,8,0:0:0:0:
256,192,140052,1,0,0:0:0:0:
256,192,140420,1,8,0:0:0:0:
256,192,141156,1,8,0:0:0:0:
256,192,141893,1,8,0:0:0:0:
256,192,142261,1,8,0:0:0:0:
256,192,142353,1,8,0:0:0:0:
256,192,142445,1,0,0:0:0:0:
256,192,142629,1,8,0:0:0:0:
256,192,142721,1,8,0:0:0:0:
256,192,142813,1,0,0:0:0:0:
256,192,142997,1,4,0:0:0:0:
256,192,143365,1,0,0:0:0:0:
256,192,143549,1,0,0:0:0:0:
256,192,143733,1,0,0:0:0:0:
256,192,143825,1,0,0:0:0:0:
256,192,143917,1,8,0:0:0:0:
256,192,144009,1,0,0:0:0:0:
256,192,144101,1,8,0:0:0:0:
256,192,144285,1,0,0:0:0:0:
256,192,144469,1,4,0:0:0:0:
256,192,144837,1,0,0:0:0:0:
256,192,145021,1,0,0:0:0:0:
256,192,145205,1,0,0:0:0:0:
256,192,145297,1,0,0:0:0:0:
256,192,145389,1,8,0:0:0:0:
256,192,145481,1,0,0:0:0:0:
256,192,145573,1,8,0:0:0:0:
256,192,145757,1,0,0:0:0:0:
256,192,145942,1,0,0:0:0:0:
256,192,146034,1,0,0:0:0:0:
256,192,146126,1,8,0:0:0:0:
256,192,146218,1,0,0:0:0:0:
256,192,146310,1,8,0:0:0:0:
256,192,146494,1,0,0:0:0:0:
256,192,146678,1,0,0:0:0:0:
256,192,146770,1,0,0:0:0:0:
256,192,146862,1,8,0:0:0:0:
256,192,146954,1,0,0:0:0:0:
256,192,147046,1,8,0:0:0:0:
256,192,147138,1,0,0:0:0:0:
256,192,147322,1,8,0:0:0:0:
256,192,147414,1,0,0:0:0:0:
256,192,147506,1,0,0:0:0:0:
256,192,147598,1,8,0:0:0:0:
256,192,147690,1,0,0:0:0:0:
256,192,147782,1,8,0:0:0:0:
256,192,147966,1,0,0:0:0:0:
256,192,148150,1,0,0:0:0:0:
256,192,148242,1,0,0:0:0:0:
256,192,148334,1,8,0:0:0:0:
256,192,148426,1,0,0:0:0:0:
256,192,148518,1,8,0:0:0:0:
256,192,148610,1,0,0:0:0:0:
256,192,148794,1,8,0:0:0:0:
256,192,148886,1,0,0:0:0:0:
256,192,148979,1,0,0:0:0:0:
256,192,149071,1,0,0:0:0:0:
256,192,149255,1,8,0:0:0:0:
256,192,149439,1,0,0:0:0:0:
256,192,149531,1,0,0:0:0:0:
256,192,149623,1,0,0:0:0:0:
256,192,149807,1,8,0:0:0:0:
256,192,149991,1,8,0:0:0:0:
256,192,150083,1,0,0:0:0:0:
256,192,150267,1,8,0:0:0:0:
256,192,150359,1,0,0:0:0:0:
256,192,150452,1,0,0:0:0:0:
256,192,150544,1,0,0:0:0:0:
256,192,150728,1,8,0:0:0:0:
256,192,150912,1,0,0:0:0:0:
256,192,151004,1,0,0:0:0:0:
256,192,151096,1,0,0:0:0:0:
256,192,151280,1,8,0:0:0:0:
256,192,151464,1,8,0:0:0:0:
256,192,151556,1,0,0:0:0:0:
256,192,151740,1,8,0:0:0:0:
256,192,151831,1,0,0:0:0:0:
256,192,151923,1,0,0:0:0:0:
256,192,152015,1,0,0:0:0:0:
256,192,152199,1,8,0:0:0:0:
256,192,152291,1,8,0:0:0:0:
256,192,152383,1,0,0:0:0:0:
256,192,152567,1,0,0:0:0:0:
256,192,152659,1,0,0:0:0:0:
256,192,152752,1,8,0:0:0:0:
256,192,152936,1,8,0:0:0:0:
256,192,153028,1,0,0:0:0:0:
256,192,153120,1,8,0:0:0:0:
256,192,153304,1,4,0:0:0:0:
256,192,153672,1,0,0:0:0:0:
256,192,153856,1,0,0:0:0:0:
256,192,154040,1,0,0:0:0:0:
256,192,154224,1,0,0:0:0:0:
256,192,154408,1,8,0:0:0:0:
256,192,154592,1,0,0:0:0:0:
256,192,154776,1,8,0:0:0:0:
256,192,154868,1,8,0:0:0:0:
256,192,154960,1,8,0:0:0:0:
256,192,155144,1,0,0:0:0:0:
256,192,155328,1,8,0:0:0:0:
256,192,155512,1,0,0:0:0:0:
256,192,155604,1,8,0:0:0:0:
256,192,155788,1,0,0:0:0:0:
256,192,155880,1,8,0:0:0:0:
256,192,155972,1,0,0:0:0:0:
256,192,156064,1,8,0:0:0:0:
256,192,156248,1,8,0:0:0:0:
256,192,156340,1,8,0:0:0:0:
256,192,156432,1,8,0:0:0:0:
256,192,156616,1,0,0:0:0:0:
256,192,156800,1,8,0:0:0:0:
256,192,156984,1,0,0:0:0:0:
256,192,157076,1,8,0:0:0:0:
256,192,157260,1,0,0:0:0:0:
256,192,157352,1,8,0:0:0:0:
256,192,157444,1,0,0:0:0:0:
256,192,157536,1,8,0:0:0:0:
256,192,157721,1,8,0:0:0:0:
256,192,157813,1,8,0:0:0:0:
256,192,157905,1,8,0:0:0:0:
256,192,158089,1,0,0:0:0:0:
256,192,158273,1,8,0:0:0:0:
256,192,158641,1,8,0:0:0:0:
256,192,158733,1,8,0:0:0:0:
256,192,158825,1,8,0:0:0:0:
256,192,159009,1,0,0:0:0:0:
256,192,159193,1,12,0:0:0:0:
256,192,159561,1,0,0:0:0:0:
256,192,159745,1,12,0:0:0:0:
256,192,160113,1,0,0:0:0:0:
256,192,160298,1,12,0:0:0:0:
256,192,160666,1,0,0:0:0:0:
256,192,160758,1,0,0:0:0:0:
256,192,160850,1,8,0:0:0:0:
256,192,160942,1,0,0:0:0:0:
256,192,161034,1,0,0:0:0:0:
256,192,161126,1,0,0:0:0:0:
256,192,161218,1,8,0:0:0:0:
256,192,161310,1,0,0:0:0:0:
256,192,161402,1,8,0:0:0:0:
256,192,161494,1,8,0:0:0:0:
256,192,161586,1,0,0:0:0:0:
256,192,161678,1,0,0:0:0:0:
256,192,161770,1,8,0:0:0:0:
256,192,161862,1,0,0:0:0:0:
256,192,161954,1,0,0:0:0:0:
256,192,162046,1,0,0:0:0:0:
256,192,162138,1,8,0:0:0:0:
256,192,162230,1,0,0:0:0:0:
256,192,162322,1,0,0:0:0:0:
256,192,162414,1,8,0:0:0:0:
256,192,162506,1,0,0:0:0:0:
256,192,162598,1,0,0:0:0:0:
256,192,162690,1,8,0:0:0:0:
256,192,162782,1,0,0:0:0:0:
256,192,162874,1,0,0:0:0:0:
256,192,163058,1,8,0:0:0:0:
256,192,163242,1,0,0:0:0:0:
256,192,163334,1,0,0:0:0:0:
256,192,163426,1,8,0:0:0:0:
256,192,163610,1,0,0:0:0:0:
256,192,163794,1,0,0:0:0:0:
256,192,163886,1,0,0:0:0:0:
256,192,163979,1,8,0:0:0:0:
256,192,164163,1,8,0:0:0:0:
256,192,164347,1,8,0:0:0:0:
256,192,164439,1,8,0:0:0:0:
256,192,164531,1,0,0:0:0:0:
256,192,164623,1,0,0:0:0:0:
256,192,164715,1,8,0:0:0:0:
256,192,164807,1,0,0:0:0:0:
256,192,164899,1,0,0:0:0:0:
256,192,164991,1,0,0:0:0:0:
256,192,165083,1,0,0:0:0:0:
256,192,165175,1,0,0:0:0:0:
256,192,165267,1,8,0:0:0:0:
256,192,165359,1,8,0:0:0:0:
256,192,165451,1,8,0:0:0:0:
256,192,165543,1,0,0:0:0:0:
256,192,165635,1,0,0:0:0:0:
256,192,165727,1,8,0:0:0:0:
256,192,165819,1,8,0:0:0:0:
256,192,165911,1,8,0:0:0:0:
256,192,166003,1,0,0:0:0:0:
256,192,166095,1,8,0:0:0:0:
256,192,166187,1,8,0:0:0:0:
256,192,166279,1,8,0:0:0:0:
256,192,166371,1,0,0:0:0:0:
256,192,166463,1,8,0:0:0:0:
256,192,166555,1,12,0:0:0:0:
256,192,167107,1,8,0:0:0:0:
256,192,167199,1,8,0:0:0:0:
256,192,167291,1,8,0:0:0:0:
256,192,167659,1,8,0:0:0:0:
256,192,167752,1,8,0:0:0:0:
256,192,167844,1,8,0:0:0:0:
256,192,168028,1,8,0:0:0:0:
256,192,168120,1,8,0:0:0:0:
256,192,168212,1,8,0:0:0:0:
256,192,168396,1,0,0:0:0:0:
256,192,168488,1,8,0:0:0:0:
256,192,168672,1,0,0:0:0:0:
256,192,168764,1,0,0:0:0:0:
256,192,168948,1,0,0:0:0:0:
256,192,169040,1,8,0:0:0:0:
256,192,169224,1,0,0:0:0:0:
256,192,169316,1,0,0:0:0:0:
256,192,169500,1,0,0:0:0:0:
256,192,169592,1,8,0:0:0:0:
256,192,169684,1,0,0:0:0:0:
256,192,169776,1,0,0:0:0:0:
256,192,169868,1,0,0:0:0:0:
256,192,169960,1,0,0:0:0:0:
256,192,170052,1,8,0:0:0:0:
256,192,170144,1,0,0:0:0:0:
256,192,170236,1,0,0:0:0:0:
256,192,170328,1,0,0:0:0:0:
256,192,170420,1,8,0:0:0:0:
256,192,170512,1,0,0:0:0:0:
256,192,170604,1,0,0:0:0:0:
256,192,170696,1,0,0:0:0:0:
256,192,170788,1,0,0:0:0:0:
256,192,170880,1,8,0:0:0:0:
256,192,170972,1,4,0:0:0:0:
256,192,171340,1,0,0:0:0:0:
256,192,171432,1,0,0:0:0:0:
256,192,171525,1,8,0:0:0:0:
256,192,171893,1,0,0:0:0:0:
256,192,171985,1,0,0:0:0:0:
256,192,172077,1,0,0:0:0:0:
256,192,172261,1,0,0:0:0:0:
256,192,172445,1,8,0:0:0:0:
256,192,172537,1,8,0:0:0:0:
256,192,172629,1,0,0:0:0:0:
256,192,172813,1,8,0:0:0:0:
256,192,172997,1,8,0:0:0:0:
256,192,173089,1,0,0:0:0:0:
256,192,173181,1,8,0:0:0:0:
256,192,173273,1,8,0:0:0:0:
256,192,173365,1,0,0:0:0:0:
256,192,173457,1,0,0:0:0:0:
256,192,173549,1,8,0:0:0:0:
256,192,173641,1,0,0:0:0:0:
256,192,173733,1,8,0:0:0:0:
256,192,173825,1,0,0:0:0:0:
256,192,173917,1,8,0:0:0:0:
256,192,174009,1,0,0:0:0:0:
256,192,174101,1,0,0:0:0:0:
256,192,174193,1,0,0:0:0:0:
256,192,174285,1,8,0:0:0:0:
256,192,174377,1,8,0:0:0:0:
256,192,174469,1,8,0:0:0:0:
256,192,174561,1,0,0:0:0:0:
256,192,174653,1,0,0:0:0:0:
256,192,174745,1,8,0:0:0:0:
256,192,174837,1,8,0:0:0:0:
256,192,174929,1,8,0:0:0:0:
256,192,175021,1,8,0:0:0:0:
256,192,175113,1,0,0:0:0:0:
256,192,175205,1,8,0:0:0:0:
256,192,175298,1,0,0:0:0:0:
256,192,175390,1,8,0:0:0:0:
256,192,175482,1,8,0:0:0:0:
256,192,175574,1,8,0:0:0:0:
256,192,175758,1,8,0:0:0:0:
256,192,175942,1,0,0:0:0:0:
256,192,176034,1,0,0:0:0:0:
256,192,176126,1,0,0:0:0:0:
256,192,176402,1,8,0:0:0:0:
256,192,176586,1,0,0:0:0:0:
256,192,176678,1,8,0:0:0:0:
256,192,176862,1,8,0:0:0:0:
256,192,176954,1,8,0:0:0:0:
256,192,177046,1,8,0:0:0:0:
256,192,177230,1,8,0:0:0:0:
256,192,177322,1,8,0:0:0:0:
256,192,177506,1,8,0:0:0:0:
256,192,177598,1,8,0:0:0:0:
256,192,177690,1,8,0:0:0:0:
256,192,177782,1,8,0:0:0:0:
256,192,177874,1,0,0:0:0:0:
256,192,177966,1,8,0:0:0:0:
256,192,178058,1,0,0:0:0:0:
256,192,178150,1,8,0:0:0:0:
256,192,178334,1,4,0:0:0:0:
256,192,179623,1,8,0:0:0:0:
256,192,179807,1,12,0:0:0:0:
256,192,180175,1,8,0:0:0:0:
256,192,180359,1,0,0:0:0:0:
256,192,180543,1,0,0:0:0:0:
256,192,180635,1,0,0:0:0:0:
256,192,180728,1,0,0:0:0:0:
256,192,180912,1,8,0:0:0:0:
256,192,181096,1,0,0:0:0:0:
256,192,181280,1,0,0:0:0:0:
256,192,181464,1,0,0:0:0:0:
256,192,181648,1,8,0:0:0:0:
256,192,181832,1,0,0:0:0:0:
256,192,182016,1,0,0:0:0:0:
256,192,182108,1,0,0:0:0:0:
256,192,182200,1,0,0:0:0:0:
256,192,182292,1,0,0:0:0:0:
256,192,182384,1,8,0:0:0:0:
256,192,182568,1,0,0:0:0:0:
256,192,182752,1,0,0:0:0:0:
256,192,182844,1,0,0:0:0:0:
256,192,182936,1,0,0:0:0:0:
256,192,183028,1,0,0:0:0:0:
256,192,183120,1,0,0:0:0:0:
256,192,183304,1,0,0:0:0:0:
256,192,183488,1,8,0:0:0:0:
256,192,183580,1,8,0:0:0:0:
256,192,183672,1,8,0:0:0:0:
256,192,183764,1,8,0:0:0:0:
256,192,183856,1,8,0:0:0:0:
256,192,183948,1,0,0:0:0:0:
256,192,184040,1,8,0:0:0:0:
256,192,184224,1,8,0:0:0:0:
256,192,184316,1,8,0:0:0:0:
256,192,184408,1,8,0:0:0:0:
256,192,184501,1,8,0:0:0:0:
256,192,184593,1,0,0:0:0:0:
256,192,184777,1,8,0:0:0:0:
256,192,184961,1,8,0:0:0:0:
256,192,185053,1,8,0:0:0:0:
256,192,185145,1,8,0:0:0:0:
256,192,185236,1,8,0:0:0:0:
256,192,185328,1,0,0:0:0:0:
256,192,185421,1,8,0:0:0:0:
256,192,185605,1,0,0:0:0:0:
256,192,185697,1,12,0:0:0:0:
256,192,186065,1,8,0:0:0:0:
256,192,186249,1,0,0:0:0:0:
256,192,186433,1,0,0:0:0:0:
256,192,186525,1,0,0:0:0:0:
256,192,186618,1,0,0:0:0:0:
256,192,186802,1,8,0:0:0:0:
256,192,186986,1,0,0:0:0:0:
256,192,187170,1,0,0:0:0:0:
256,192,187354,1,0,0:0:0:0:
256,192,187538,1,8,0:0:0:0:
256,192,187722,1,0,0:0:0:0:
256,192,187906,1,0,0:0:0:0:
256,192,187998,1,0,0:0:0:0:
256,192,188090,1,0,0:0:0:0:
256,192,188182,1,0,0:0:0:0:
256,192,188274,1,8,0:0:0:0:
256,192,188458,1,0,0:0:0:0:
256,192,188642,1,0,0:0:0:0:
256,192,188734,1,0,0:0:0:0:
256,192,188826,1,0,0:0:0:0:
256,192,188918,1,0,0:0:0:0:
256,192,189010,1,0,0:0:0:0:
256,192,189194,1,0,0:0:0:0:
256,192,189378,1,8,0:0:0:0:
256,192,189470,1,8,0:0:0:0:
256,192,189562,1,8,0:0:0:0:
256,192,189654,1,8,0:0:0:0:
256,192,189746,1,8,0:0:0:0:
256,192,189838,1,0,0:0:0:0:
256,192,189930,1,8,0:0:0:0:
256,192,190114,1,8,0:0:0:0:
256,192,190206,1,8,0:0:0:0:
256,192,190298,1,8,0:0:0:0:
256,192,190391,1,8,0:0:0:0:
256,192,190483,1,0,0:0:0:0:
256,192,190667,1,8,0:0:0:0:
256,192,190851,1,8,0:0:0:0:
256,192,190943,1,8,0:0:0:0:
256,192,191035,1,8,0:0:0:0:
256,192,191126,1,8,0:0:0:0:
256,192,191218,1,0,0:0:0:0:
256,192,191311,1,8,0:0:0:0:
256,192,191495,1,0,0:0:0:0:
256,192,191586,1,4,0:0:0:0:
256,192,191955,1,8,0:0:0:0:
256,192,192047,1,8,0:0:0:0:
256,192,192139,1,0,0:0:0:0:
256,192,192231,1,0,0:0:0:0:
256,192,192323,1,0,0:0:0:0:
256,192,192507,1,8,0:0:0:0:
256,192,192691,1,0,0:0:0:0:
256,192,192783,1,0,0:0:0:0:
256,192,192875,1,8,0:0:0:0:
256,192,192967,1,0,0:0:0:0:
256,192,193059,1,0,0:0:0:0:
256,192,193151,1,0,0:0:0:0:
256,192,193243,1,8,0:0:0:0:
256,192,193335,1,0,0:0:0:0:
256,192,193427,1,0,0:0:0:0:
256,192,193519,1,0,0:0:0:0:
256,192,193611,1,0,0:0:0:0:
256,192,193703,1,0,0:0:0:0:
256,192,193795,1,8,0:0:0:0:
256,192,193887,1,0,0:0:0:0:
256,192,194071,1,8,0:0:0:0:
256,192,194163,1,0,0:0:0:0:
256,192,194347,1,8,0:0:0:0:
256,192,194531,1,0,0:0:0:0:
256,192,194899,1,8,0:0:0:0:
256,192,195083,1,0,0:0:0:0:
256,192,195267,1,0,0:0:0:0:
256,192,195359,1,0,0:0:0:0:
256,192,195451,1,8,0:0:0:0:
256,192,195635,1,0,0:0:0:0:
256,192,195728,1,0,0:0:0:0:
256,192,195820,1,8,0:0:0:0:
256,192,196004,1,4,0:0:0:0:
256,192,196372,1,8,0:0:0:0:
256,192,196464,1,8,0:0:0:0:
256,192,196556,1,0,0:0:0:0:
256,192,196648,1,0,0:0:0:0:
256,192,196740,1,0,0:0:0:0:
256,192,196832,1,0,0:0:0:0:
256,192,196924,1,0,0:0:0:0:
256,192,197016,1,0,0:0:0:0:
256,192,197108,1,8,0:0:0:0:
256,192,197200,1,0,0:0:0:0:
256,192,197384,1,8,0:0:0:0:
256,192,197476,1,4,0:0:0:0:
256,192,197660,1,0,0:0:0:0:
256,192,197844,1,8,0:0:0:0:
256,192,198028,1,0,0:0:0:0:
256,192,198212,1,4,0:0:0:0:
256,192,198396,1,0,0:0:0:0:
256,192,198580,1,8,0:0:0:0:
256,192,198672,1,8,0:0:0:0:
256,192,198764,1,0,0:0:0:0:
256,192,198948,1,0,0:0:0:0:
256,192,199040,1,0,0:0:0:0:
256,192,199132,1,0,0:0:0:0:
256,192,199316,1,8,0:0:0:0:
256,192,199501,1,0,0:0:0:0:
256,192,199685,1,0,0:0:0:0:
256,192,199869,1,0,0:0:0:0:
256,192,199961,1,0,0:0:0:0:
256,192,200053,1,8,0:0:0:0:
256,192,200237,1,0,0:0:0:0:
256,192,200421,1,0,0:0:0:0:
256,192,200605,1,0,0:0:0:0:
256,192,200697,1,0,0:0:0:0:
256,192,200881,1,0,0:0:0:0:
256,192,200973,1,8,0:0:0:0:
256,192,201065,1,0,0:0:0:0:
256,192,201157,1,0,0:0:0:0:
256,192,201341,1,0,0:0:0:0:
256,192,201433,1,0,0:0:0:0:
256,192,201525,1,8,0:0:0:0:
256,192,201617,1,0,0:0:0:0:
256,192,201709,1,8,0:0:0:0:
256,192,201801,1,0,0:0:0:0:
256,192,201893,1,0,0:0:0:0:
256,192,201985,1,0,0:0:0:0:
256,192,202077,1,8,0:0:0:0:
256,192,202169,1,0,0:0:0:0:
256,192,202261,1,8,0:0:0:0:
256,192,202353,1,8,0:0:0:0:
256,192,202445,1,0,0:0:0:0:
256,192,202537,1,8,0:0:0:0:
256,192,202629,1,0,0:0:0:0:
256,192,202721,1,0,0:0:0:0:
256,192,202813,1,0,0:0:0:0:
256,192,202905,1,0,0:0:0:0:
256,192,202997,1,8,0:0:0:0:
256,192,203089,1,0,0:0:0:0:
256,192,203182,1,0,0:0:0:0:
256,192,203274,1,8,0:0:0:0:
256,192,203366,1,0,0:0:0:0:
256,192,203458,1,0,0:0:0:0:
256,192,203550,1,0,0:0:0:0:
256,192,203918,1,0,0:0:0:0:
256,192,204010,1,0,0:0:0:0:
256,192,204102,1,0,0:0:0:0:
256,192,204470,1,4,0:0:0:0:
256,192,204838,1,0,0:0:0:0:
256,192,204930,1,0,0:0:0:0:
256,192,205022,1,0,0:0:0:0:
256,192,205390,1,0,0:0:0:0:
256,192,205482,1,0,0:0:0:0:
256,192,205574,1,0,0:0:0:0:
256,192,205942,1,8,0:0:0:0:
256,192,206034,1,8,0:0:0:0:
256,192,206126,1,0,0:0:0:0:
256,192,206310,1,4,0:0:0:0:
256,192,206862,1,4,0:0:0:0:
256,192,207415,1,4,0:0:0:0:
256,192,207783,1,4,0:0:0:0:
256,192,208519,1,8,0:0:0:0:
256,192,208703,1,8,0:0:0:0:
256,192,208887,1,8,0:0:0:0:
256,192,208979,1,8,0:0:0:0:
256,192,209071,1,8,0:0:0:0:
256,192,209163,1,8,0:0:0:0:
256,192,209255,1,0,0:0:0:0:
256,192,209623,1,8,0:0:0:0:
256,192,210359,1,8,0:0:0:0:
256,192,211096,1,8,0:0:0:0:
256,192,211464,1,8,0:0:0:0:
256,192,211556,1,8,0:0:0:0:
256,192,211648,1,0,0:0:0:0:
256,192,211832,1,8,0:0:0:0:
256,192,211924,1,8,0:0:0:0:
256,192,212016,1,0,0:0:0:0:
256,192,212199,1,8,0:0:0:0:
256,192,212383,1,8,0:0:0:0:
256,192,212567,1,8,0:0:0:0:
256,192,212659,1,8,0:0:0:0:
256,192,212936,1,8,0:0:0:0:
256,192,213120,1,8,0:0:0:0:
256,192,213212,1,8,0:0:0:0:
256,192,213488,1,8,0:0:0:0:
256,192,213672,1,8,0:0:0:0:
256,192,213856,1,8,0:0:0:0:
256,192,214040,1,8,0:0:0:0:
256,192,214408,1,8,0:0:0:0:
256,192,214592,1,8,0:0:0:0:
256,192,214684,1,8,0:0:0:0:
256,192,214868,1,8,0:0:0:0:
256,192,214960,1,8,0:0:0:0:
256,192,215144,1,0,0:0:0:0:
256,192,215328,1,8,0:0:0:0:
256,192,215512,1,0,0:0:0:0:
256,192,215604,1,8,0:0:0:0:
256,192,215788,1,0,0:0:0:0:
256,192,215881,1,8,0:0:0:0:
256,192,216065,1,0,0:0:0:0:
256,192,216157,1,8,0:0:0:0:
256,192,216433,1,8,0:0:0:0:
256,192,216617,1,0,0:0:0:0:
256,192,216801,1,8,0:0:0:0:
256,192,216893,1,0,0:0:0:0:
256,192,216985,1,8,0:0:0:0:
256,192,217169,1,8,0:0:0:0:
256,192,217353,1,8,0:0:0:0:
256,192,217445,1,0,0:0:0:0:
256,192,217537,1,8,0:0:0:0:
256,192,217629,1,8,0:0:0:0:
256,192,217721,1,0,0:0:0:0:
256,192,217813,1,8,0:0:0:0:
256,192,217905,1,8,0:0:0:0:
256,192,217997,1,0,0:0:0:0:
256,192,218089,1,8,0:0:0:0:
256,192,218273,1,8,0:0:0:0:
256,192,218457,1,8,0:0:0:0:
256,192,218549,1,8,0:0:0:0:
256,192,218826,1,8,0:0:0:0:
256,192,219010,1,8,0:0:0:0:
256,192,219102,1,8,0:0:0:0:
256,192,219378,1,8,0:0:0:0:
256,192,219562,1,8,0:0:0:0:
256,192,219746,1,8,0:0:0:0:
256,192,219930,1,8,0:0:0:0:
256,192,220298,1,8,0:0:0:0:
256,192,220482,1,8,0:0:0:0:
256,192,220574,1,8,0:0:0:0:
256,192,220758,1,8,0:0:0:0:
256,192,220850,1,8,0:0:0:0:
256,192,221034,1,0,0:0:0:0:
256,192,221218,1,8,0:0:0:0:
256,192,221402,1,0,0:0:0:0:
256,192,221494,1,8,0:0:0:0:
256,192,221678,1,0,0:0:0:0:
256,192,221771,1,8,0:0:0:0:
256,192,221955,1,0,0:0:0:0:
256,192,222047,1,8,0:0:0:0:
256,192,222323,1,8,0:0:0:0:
256,192,222507,1,0,0:0:0:0:
256,192,222691,1,8,0:0:0:0:
256,192,222783,1,0,0:0:0:0:
256,192,222875,1,8,0:0:0:0:
256,192,223059,1,8,0:0:0:0:
256,192,223243,1,8,0:0:0:0:
256,192,223335,1,0,0:0:0:0:
256,192,223427,1,8,0:0:0:0:
256,192,223519,1,8,0:0:0:0:
256,192,223611,1,0,0:0:0:0:
256,192,223703,1,8,0:0:0:0:
256,192,223795,1,8,0:0:0:0:
256,192,223887,1,0,0:0:0:0:
256,192,223979,1,0,0:0:0:0:
256,192,224163,1,8,0:0:0:0:
256,192,224347,1,8,0:0:0:0:
256,192,224531,1,8,0:0:0:0:
256,192,224715,1,8,0:0:0:0:
256,192,224899,1,8,0:0:0:0:
256,192,225083,1,0,0:0:0:0:
256,192,225175,1,0,0:0:0:0:
256,192,225267,1,8,0:0:0:0:
256,192,225451,1,8,0:0:0:0:
256,192,225635,1,8,0:0:0:0:
256,192,225819,1,8,0:0:0:0:
256,192,226003,1,8,0:0:0:0:
256,192,226187,1,8,0:0:0:0:
256,192,226371,1,8,0:0:0:0:
256,192,226555,1,8,0:0:0:0:
256,192,226647,1,0,0:0:0:0:
256,192,226739,1,8,0:0:0:0:
256,192,226923,1,0,0:0:0:0:
256,192,227015,1,0,0:0:0:0:
256,192,227107,1,8,0:0:0:0:
256,192,227291,1,8,0:0:0:0:
256,192,227475,1,8,0:0:0:0:
256,192,227659,1,0,0:0:0:0:
256,192,227752,1,8,0:0:0:0:
256,192,227936,1,0,0:0:0:0:
256,192,228028,1,8,0:0:0:0:
256,192,228120,1,0,0:0:0:0:
256,192,228212,1,8,0:0:0:0:
256,192,228396,1,8,0:0:0:0:
256,192,228488,1,8,0:0:0:0:
256,192,228580,1,8,0:0:0:0:
256,192,228672,1,8,0:0:0:0:
256,192,228764,1,8,0:0:0:0:
256,192,228948,1,0,0:0:0:0:
256,192,229040,1,0,0:0:0:0:
256,192,229132,1,8,0:0:0:0:
256,192,229224,1,8,0:0:0:0:
256,192,229316,1,8,0:0:0:0:
256,192,229500,1,0,0:0:0:0:
256,192,229684,1,8,0:0:0:0:
256,192,229868,1,8,0:0:0:0:
256,192,229960,1,8,0:0:0:0:
256,192,230052,1,8,0:0:0:0:
256,192,230236,1,8,0:0:0:0:
256,192,230420,1,8,0:0:0:0:
256,192,230604,1,8,0:0:0:0:
256,192,230696,1,8,0:0:0:0:
256,192,230788,1,8,0:0:0:0:
256,192,230880,1,8,0:0:0:0:
256,192,230972,1,8,0:0:0:0:
256,192,231064,1,8,0:0:0:0:
256,192,231156,1,8,0:0:0:0:
256,192,231340,1,0,0:0:0:0:
256,192,231525,1,8,0:0:0:0:
256,192,231709,1,8,0:0:0:0:
256,192,231893,1,8,0:0:0:0:
256,192,232077,1,8,0:0:0:0:
256,192,232261,1,8,0:0:0:0:
256,192,232445,1,8,0:0:0:0:
256,192,232537,1,0,0:0:0:0:
256,192,232721,1,8,0:0:0:0:
256,192,232813,1,0,0:0:0:0:
256,192,232998,1,8,0:0:0:0:
256,192,233182,1,8,0:0:0:0:
256,192,233366,1,8,0:0:0:0:
256,192,233550,1,8,0:0:0:0:
256,192,233734,1,8,0:0:0:0:
256,192,233918,1,8,0:0:0:0:
256,192,234010,1,0,0:0:0:0:
256,192,234194,1,8,0:0:0:0:
256,192,234285,1,0,0:0:0:0:
256,192,234469,1,0,0:0:0:0:
256,192,234653,1,8,0:0:0:0:
256,192,234837,1,4,0:0:0:0:
256,192,235205,1,4,0:0:0:0:
256,192,235574,1,4,0:0:0:0:
256,192,235758,1,0,0:0:0:0:
256,192,235942,1,0,0:0:0:0:
256,192,236034,1,0,0:0:0:0:
256,192,236126,1,8,0:0:0:0:
256,192,236310,1,0,0:0:0:0:
256,192,236678,1,0,0:0:0:0:
256,192,236770,1,0,0:0:0:0:
256,192,236862,1,8,0:0:0:0:
256,192,237046,1,0,0:0:0:0:
256,192,237230,1,0,0:0:0:0:
256,192,237322,1,0,0:0:0:0:
256,192,237414,1,8,0:0:0:0:
256,192,237506,1,0,0:0:0:0:
256,192,237598,1,0,0:0:0:0:
256,192,237690,1,0,0:0:0:0:
256,192,237782,1,8,0:0:0:0:
256,192,237874,1,0,0:0:0:0:
256,192,237966,1,0,0:0:0:0:
256,192,238058,1,0,0:0:0:0:
256,192,238150,1,8,0:0:0:0:
256,192,238242,1,0,0:0:0:0:
256,192,238334,1,8,0:0:0:0:
256,192,238426,1,0,0:0:0:0:
256,192,238610,1,8,0:0:0:0:
256,192,238702,1,8,0:0:0:0:
256,192,238794,1,8,0:0:0:0:
256,192,238886,1,8,0:0:0:0:
256,192,238979,1,8,0:0:0:0:
256,192,239071,1,8,0:0:0:0:
256,192,239163,1,8,0:0:0:0:
256,192,239255,1,8,0:0:0:0:
256,192,239439,1,8,0:0:0:0:
256,192,239531,1,0,0:0:0:0:
256,192,239623,1,8,0:0:0:0:
256,192,239715,1,8,0:0:0:0:
256,192,239807,1,8,0:0:0:0:
256,192,239899,1,0,0:0:0:0:
256,192,239991,1,8,0:0:0:0:
256,192,240175,1,0,0:0:0:0:
256,192,240359,1,0,0:0:0:0:
256,192,240543,1,0,0:0:0:0:
256,192,240911,1,0,0:0:0:0:
256,192,241095,1,0,0:0:0:0:
256,192,241463,1,0,0:0:0:0:
256,192,241647,1,0,0:0:0:0:
256,192,241831,1,0,0:0:0:0:
256,192,242015,1,0,0:0:0:0:
256,192,242383,1,0,0:0:0:0:
256,192,242567,1,0,0:0:0:0:
256,192,242935,1,0,0:0:0:0:
256,192,243120,1,8,0:0:0:0:
256,192,243304,1,8,0:0:0:0:
256,192,243488,1,8,0:0:0:0:
256,192,243856,1,8,0:0:0:0:
256,192,244040,1,0,0:0:0:0:
256,192,244408,1,8,0:0:0:0:
256,192,244960,1,4,0:0:0:0:
