osu file format v12

[General]
AudioFilename: mp3.mp3
AudioLeadIn: 2000
PreviewTime: 110421
Countdown: 0
SampleSet: Normal
StackLeniency: 0.7
Mode: 0
LetterboxInBreaks: 0
WidescreenStoryboard: 1

[Editor]
Bookmarks: 176,25206,54654,110421,142998,179807,265574
DistanceSpacing: 0.5
BeatDivisor: 4
GridSize: 4

[Metadata]
Title:Shinkou -1st Desire-
TitleUnicode:信仰 -1st Desire-
Artist:Tatsh
ArtistUnicode:Tatsh
Creator:jonchua
Version:Lunatic
Source:Touhou
Tags:far east of east vi toyosatomimi no miko shimizu tatsuya yu oda shoutoku legend true administrator ojami neonat psychicrose
BeatmapID:230501
BeatmapSetID:83482

[Difficulty]
HPDrainRate:7
CircleSize:4
OverallDifficulty:8
ApproachRate:9
SliderMultiplier:1.6
SliderTickRate:1

[Events]
//Background and Video events
0,0,"bg.jpg",0,0
//Break Periods
2,23198,24606
//Storyboard Layer 0 (Background)
//Storyboard Layer 1 (Fail)
//Storyboard Layer 2 (Pass)
//Storyboard Layer 3 (Foreground)
//Storyboard Sound Samples
//Background Colour Transformations
3,100,163,162,255

[TimingPoints]
176,368.098159509202,4,2,0,30,1,0
176,-133.333333333333,4,2,0,30,0,0
25206,-100,4,1,0,60,0,0
36617,-66.6666666666667,4,1,0,60,0,0
36985,-100,4,1,0,60,0,0
54654,-100,4,1,0,60,0,0
108212,-200,4,1,0,60,0,0
110421,-100,4,1,0,60,0,0
110605,-100,4,1,0,60,0,1
142998,-100,4,1,0,60,0,0
179347,-100,4,1,0,5,0,0
179531,-100,4,1,0,60,0,0
179807,-100,4,1,0,60,0,1
212200,-100,4,1,0,60,0,0
244961,-100,4,1,0,60,0,1
245053,-100,4,1,0,60,0,0
254899,-100,4,2,0,10,0,0

[Colours]
Combo1 : 255,0,0
Combo2 : 0,200,0
Combo3 : 170,170,255
Combo4 : 200,0,200
Combo5 : 255,255,0

[HitObjects]
176,132,176,2,0,P|208:116|216:76,2,60.0000022888184
332,252,728,1,0,0:0:0:0:
176,132,912,2,0,P|156:188|176:244,1,120.000004577637
256,192,1648,5,0,0:0:0:0:
200,128,3120,6,0,P|256:110|312:128,1,120.000004577637,0|0,0:0|0:0,0:0:0:0:
312,256,3856,2,0,P|256:274|200:256,1,120.000004577637,0|0,0:0|0:0,0:0:0:0:
368,168,4593,6,0,L|400:116,1,60.0000022888184,0|0,0:0|0:0,0:0:0:0:
312,256,4961,1,0,0:0:0:0:
256,340,5145,1,0,0:0:0:0:
200,256,5329,2,0,L|168:308,1,60.0000022888184,0|0,0:0|0:0,0:0:0:0:
256,168,5697,1,0,0:0:0:0:
312,84,5881,1,0,0:0:0:0:
424,84,6065,6,0,L|456:32,1,60.0000022888184,0|0,0:0|0:0,0:0:0:0:
368,172,6433,1,0,0:0:0:0:
312,256,6617,2,0,P|300:312|244:360,1,120.000004577637,0|0,0:0|0:0,0:0:0:0:
200,256,7353,5,0,0:0:0:0:
144,172,7537,2,0,P|135:113|163:61,1,120.000004577637
349,61,8274,2,0,P|377:113|368:172,1,120.000004577637
256,172,9010,6,0,L|256:52,1,120.000004577637,0|0,0:0|0:0,0:0:0:0:
256,256,9746,1,0,0:0:0:0:
256,51,10114,1,0,0:0:0:0:
152,136,10482,6,0,L|96:164,1,60.0000022888184
120,276,10850,1,8,0:0:0:0:
256,256,11034,1,8,0:0:0:0:
360,136,11218,2,0,L|411:167,1,60.0000022888184
392,276,11587,1,8,0:0:0:0:
256,256,11770,1,8,0:0:0:0:
256,136,11955,6,0,L|256:256,1,120.000004577637,0|0,0:0|0:0,0:0:0:0:
350,292,12507,1,0,0:0:0:0:
350,292,12599,1,0,0:0:0:0:
350,292,12691,2,0,P|313:338|256:352,1,120.000004577637
162,292,13427,6,0,P|199:338|256:352,1,120.000004577637
162,292,13979,1,0,0:0:0:0:
108,184,14163,2,0,L|56:152,1,60.0000022888184
164,96,14531,2,0,L|140:40,1,60.0000022888184
258,57,14899,5,0,0:0:0:0:
348,179,15083,1,0,0:0:0:0:
348,28,15268,1,0,0:0:0:0:
258,149,15452,1,0,0:0:0:0:
404,104,15636,2,0,L|464:92,1,60.0000022888184
448,204,16004,1,0,0:0:0:0:
320,264,16188,1,0,0:0:0:0:
296,288,16280,1,0,0:0:0:0:
272,308,16372,6,0,B|224:332|176:308|176:308|184:340,1,120.000004577637,0|0,0:0|0:0,0:0:0:0:
224,224,16924,1,0,0:0:0:0:
224,224,17016,1,0,0:0:0:0:
224,224,17108,1,0,0:0:0:0:
272,308,17292,1,0,0:0:0:0:
248,132,17476,1,0,0:0:0:0:
223,224,17660,1,0,0:0:0:0:
332,84,17844,6,0,P|385:80|414:138,1,120.000004577637
408,252,18396,1,0,0:0:0:0:
416,244,18488,1,0,0:0:0:0:
420,236,18580,2,0,P|366:239|337:181,1,120.000004577637
336,186,19133,1,0,0:0:0:0:
332,84,19317,6,0,P|385:80|414:138,1,120.000004577637,0|0,0:0|0:0,0:0:0:0:
256,192,19869,1,0,0:0:0:0:
180,84,20053,2,0,P|127:80|98:138,1,120.000004577637,0|0,0:0|0:0,0:0:0:0:
256,192,20605,1,0,0:0:0:0:
196,276,20789,5,0,0:0:0:0:
100,324,20973,1,0,0:0:0:0:
316,276,21157,1,0,0:0:0:0:
412,324,21341,1,0,0:0:0:0:
100,324,21525,5,0,0:0:0:0:
256,36,21893,1,0,0:0:0:0:
412,324,22261,1,0,0:0:0:0:
256,192,22814,1,0,0:0:0:0:
256,192,22906,1,0,0:0:0:0:
256,192,22998,1,0,0:0:0:0:
256,280,25206,6,0,B|312:256|312:256|352:296|408:288,1,160,12|0,0:0|0:0,0:0:0:0:
472,136,25758,1,0,0:0:0:0:
440,108,25850,1,0,0:0:0:0:
400,96,25942,2,0,B|351:89|311:129|311:129|255:105,1,160,0|0,0:0|0:0,0:0:0:0:
254,104,26495,1,0,0:0:0:0:
168,256,26679,6,0,B|180:276|180:276|128:296|108:344,2,120,8|0|0,0:0|0:0|0:0,0:0:0:0:
328,157,27415,2,0,L|360:84,1,80,0|0,0:0|0:0,0:0:0:0:
183,157,27783,2,0,L|152:84,1,80,0|0,0:0|0:0,0:0:0:0:
328,156,28151,5,8,0:0:0:0:
152,84,28335,1,0,0:0:0:0:
360,84,28519,1,0,0:0:0:0:
183,157,28703,1,0,0:0:0:0:
356,268,28887,2,0,P|317:262|293:232,1,80,0|0,0:0|0:0,0:0:0:0:
156,268,29255,2,0,P|194:262|218:232,1,80
236,212,29531,1,0,0:0:0:0:
256,192,29623,6,0,B|256:228|256:228|288:268|256:308|256:308|256:344,1,160,8|0,0:0|0:0,0:0:0:0:
96,328,30175,1,0,0:0:0:0:
76,292,30268,1,0,0:0:0:0:
72,252,30360,2,0,P|104:196|160:180,1,120,0|0,0:0|0:0,0:0:0:0:
192,172,30728,1,0,0:0:0:0:
224,148,30820,1,0,0:0:0:0:
240,112,30912,1,0,0:0:0:0:
228,76,31004,1,0,0:0:0:0:
208,40,31096,6,0,P|180:16|120:16,1,80,12|0,0:0|0:0,0:0:0:0:
132,104,31464,1,0,0:0:0:0:
256,244,31648,1,0,0:0:0:0:
284,284,31740,1,0,0:0:0:0:
332,288,31832,2,0,P|384:276|404:240,2,80,0|0|0,0:0|0:0|0:0,0:0:0:0:
464,192,32384,1,0,0:0:0:0:
332,124,32568,6,0,L|332:204,1,80,8|0,0:0|0:0,0:0:0:0:
464,192,32936,1,0,0:0:0:0:
332,124,33120,1,0,0:0:0:0:
200,48,33304,2,0,L|120:48,1,80,0|0,0:0|0:0,0:0:0:0:
332,124,33672,1,0,0:0:0:0:
464,192,33856,1,0,0:0:0:0:
368,330,34041,5,8,0:0:0:0:
192,362,34225,1,0,0:0:0:0:
160,184,34409,1,0,0:0:0:0:
338,153,34593,1,0,0:0:0:0:
161,184,34777,2,0,B|92:136|92:136|76:96,1,120,0|0,0:0|0:0,0:0:0:0:
124,56,35145,2,0,B|159:57|159:57|228:105,1,120
256,140,35513,5,12,0:0:0:0:
276,180,35605,1,0,0:0:0:0:
272,224,35697,1,0,0:0:0:0:
248,260,35789,1,0,0:0:0:0:
212,288,35881,1,0,0:0:0:0:
168,300,35973,1,0,0:0:0:0:
124,292,36065,1,0,0:0:0:0:
84,272,36157,1,0,0:0:0:0:
56,240,36249,2,0,L|48:200,3,40,0|0|0|0,0:0|0:0|0:0|0:0,0:0:0:0:
36,150,36617,6,0,B|65:133|82:163|82:163|88:202|113:171|113:171|143:154|160:184,1,160,2|0,0:0|0:0,0:0:0:0:
188,204,36985,6,0,L|256:248,1,80,12|0,0:0|0:0,0:0:0:0:
276,80,37353,2,0,L|344:124,1,80,0|0,0:0|0:0,0:0:0:0:
232,144,37722,2,0,L|300:188,1,80,0|0,0:0|0:0,0:0:0:0:
320,16,38090,2,0,L|388:60,1,80,0|0,0:0|0:0,0:0:0:0:
420,136,38458,6,0,P|452:112|472:76,1,80,8|0,0:0|0:0,0:0:0:0:
372,305,38826,2,0,P|408:320|449:320,1,80,0|0,0:0|0:0,0:0:0:0:
413,231,39194,2,0,P|452:226|488:205,1,80
305,344,39562,2,0,P|329:375|365:396,1,80,0|0,0:0|0:0,0:0:0:0:
236,212,39930,6,0,B|193:199|193:199|121:223,2,120,12|0|0,0:0|0:0|0:0,0:0:0:0:
112,88,40666,2,0,B|184:64|184:64|268:92,1,160
263,90,41218,1,0,0:0:0:0:
236,212,41402,6,0,L|148:172,1,80,8|0,0:0|0:0,0:0:0:0:
384,252,41771,1,0,0:0:0:0:
264,352,41955,1,0,0:0:0:0:
384,252,42139,2,0,L|472:292,1,80,0|0,0:0|0:0,0:0:0:0:
432,144,42507,1,0,0:0:0:0:
428,100,42599,1,0,0:0:0:0:
416,60,42691,1,0,0:0:0:0:
384,28,42783,1,0,0:0:0:0:
340,16,42875,6,0,L|224:16,2,106.666666666667,12|0|0,0:0|0:0|0:0,0:0:0:0:
180,124,43611,2,0,L|281:89,2,106.666666666667,0|0|0,0:0|0:0|0:0,0:0:0:0:
372,108,44347,6,0,L|283:182,2,106.666666666667,8|0|0,0:0|0:0|0:0,0:0:0:0:
324,296,45083,2,0,L|378:204,2,106.666666666667,0|0|0,0:0|0:0|0:0,0:0:0:0:
376,204,45820,6,0,L|272:224,2,106.666666666667,8|0|0,0:0|0:0|0:0,0:0:0:0:
184,184,46556,2,0,L|277:131,2,106.666666666667
256,8,47292,6,0,L|188:90,2,106.666666666667,8|0|0,0:0|0:0|0:0,0:0:0:0:
256,8,48028,1,4,0:0:0:0:
120,144,48274,1,0,0:0:0:0:
110,154,48396,1,0,0:0:0:0:
99,168,48519,1,0,0:0:0:0:
88,183,48642,1,0,0:0:0:0:
78,197,48764,6,0,P|68:248|107:283,1,106.666666666667,8|0,0:0|0:0,0:0:0:0:
256,194,49255,2,0,L|256:88,1,106.666666666667,0|0,0:0|0:0,0:0:0:0:
448,188,49746,1,0,0:0:0:0:
454,213,49868,1,0,0:0:0:0:
448,239,49991,1,0,0:0:0:0:
430,258,50114,1,0,0:0:0:0:
408,272,50237,6,0,P|356:292|296:280,1,106.666666666667,8|0,0:0|0:0,0:0:0:0:
256,132,50728,1,0,0:0:0:0:
193,279,50973,1,0,0:0:0:0:
256,132,51218,1,0,0:0:0:0:
256,176,51341,1,0,0:0:0:0:
256,220,51464,1,0,0:0:0:0:
256,264,51587,1,0,0:0:0:0:
256,308,51709,6,0,L|256:368,2,53.3333333333333,8|0|0,0:0|0:0|0:0,0:0:0:0:
100,328,52200,2,0,P|84:276|100:220,1,106.666666666667
176,100,52691,1,0,0:0:0:0:
206,57,52813,1,0,0:0:0:0:
256,41,52936,1,0,0:0:0:0:
305,57,53059,1,0,0:0:0:0:
336,100,53182,5,8,0:0:0:0:
415,226,53427,2,0,P|428:276|412:328,1,106.666666666667
320,336,53918,1,0,0:0:0:0:
257,347,54040,1,0,0:0:0:0:
194,339,54163,1,0,0:0:0:0:
136,311,54286,1,0,0:0:0:0:
90,267,54408,1,0,0:0:0:0:
61,210,54531,1,0,0:0:0:0:
50,147,54654,6,0,P|44:104|60:60,1,80,12|0,0:0|0:0,0:0:0:0:
336,148,55022,2,0,P|342:191|326:235,1,80,0|0,0:0|0:0,0:0:0:0:
188,225,55390,2,0,P|178:191|184:148,1,80,0|0,0:0|0:0,0:0:0:0:
462,237,55758,2,0,P|468:280|457:314,1,80,0|0,0:0|0:0,0:0:0:0:
312,304,56126,5,8,0:0:0:0:
340,288,56218,1,0,0:0:0:0:
368,272,56310,1,0,0:0:0:0:
188,224,56495,1,0,0:0:0:0:
192,188,56587,1,0,0:0:0:0:
196,152,56679,1,0,0:0:0:0:
96,320,56863,2,0,L|76:280,3,40
60,244,57231,2,0,L|64:204,3,40
72,160,57599,5,8,0:0:0:0:
84,116,57691,1,0,0:0:0:0:
104,76,57783,1,0,0:0:0:0:
136,44,57875,1,0,0:0:0:0:
180,32,57967,1,0,0:0:0:0:
224,32,58059,1,0,0:0:0:0:
264,48,58151,1,0,0:0:0:0:
296,80,58243,1,0,0:0:0:0:
316,116,58335,2,0,L|320:160,3,40,0|0|0|0,0:0|0:0|0:0|0:0,0:0:0:0:
324,200,58703,2,0,L|344:236,3,40,0|0|0|0,0:0|0:0|0:0|0:0,0:0:0:0:
380,260,59071,5,8,0:0:0:0:
424,264,59163,1,0,0:0:0:0:
464,244,59255,1,0,0:0:0:0:
484,204,59347,1,0,0:0:0:0:
500,164,59439,1,0,0:0:0:0:
496,120,59531,1,0,0:0:0:0:
480,76,59623,1,0,0:0:0:0:
448,48,59715,1,0,0:0:0:0:
408,32,59807,5,0,0:0:0:0:
364,36,59899,1,0,0:0:0:0:
328,64,59991,1,0,0:0:0:0:
308,104,60083,1,0,0:0:0:0:
280,136,60175,1,0,0:0:0:0:
252,168,60268,1,0,0:0:0:0:
216,192,60360,1,0,0:0:0:0:
172,196,60452,1,0,0:0:0:0:
128,196,60544,6,0,B|79:197|79:197|95:133|47:97,1,160,12|0,0:0|0:0,0:0:0:0:
128,196,61096,2,0,B|79:195|79:195|95:259|47:295,1,160,0|0,0:0|0:0,0:0:0:0:
47,97,61648,1,0,0:0:0:0:
47,294,61832,1,0,0:0:0:0:
288,192,62016,6,0,L|368:192,2,80,8|0|0,0:0|0:0|0:0,0:0:0:0:
424,260,62568,2,0,P|460:192|424:124,1,160,0|0,0:0|0:0,0:0:0:0:
212,120,63120,2,0,P|196:156|212:192,1,80
288,152,63488,6,0,P|316:156|336:168,1,40,8|0,0:0|0:0,0:0:0:0:
368,188,63672,1,0,0:0:0:0:
400,224,63764,1,0,0:0:0:0:
412,272,63856,2,0,P|408:300|396:320,1,40,0|0,0:0|0:0,0:0:0:0:
364,340,64041,1,0,0:0:0:0:
316,336,64133,1,0,0:0:0:0:
272,312,64225,2,0,P|256:287|252:264,1,40,0|0,0:0|0:0,0:0:0:0:
236,232,64409,1,0,0:0:0:0:
230,182,64501,1,0,0:0:0:0:
248,136,64593,2,0,P|265:112|285:101,1,40,0|0,0:0|0:0,0:0:0:0:
316,84,64777,1,0,0:0:0:0:
364,80,64869,1,0,0:0:0:0:
400,116,64961,6,0,B|356:192|232:76|388:-24|472:-16|556:164|380:208,1,440,8|0,0:0|0:0,0:0:0:0:
364,236,66065,1,0,0:0:0:0:
332,252,66157,1,0,0:0:0:0:
296,248,66249,1,0,0:0:0:0:
268,224,66341,1,0,0:0:0:0:
280,196,66433,6,0,B|356:188|356:188|272:132|328:8|424:36,1,320,12|4,0:0|0:0,0:0:0:0:
400,112,67353,1,0,0:0:0:0:
256,276,67537,1,0,0:0:0:0:
400,112,67722,1,0,0:0:0:0:
256,276,67906,6,0,P|280:232|268:188,1,80,12|0,0:0|0:0,0:0:0:0:
256,172,68182,1,0,0:0:0:0:
220,156,68274,1,0,0:0:0:0:
164,292,68458,1,0,0:0:0:0:
212,292,68550,1,0,0:0:0:0:
256,276,68642,2,0,P|272:192|216:156,1,160
136,208,69194,1,0,0:0:0:0:
316,324,69378,6,0,P|352:252|343:170,1,160,8|0,0:0|0:0,0:0:0:0:
216,92,69930,1,0,0:0:0:0:
356,176,70114,2,0,P|363:254|327:326,1,160
195,370,70666,1,0,0:0:0:0:
127,159,70850,5,8,0:0:0:0:
306,289,71034,1,0,0:0:0:0:
84,289,71218,1,0,0:0:0:0:
264,160,71402,1,0,0:0:0:0:
184,244,71587,2,0,B|224:224|224:224|272:148,1,120
284,132,71955,1,0,0:0:0:0:
404,72,72139,1,0,0:0:0:0:
460,196,72323,6,0,B|414:212|414:212|379:267|318:248,1,160,8|0,0:0|0:0,0:0:0:0:
345,174,72875,1,0,0:0:0:0:
345,174,72967,1,0,0:0:0:0:
345,174,73059,1,0,0:0:0:0:
308,172,73151,1,0,0:0:0:0:
272,184,73243,1,0,0:0:0:0:
248,212,73335,1,0,0:0:0:0:
240,248,73427,1,0,0:0:0:0:
248,284,73519,1,0,0:0:0:0:
272,312,73611,1,0,0:0:0:0:
304,328,73703,1,0,0:0:0:0:
352,324,73795,6,0,P|398:279|336:173,1,200,12|0,0:0|0:0,0:0:0:0:
308,172,74347,1,0,0:0:0:0:
272,184,74439,1,0,0:0:0:0:
248,212,74531,2,0,P|236:252|252:288,2,80
340,248,75083,1,0,0:0:0:0:
432,216,75268,6,0,P|444:256|428:292,2,80,8|0|0,0:0|0:0|0:0,0:0:0:0:
340,248,75820,1,0,0:0:0:0:
248,212,76004,2,0,L|160:212,1,80
168,212,76372,1,0,0:0:0:0:
240,344,76556,1,0,0:0:0:0:
172,136,76740,5,8,0:0:0:0:
194,284,76924,1,0,0:0:0:0:
200,68,77108,1,0,0:0:0:0:
170,214,77292,1,0,0:0:0:0:
264,104,77476,2,0,P|244:140|236:184,1,80,0|0,0:0|0:0,0:0:0:0:
280,284,77844,2,0,P|252:248|236:204,1,80,0|0,0:0|0:0,0:0:0:0:
200,68,78212,5,8,0:0:0:0:
220,76,78304,1,0,0:0:0:0:
240,84,78396,1,0,0:0:0:0:
260,92,78488,1,0,0:0:0:0:
252,108,78580,5,0,0:0:0:0:
268,116,78672,1,0,0:0:0:0:
288,124,78764,1,0,0:0:0:0:
304,132,78856,1,0,0:0:0:0:
296,152,78949,5,0,0:0:0:0:
312,160,79041,1,0,0:0:0:0:
328,168,79133,1,0,0:0:0:0:
344,176,79225,1,0,0:0:0:0:
328,192,79317,5,0,0:0:0:0:
348,200,79409,1,0,0:0:0:0:
368,208,79501,1,0,0:0:0:0:
384,216,79593,1,0,0:0:0:0:
379,228,79685,6,0,P|395:192|380:156,1,80,12|0,0:0|0:0,0:0:0:0:
291,69,80053,2,0,P|255:53|220:68,1,80
132,157,80421,2,0,P|116:193|132:228,1,80
220,316,80789,2,0,P|256:332|292:316,1,80
396,192,81157,6,0,L|316:192,1,80,8|0,0:0|0:0,0:0:0:0:
256,52,81525,2,0,L|256:132,1,80
116,192,81893,2,0,L|196:192,1,80
256,332,82261,2,0,L|256:252,1,80
256,116,82629,6,0,P|220:184|256:252,1,160,12|0,0:0|0:0,0:0:0:0:
396,192,83182,1,0,0:0:0:0:
384,112,83366,2,0,B|356:60|356:60|320:40,2,80
476,176,83918,1,0,0:0:0:0:
384,252,84102,6,0,P|328:252|276:216,1,120,8|0,0:0|0:0,0:0:0:0:
256,192,84470,2,0,L|256:300,2,80
256,192,85022,1,0,0:0:0:0:
396,192,85206,1,0,0:0:0:0:
364,160,85298,1,0,0:0:0:0:
333,129,85390,1,0,0:0:0:0:
302,98,85482,1,0,0:0:0:0:
271,67,85574,5,12,0:0:0:0:
116,192,85820,1,0,0:0:0:0:
271,67,86065,1,0,0:0:0:0:
212,32,86310,5,0,0:0:0:0:
173,227,86556,1,0,0:0:0:0:
212,32,86801,1,0,0:0:0:0:
144,40,87047,5,8,0:0:0:0:
239,214,87293,1,0,0:0:0:0:
144,40,87538,1,0,0:0:0:0:
92,88,87783,5,0,0:0:0:0:
276,160,88029,1,0,0:0:0:0:
92,88,88274,1,0,0:0:0:0:
88,156,88519,5,8,0:0:0:0:
275,92,88765,1,0,0:0:0:0:
88,156,89010,1,0,0:0:0:0:
124,216,89255,5,0,0:0:0:0:
226,46,89501,1,0,0:0:0:0:
124,216,89746,1,0,0:0:0:0:
191,231,89991,5,8,0:0:0:0:
160,36,90237,1,0,0:0:0:0:
191,231,90482,1,0,0:0:0:0:
160,36,90728,5,0,0:0:0:0:
288,108,90973,1,0,0:0:0:0:
308,112,91096,1,0,0:0:0:0:
324,124,91218,1,0,0:0:0:0:
340,140,91341,1,0,0:0:0:0:
352,160,91464,6,0,P|368:216|348:260,2,106.666666666667,8|0|0,0:0|0:0|0:0,0:0:0:0:
224,104,92200,1,0,0:0:0:0:
191,231,92445,1,0,0:0:0:0:
200,260,92568,1,0,0:0:0:0:
224,280,92690,1,0,0:0:0:0:
256,288,92813,1,0,0:0:0:0:
288,280,92936,5,8,0:0:0:0:
268,196,93181,2,0,P|328:204|368:260,1,106.666666666667
420,328,93672,1,0,0:0:0:0:
360,236,93917,1,0,0:0:0:0:
378,196,94040,1,0,0:0:0:0:
397,156,94163,1,0,0:0:0:0:
415,116,94286,1,0,0:0:0:0:
434,76,94408,6,0,L|456:24,2,53.3333333333333,8|0|0,0:0|0:0|0:0,0:0:0:0:
360,236,94899,1,0,0:0:0:0:
256,64,95144,1,0,0:0:0:0:
152,236,95390,1,0,0:0:0:0:
204,236,95513,1,0,0:0:0:0:
256,236,95635,1,0,0:0:0:0:
308,236,95758,1,0,0:0:0:0:
360,236,95881,5,8,0:0:0:0:
76,44,96126,1,0,0:0:0:0:
152,236,96371,1,0,0:0:0:0:
436,44,96617,1,0,0:0:0:0:
392,96,96740,1,0,0:0:0:0:
348,144,96862,1,0,0:0:0:0:
303,190,96985,1,0,0:0:0:0:
257,235,97108,1,0,0:0:0:0:
212,280,97230,1,0,0:0:0:0:
167,325,97353,6,0,L|108:380,2,80,8|0|0,0:0|0:0|0:0,0:0:0:0:
96,209,97906,2,0,L|16:199,2,80
140,81,98458,2,0,L|96:13,2,80,0|0|8,0:0|0:0|0:0,0:0:0:0:
266,32,99010,5,0,0:0:0:0:
292,68,99102,1,0,0:0:0:0:
320,104,99194,1,0,0:0:0:0:
448,192,99378,1,0,0:0:0:0:
320,280,99562,2,0,L|256:360,1,80
448,192,99930,1,0,0:0:0:0:
288,192,100114,1,0,0:0:0:0:
128,192,100298,6,0,P|208:280|336:272,1,240,12|0,0:0|0:0,0:0:0:0:
344,248,101034,2,0,P|264:160|136:168,1,240,0|0,0:0|0:0,0:0:0:0:
184,212,101771,6,0,B|248:232|256:298|256:298|264:232|328:212,1,240,8|0,0:0|0:0,0:0:0:0:
332,300,102507,2,0,P|256:377|180:300,1,240,0|0,0:0|0:0,0:0:0:0:
136,224,103243,6,0,L|97:199,2,40,8|0|0,0:0|0:0|0:0,0:0:0:0:
172,204,103519,2,0,L|144:168,2,40
212,200,103795,2,0,L|205:154,2,40
248,220,104071,2,0,L|265:177,2,40
268,256,104347,2,0,L|304:228,2,40
268,296,104623,2,0,L|313:289,2,40,0|8|0,0:0|0:0|0:0,0:0:0:0:
248,332,104899,6,0,L|286:349,2,40
208,344,105176,2,0,L|232:378,2,40
168,340,105452,2,0,L|172:381,2,40
140,312,105728,2,0,L|122:350,2,40
132,272,106004,2,0,L|97:296,1,40
200,276,106188,5,12,0:0:0:0:
200,92,106372,1,0,0:0:0:0:
288,212,106556,1,0,0:0:0:0:
288,28,106740,1,0,0:0:0:0:
368,276,106924,1,4,0:0:0:0:
368,92,107108,1,0,0:0:0:0:
452,208,107292,1,0,0:0:0:0:
452,24,107476,6,0,L|452:104,2,80,0|8|0,0:0|0:0|0:0,0:0:0:0:
452,208,108028,1,0,0:0:0:0:
452,24,108212,6,4,B|436:56|436:56|420:24|420:24|404:56|404:56|388:24|388:24|372:56|372:56|356:24,1,200,4|12,0:0|0:0,0:0:0:0:
256,192,110421,5,0,0:0:0:0:
200,32,110605,2,0,P|256:96|320:140,1,160,12|0,0:0|0:0,0:0:0:0:
312,32,111157,2,0,P|256:96|192:140,1,160,0|0,0:0|0:0,0:0:0:0:
316,140,111709,2,0,L|256:192,1,80
196,140,112077,6,0,L|256:192,1,80,8|0,0:0|0:0,0:0:0:0:
288,216,112353,1,0,0:0:0:0:
320,240,112445,1,0,0:0:0:0:
156,356,112629,2,0,B|205:333|205:333|195:272|256:253,1,160,0|0,0:0|0:0,0:0:0:0:
356,356,113182,2,0,B|307:333|307:333|317:272|256:253,1,160,0|8,0:0|0:0,0:0:0:0:
156,356,113734,5,0,0:0:0:0:
352,356,113918,1,0,0:0:0:0:
256,252,114102,2,0,B|279:214|279:214|271:182|271:182|287:142,2,120
253,250,114838,1,0,0:0:0:0:
236,84,115022,6,0,P|312:72|356:132,2,160,8|0|0,0:0|0:0|0:0,0:0:0:0:
284,140,115942,1,0,0:0:0:0:
253,250,116126,1,0,0:0:0:0:
284,140,116310,1,0,0:0:0:0:
284,140,116402,1,0,0:0:0:0:
284,140,116495,6,0,B|321:87|391:125|429:72,1,160,12|0,0:0|0:0,0:0:0:0:
228,140,117047,2,0,B|190:87|120:125|82:72,1,160,0|0,0:0|0:0,0:0:0:0:
340,181,117599,2,0,P|356:152|348:108,1,80
164,108,117967,6,0,P|156:152|184:192,1,80,8|0,0:0|0:0,0:0:0:0:
172,181,118243,1,0,0:0:0:0:
172,181,118335,1,0,0:0:0:0:
256,312,118519,2,0,L|256:224,1,80
256,212,118795,1,0,0:0:0:0:
256,192,118887,1,0,0:0:0:0:
256,72,119071,2,0,L|256:160,1,80
256,172,119347,1,0,0:0:0:0:
256,192,119439,6,0,P|284:272|360:320,1,160,12|0,0:0|0:0,0:0:0:0:
256,192,119991,2,0,P|228:112|152:64,1,160,0|0,0:0|0:0,0:0:0:0:
342,314,120544,1,0,0:0:0:0:
169,69,120728,1,0,0:0:0:0:
256,192,120912,6,0,B|258:259|218:238|218:238|216:283|159:248,2,160,8|0|0,0:0|0:0|0:0,0:0:0:0:
420,60,121832,1,0,0:0:0:0:
256,192,122016,1,0,0:0:0:0:
251,231,122108,1,0,0:0:0:0:
217,238,122200,1,0,0:0:0:0:
194,263,122292,1,0,0:0:0:0:
159,248,122384,6,0,B|123:196|159:180|159:180|195:164|159:112,1,160,12|0,0:0|0:0,0:0:0:0:
353,112,122936,2,0,B|317:164|353:180|353:180|389:196|353:248,1,160,0|0,0:0|0:0,0:0:0:0:
220,256,123488,2,0,L|289:296,1,80
220,128,123856,6,0,L|289:88,1,80,8|0,0:0|0:0,0:0:0:0:
320,76,124133,1,0,0:0:0:0:
352,64,124225,1,0,0:0:0:0:
360,248,124409,2,0,B|312:288|312:288|304:316,2,80
152,248,124961,2,0,B|200:288|200:288|208:316,1,80
324,136,125329,6,0,P|256:100|188:136,1,160,8|0,0:0|0:0,0:0:0:0:
360,268,125881,2,0,P|284:251|255:180,1,160,0|0,0:0|0:0,0:0:0:0:
340,188,126433,1,0,0:0:0:0:
340,188,126525,1,0,0:0:0:0:
340,188,126617,1,0,0:0:0:0:
120,304,126801,5,8,0:0:0:0:
120,304,126893,1,0,0:0:0:0:
120,304,126985,1,0,0:0:0:0:
92,120,127169,1,0,0:0:0:0:
97,80,127261,1,0,0:0:0:0:
120,48,127353,1,0,0:0:0:0:
156,31,127445,1,0,0:0:0:0:
196,32,127537,2,0,P|236:40|264:80,1,80
388,100,127906,2,0,P|348:107|320:147,1,80
188,136,128274,6,0,P|256:100|324:136,1,160,12|0,0:0|0:0,0:0:0:0:
152,268,128826,2,0,P|227:251|256:180,1,160,0|0,0:0|0:0,0:0:0:0:
172,188,129378,1,0,0:0:0:0:
172,188,129470,1,0,0:0:0:0:
172,188,129562,1,0,0:0:0:0:
392,304,129746,5,8,0:0:0:0:
392,304,129838,1,0,0:0:0:0:
392,304,129930,1,0,0:0:0:0:
404,64,130114,2,0,L|381:96,3,40
384,120,130482,2,0,L|336:196,1,80
170,187,130850,2,0,L|128:120,1,80
256,192,131218,6,0,P|291:260|367:270,1,160,8|0,0:0|0:0,0:0:0:0:
256,192,131771,2,0,P|220:260|144:270,1,160,0|0,0:0|0:0,0:0:0:0:
312,136,132323,2,0,P|324:92|356:60,1,80,0|0,0:0|0:0,0:0:0:0:
200,136,132691,6,0,P|188:92|156:60,1,80,12|0,0:0|0:0,0:0:0:0:
256,352,133059,1,0,0:0:0:0:
256,312,133151,1,0,0:0:0:0:
256,272,133243,1,0,0:0:0:0:
256,232,133335,1,0,0:0:0:0:
256,192,133427,2,0,L|199:135,1,80
256,192,133795,2,0,L|312:135,1,80
352,288,134163,6,0,B|364:220|304:204|312:136,1,160,8|0,0:0|0:0,0:0:0:0:
256,312,134715,1,0,0:0:0:0:
200,137,134899,2,0,B|208:204|148:220|160:288,1,160,0|0,0:0|0:0,0:0:0:0:
256,108,135452,1,0,0:0:0:0:
336,216,135636,6,0,B|256:192|256:192|176:216,1,160,8|0,0:0|0:0,0:0:0:0:
140,228,136096,1,0,0:0:0:0:
96,240,136188,1,0,0:0:0:0:
52,252,136280,1,0,0:0:0:0:
8,264,136372,2,0,L|8:344,1,80
8,120,136740,2,0,L|8:40,1,80
168,192,137108,6,0,B|292:240|324:132|256:87|188:132|220:240|344:192,1,320,8|0,0:0|0:0,0:0:0:0:
300,276,138212,2,0,B|280:280|256:272|256:272|232:280|212:276,1,80,0|0,0:0|0:0,0:0:0:0:
136,192,138580,5,8,0:0:0:0:
149,194,138672,1,0,0:0:0:0:
162,195,138764,1,0,0:0:0:0:
175,193,138856,1,0,0:0:0:0:
188,190,138948,1,8,0:0:0:0:
201,186,139040,1,0,0:0:0:0:
212,180,139133,1,0,0:0:0:0:
223,172,139224,1,0,0:0:0:0:
233,163,139316,1,8,0:0:0:0:
241,152,139408,1,0,0:0:0:0:
248,141,139500,1,0,0:0:0:0:
253,128,139592,1,0,0:0:0:0:
257,116,139684,1,8,0:0:0:0:
258,102,139776,1,0,0:0:0:0:
258,89,139868,1,0,0:0:0:0:
256,76,139960,1,0,0:0:0:0:
255,76,140053,5,8,0:0:0:0:
253,89,140145,1,0,0:0:0:0:
253,102,140237,1,0,0:0:0:0:
254,116,140329,1,0,0:0:0:0:
258,128,140421,1,8,0:0:0:0:
263,141,140513,1,0,0:0:0:0:
270,152,140605,1,0,0:0:0:0:
278,163,140697,1,0,0:0:0:0:
288,172,140789,1,8,0:0:0:0:
299,180,140881,1,0,0:0:0:0:
310,186,140973,1,0,0:0:0:0:
323,190,141065,1,0,0:0:0:0:
336,193,141157,1,8,0:0:0:0:
349,195,141249,1,0,0:0:0:0:
362,194,141341,1,0,0:0:0:0:
376,191,141433,1,0,0:0:0:0:
376,192,141525,5,8,0:0:0:0:
362,189,141617,1,0,0:0:0:0:
349,188,141709,1,0,0:0:0:0:
336,190,141801,1,0,0:0:0:0:
323,193,141893,1,8,0:0:0:0:
310,197,141985,1,0,0:0:0:0:
299,203,142077,1,0,0:0:0:0:
288,211,142169,1,0,0:0:0:0:
278,221,142261,1,8,0:0:0:0:
270,231,142353,1,0,0:0:0:0:
263,242,142445,1,0,0:0:0:0:
258,255,142537,1,0,0:0:0:0:
254,267,142629,2,0,L|252:304,7,20,2|2|2|2|2|2|0|0,0:0|0:0|0:0|0:0|0:0|0:0|0:0|0:0,0:0:0:0:
252,308,142998,6,0,P|184:224|276:288,1,320,8|0,0:0|0:0,0:0:0:0:
312,156,143918,2,0,P|344:192|356:232,1,80
252,308,144286,1,0,0:0:0:0:
112,300,144470,6,0,P|128:180|228:132,1,240,8|0,0:0|0:0,0:0:0:0:
192,312,145206,2,0,P|176:352|144:376,1,80
320,312,145574,2,0,P|336:352|368:376,1,80
184,240,145942,6,0,B|228:228|256:206|256:206|284:228|328:240,1,160,8|0,0:0|0:0,0:0:0:0:
488,160,146495,2,0,B|448:96|400:80|384:160|368:236|304:260|296:160|280:-8|232:-8|216:160|208:260|144:236|128:160|112:80|64:96|24:160,1,560,2|0,0:0|0:0,0:0:0:0:
56,272,147967,5,0,0:0:0:0:
96,272,148059,1,0,0:0:0:0:
136,272,148151,1,0,0:0:0:0:
176,272,148243,1,0,0:0:0:0:
216,272,148335,1,0,0:0:0:0:
256,272,148427,1,0,0:0:0:0:
296,272,148519,1,0,0:0:0:0:
336,272,148611,1,0,0:0:0:0:
376,272,148703,1,0,0:0:0:0:
416,272,148795,1,0,0:0:0:0:
456,272,148887,6,0,B|480:192|364:52,1,240,8|0,0:0|0:0,0:0:0:0:
368,56,149623,2,0,P|267:48|228:88,1,160
229,85,150175,1,0,0:0:0:0:
312,136,150360,6,0,B|276:202|215:192|215:192|153:181|118:248,1,240,8|0,0:0|0:0,0:0:0:0:
228,108,151096,2,0,P|206:74|162:53,1,80
200,276,151464,2,0,P|221:309|265:330,1,80
152,212,151832,6,0,P|226:195|272:255,1,160,12|0,0:0|0:0,0:0:0:0:
384,260,152384,2,0,B|348:264|348:264|330:341|228:356|200:276,1,240,0|0,0:0|0:0,0:0:0:0:
200,276,153120,1,0,0:0:0:0:
276,248,153304,5,12,0:0:0:0:
153,213,153488,1,0,0:0:0:0:
276,248,153672,1,0,0:0:0:0:
165,137,153856,1,0,0:0:0:0:
276,248,154041,1,0,0:0:0:0:
219,87,154225,1,0,0:0:0:0:
276,248,154409,1,0,0:0:0:0:
291,74,154593,1,0,0:0:0:0:
276,248,154777,6,0,B|276:292|276:292|276:312|292:328|312:328|312:328|372:300|436:328|436:328|452:328|468:312|468:288|468:288|468:252,1,320,12|0,0:0|0:0,0:0:0:0:
461,129,155697,1,0,0:0:0:0:
460,78,155789,1,0,0:0:0:0:
460,31,155881,1,0,0:0:0:0:
408,192,156065,1,0,0:0:0:0:
288,71,156249,6,0,L|245:37,2,40,8|0|0,0:0|0:0|0:0,0:0:0:0:
468,253,156617,1,0,0:0:0:0:
460,32,156801,2,0,L|420:32,2,40
460,32,157169,1,0,0:0:0:0:
288,72,157353,1,0,0:0:0:0:
148,184,157537,1,0,0:0:0:0:
52,336,157722,6,0,B|113:321|149:368|205:321|205:321|253:377|296:337|354:362,1,320,8|0,0:0|0:0,0:0:0:0:
468,248,158642,1,0,0:0:0:0:
448,208,158734,1,0,0:0:0:0:
408,184,158826,1,0,0:0:0:0:
354,362,159010,1,0,0:0:0:0:
408,184,159194,6,0,B|388:172|388:172|368:184|368:184|348:172|348:172|328:184|328:184|260:184,2,160,10|0|0,0:0|0:0|0:0,0:0:0:0:
452,184,160022,1,0,0:0:0:0:
496,184,160114,1,0,0:0:0:0:
354,362,160298,1,0,0:0:0:0:
320,336,160390,1,0,0:0:0:0:
300,296,160482,1,0,0:0:0:0:
296,252,160574,1,0,0:0:0:0:
312,212,160666,5,8,0:0:0:0:
356,204,160758,1,0,0:0:0:0:
396,224,160850,1,0,0:0:0:0:
404,268,160942,1,0,0:0:0:0:
368,292,161034,1,0,0:0:0:0:
324,288,161126,1,0,0:0:0:0:
296,252,161218,1,0,0:0:0:0:
280,212,161310,1,0,0:0:0:0:
252,176,161402,1,0,0:0:0:0:
216,148,161495,1,0,0:0:0:0:
176,132,161587,1,0,0:0:0:0:
132,136,161679,1,0,0:0:0:0:
96,160,161771,1,0,0:0:0:0:
72,196,161863,1,0,0:0:0:0:
68,236,161955,1,0,0:0:0:0:
68,276,162047,1,0,0:0:0:0:
88,312,162139,5,8,0:0:0:0:
120,336,162231,1,0,0:0:0:0:
160,352,162323,1,0,0:0:0:0:
207,364,162415,1,0,0:0:0:0:
250,368,162507,1,0,0:0:0:0:
294,361,162599,1,0,0:0:0:0:
334,343,162691,1,0,0:0:0:0:
369,316,162783,1,0,0:0:0:0:
396,281,162875,1,0,0:0:0:0:
413,241,162967,1,0,0:0:0:0:
420,197,163059,1,0,0:0:0:0:
416,153,163151,1,0,0:0:0:0:
400,112,163243,1,0,0:0:0:0:
376,76,163335,1,0,0:0:0:0:
342,47,163427,1,0,0:0:0:0:
303,27,163519,1,0,0:0:0:0:
260,18,163611,6,0,B|216:20,3,40,12|0|0|0,0:0|0:0|0:0|0:0,0:0:0:0:
174,31,163979,2,0,L|136:52,3,40
105,85,164347,1,0,0:0:0:0:
83,123,164439,1,0,0:0:0:0:
71,165,164532,1,0,0:0:0:0:
70,209,164624,1,0,0:0:0:0:
79,252,164716,1,0,0:0:0:0:
108,284,164807,1,0,0:0:0:0:
148,300,164899,1,0,0:0:0:0:
192,304,164991,1,0,0:0:0:0:
236,292,165083,5,12,0:0:0:0:
268,264,165175,1,0,0:0:0:0:
276,220,165268,1,0,0:0:0:0:
288,180,165360,1,0,0:0:0:0:
308,140,165452,1,0,0:0:0:0:
336,108,165544,1,0,0:0:0:0:
378,91,165636,1,0,0:0:0:0:
421,96,165728,1,0,0:0:0:0:
458,121,165820,1,0,0:0:0:0:
478,160,165912,1,0,0:0:0:0:
478,204,166004,1,0,0:0:0:0:
458,243,166096,1,0,0:0:0:0:
421,268,166188,1,0,0:0:0:0:
378,273,166280,1,0,0:0:0:0:
337,258,166372,1,0,0:0:0:0:
308,225,166464,1,0,0:0:0:0:
297,182,166556,6,8,P|332:112|408:92,4,160,12|0|0|0|8,0:0|0:0|0:0|0:0|0:0,0:0:0:0:
105,91,168212,6,0,P|180:112|215:182,1,160,0|0,0:0|0:0,0:0:0:0:
392,184,168764,1,0,0:0:0:0:
144,272,169041,1,0,0:0:0:0:
468,344,169317,1,0,0:0:0:0:
468,180,169501,5,8,0:0:0:0:
452,140,169593,1,0,0:0:0:0:
416,116,169685,1,0,0:0:0:0:
372,116,169777,1,0,0:0:0:0:
336,144,169869,2,0,L|320:184,3,40
332,224,170237,2,0,L|360:252,3,40
332,224,170605,1,0,0:0:0:0:
239,53,170789,1,0,0:0:0:0:
146,224,170973,5,8,0:0:0:0:
332,224,171157,1,0,0:0:0:0:
239,53,171341,1,0,0:0:0:0:
148,224,171525,2,0,P|202:280|278:304,1,160,0|0,0:0|0:0,0:0:0:0:
278,304,172077,1,0,0:0:0:0:
312,124,172261,1,0,0:0:0:0:
360,128,172353,1,0,0:0:0:0:
404,148,172445,5,8,0:0:0:0:
492,352,172629,1,0,0:0:0:0:
256,304,172814,2,0,L|216:292,1,40
180,280,172998,1,0,0:0:0:0:
404,220,173182,2,0,L|364:208,1,40
328,196,173366,1,0,0:0:0:0:
100,120,173550,2,0,L|140:132,1,40
176,144,173734,1,0,0:0:0:0:
392,80,173918,6,8,L|352:68,1,40,8|0,0:0|0:0,0:0:0:0:
316,56,174102,1,0,0:0:0:0:
116,196,174286,2,0,L|148:168,1,40
176,144,174470,1,0,0:0:0:0:
396,236,174654,2,0,L|360:212,1,40
328,196,174838,1,0,0:0:0:0:
140,344,175022,2,0,L|172:316,1,40
200,292,175206,1,0,0:0:0:0:
232,268,175298,1,0,0:0:0:0:
264,244,175390,6,0,P|256:160|312:116,2,160,8|0|0,0:0|0:0|0:0,0:0:0:0:
388,144,176310,2,0,P|364:176|324:196,1,80
156,224,176679,1,0,0:0:0:0:
116,244,176771,1,0,0:0:0:0:
88,276,176863,6,0,P|80:331|132:352,1,120,8|0,0:0|0:0,0:0:0:0:
144,352,177231,1,0,0:0:0:0:
356,224,177415,1,0,0:0:0:0:
396,244,177507,1,0,0:0:0:0:
424,276,177599,2,0,B|416:312|432:332|432:332|380:300|324:332,1,160
256,192,178335,12,0,179439,0:0:0:0:
256,192,179623,5,0,0:0:0:0:
264,36,179807,2,0,B|264:76|264:76|344:88|368:160,1,160,12|0,0:0|0:0,0:0:0:0:
248,348,180360,2,0,B|248:308|248:308|168:296|144:224,1,160
388,228,180912,2,0,P|366:264|332:288,1,80,0|0,0:0|0:0,0:0:0:0:
124,156,181280,6,0,P|146:120|180:96,1,80,8|0,0:0|0:0,0:0:0:0:
216,72,181556,1,0,0:0:0:0:
264,60,181648,1,0,0:0:0:0:
176,220,181832,2,0,B|212:245|212:245|222:286|264:281|264:281|300:307,1,160
460,156,182384,2,0,P|476:192|460:228,1,80
176,164,182752,6,0,B|212:138|212:138|222:97|264:102|264:102|300:76,1,160,8|0,0:0|0:0,0:0:0:0:
376,276,183304,2,0,P|439:229|433:152,1,160,0|0,0:0|0:0,0:0:0:0:
136,108,183856,2,0,P|72:154|78:231,1,160,0|8,0:0|0:0,0:0:0:0:
360,188,184409,6,0,P|348:140|372:104,1,80
152,196,184777,2,0,P|164:244|140:280,1,80
256,192,185145,1,0,0:0:0:0:
349,119,185329,1,0,0:0:0:0:
306,87,185421,1,0,0:0:0:0:
256,73,185513,1,0,0:0:0:0:
206,86,185605,1,0,0:0:0:0:
168,120,185697,6,0,B|141:150|105:152|105:152|62:245,1,160,12|0,0:0|0:0,0:0:0:0:
346,120,186249,2,0,B|373:151|409:153|409:153|452:246,1,160,0|0,0:0|0:0,0:0:0:0:
100,68,186801,2,0,P|140:40|180:36,1,80
412,68,187169,6,0,P|372:40|341:35,1,80,8|0,0:0|0:0,0:0:0:0:
312,36,187445,1,0,0:0:0:0:
291,42,187537,1,0,0:0:0:0:
320,272,187722,2,0,P|358:258|389:232,2,80
124,233,188274,2,0,P|153:258|192:272,1,80
257,39,188642,6,0,B|300:96|296:152|296:152|314:185,1,160,12|0,0:0|0:0,0:0:0:0:
254,39,189194,2,0,B|212:96|216:152|216:152|197:185,1,160,0|0,0:0|0:0,0:0:0:0:
384,40,189746,2,0,L|420:112,1,80
484,248,190114,5,8,0:0:0:0:
464,292,190206,1,0,0:0:0:0:
448,336,190298,1,0,0:0:0:0:
304,296,190482,1,8,0:0:0:0:
320,252,190574,1,0,0:0:0:0:
340,208,190666,1,0,0:0:0:0:
196,168,190850,1,8,0:0:0:0:
176,212,190942,1,0,0:0:0:0:
160,256,191034,1,0,0:0:0:0:
16,216,191218,1,8,0:0:0:0:
32,172,191310,1,0,0:0:0:0:
52,128,191402,1,0,0:0:0:0:
76,84,191495,1,0,0:0:0:0:
96,40,191587,6,0,P|180:52|244:88,1,160,12|0,0:0|0:0,0:0:0:0:
416,344,192139,2,0,P|332:332|268:296,1,160,0|0,0:0|0:0,0:0:0:0:
388,128,192691,2,0,P|344:116|320:80,1,80
124,256,193059,6,0,P|168:268|192:304,1,80,8|0,0:0|0:0,0:0:0:0:
388,128,193427,1,0,0:0:0:0:
388,128,193519,1,0,0:0:0:0:
388,128,193611,2,0,P|396:208|436:276,1,160
124,256,194163,2,0,P|116:176|76:108,1,160,0|8,0:0|0:0,0:0:0:0:
48,72,194623,5,0,0:0:0:0:
12,40,194715,1,0,0:0:0:0:
256,108,194899,1,0,0:0:0:0:
216,336,195083,2,0,P|198:262|124:258,1,160,0|0,0:0|0:0,0:0:0:0:
156,76,195636,2,0,L|92:28,1,80
156,308,196004,6,0,L|92:356,1,80,8|0,0:0|0:0,0:0:0:0:
212,192,196372,1,0,0:0:0:0:
260,192,196464,1,0,0:0:0:0:
308,192,196556,1,0,0:0:0:0:
356,192,196648,1,0,0:0:0:0:
404,192,196740,2,0,L|484:192,1,80
108,192,197108,2,0,L|28:192,1,80
364,124,197476,6,0,P|328:192|364:260,1,160,12|0,0:0|0:0,0:0:0:0:
148,260,198028,2,0,P|184:192|148:124,1,160,0|0,0:0|0:0,0:0:0:0:
292,304,198580,2,0,P|256:288|220:304,1,80
220,80,198949,6,0,P|256:96|292:80,1,80,8|0,0:0|0:0,0:0:0:0:
324,44,199225,1,0,0:0:0:0:
368,28,199317,1,0,0:0:0:0:
416,36,199409,1,0,0:0:0:0:
452,68,199501,1,0,0:0:0:0:
468,112,199593,1,0,0:0:0:0:
456,160,199685,2,0,L|408:236,1,80
98,227,200053,2,0,L|56:160,1,80
324,244,200421,6,0,P|372:308|448:312,1,160,12|0,0:0|0:0,0:0:0:0:
188,244,200973,2,0,P|140:308|64:312,1,160
384,124,201525,2,0,L|336:56,1,80
128,124,201893,6,0,L|176:56,1,80,8|0,0:0|0:0,0:0:0:0:
224,60,202169,1,0,0:0:0:0:
272,60,202261,1,0,0:0:0:0:
320,60,202353,1,0,0:0:0:0:
368,60,202445,1,0,0:0:0:0:
416,60,202537,1,0,0:0:0:0:
464,60,202629,2,0,P|492:88|504:128,1,80
464,324,202998,2,0,P|492:296|504:256,1,80
300,176,203366,6,0,P|360:236|436:256,1,160,8|0,0:0|0:0,0:0:0:0:
368,60,203918,1,0,0:0:0:0:
212,208,204102,2,0,P|152:148|76:128,1,160,0|0,0:0|0:0,0:0:0:0:
144,324,204654,1,0,0:0:0:0:
416,324,204838,5,8,0:0:0:0:
368,324,204930,1,0,0:0:0:0:
320,324,205022,1,0,0:0:0:0:
116,208,205206,1,8,0:0:0:0:
164,208,205298,1,0,0:0:0:0:
212,208,205390,1,0,0:0:0:0:
340,68,205574,2,0,L|404:120,1,80
172,316,205942,2,0,L|108:264,1,80
280,192,206310,6,0,B|316:120|316:120|344:32|256:88|256:88|168:32|196:120|196:120|232:192,1,400,8|0,0:0|0:0,0:0:0:0:
216,324,207415,2,0,B|256:332|256:332|296:324,1,80,0|0,0:0|0:0,0:0:0:0:
328,252,207783,5,8,0:0:0:0:
328,240,207875,1,0,0:0:0:0:
328,228,207967,1,0,0:0:0:0:
328,216,208059,1,0,0:0:0:0:
328,204,208151,1,8,0:0:0:0:
328,192,208243,1,0,0:0:0:0:
328,180,208335,1,0,0:0:0:0:
328,168,208427,1,0,0:0:0:0:
328,156,208519,1,8,0:0:0:0:
328,144,208611,1,0,0:0:0:0:
328,132,208703,1,0,0:0:0:0:
316,132,208795,1,0,0:0:0:0:
304,132,208887,1,8,0:0:0:0:
292,132,208979,1,0,0:0:0:0:
280,132,209071,1,0,0:0:0:0:
268,132,209163,1,0,0:0:0:0:
256,132,209255,5,8,0:0:0:0:
244,132,209347,1,0,0:0:0:0:
232,132,209439,1,0,0:0:0:0:
220,132,209531,1,0,0:0:0:0:
208,132,209623,1,8,0:0:0:0:
196,132,209715,1,0,0:0:0:0:
196,144,209807,1,0,0:0:0:0:
196,156,209899,1,0,0:0:0:0:
196,168,209991,1,8,0:0:0:0:
196,180,210083,1,0,0:0:0:0:
196,192,210175,1,0,0:0:0:0:
196,204,210267,1,0,0:0:0:0:
196,216,210359,1,8,0:0:0:0:
196,228,210451,1,0,0:0:0:0:
196,240,210543,1,0,0:0:0:0:
196,252,210635,1,0,0:0:0:0:
196,264,210727,5,8,0:0:0:0:
208,264,210819,1,0,0:0:0:0:
220,264,210911,1,0,0:0:0:0:
232,264,211003,1,0,0:0:0:0:
244,264,211095,1,8,0:0:0:0:
256,264,211187,1,0,0:0:0:0:
268,264,211279,1,0,0:0:0:0:
280,264,211371,1,0,0:0:0:0:
292,264,211463,1,8,0:0:0:0:
304,264,211555,1,0,0:0:0:0:
316,264,211647,1,0,0:0:0:0:
328,264,211739,1,0,0:0:0:0:
348,264,211832,2,2,L|368:264,7,20
376,248,212200,5,12,0:0:0:0:
412,228,212292,1,0,0:0:0:0:
440,200,212384,1,0,0:0:0:0:
456,164,212476,1,0,0:0:0:0:
456,124,212568,1,0,0:0:0:0:
444,88,212660,1,0,0:0:0:0:
420,56,212752,1,0,0:0:0:0:
388,32,212844,1,0,0:0:0:0:
348,24,212936,1,0,0:0:0:0:
308,32,213028,1,0,0:0:0:0:
276,52,213120,1,0,0:0:0:0:
284,92,213212,1,0,0:0:0:0:
244,100,213304,1,0,0:0:0:0:
240,140,213396,1,0,0:0:0:0:
200,144,213488,1,0,0:0:0:0:
200,184,213580,1,0,0:0:0:0:
160,192,213672,5,8,0:0:0:0:
156,232,213764,1,0,0:0:0:0:
116,232,213856,1,0,0:0:0:0:
116,272,213949,1,0,0:0:0:0:
76,264,214041,1,0,0:0:0:0:
76,304,214133,1,0,0:0:0:0:
92,340,214225,1,0,0:0:0:0:
128,360,214317,1,0,0:0:0:0:
168,364,214409,1,0,0:0:0:0:
208,356,214501,1,0,0:0:0:0:
236,328,214593,1,0,0:0:0:0:
252,292,214685,1,0,0:0:0:0:
252,252,214777,1,0,0:0:0:0:
232,216,214869,1,0,0:0:0:0:
200,184,214961,1,0,0:0:0:0:
180,148,215053,1,0,0:0:0:0:
180,108,215145,6,0,P|268:104|256:152,1,160,8|0,0:0|0:0,0:0:0:0:
262,144,215697,1,0,0:0:0:0:
136,240,215881,1,0,0:0:0:0:
116,76,216065,1,0,0:0:0:0:
262,144,216249,1,0,0:0:0:0:
136,240,216433,5,0,0:0:0:0:
128,248,216525,1,0,0:0:0:0:
120,256,216617,1,8,0:0:0:0:
112,264,216709,1,0,0:0:0:0:
120,304,216801,5,0,0:0:0:0:
148,332,216893,1,0,0:0:0:0:
184,344,216985,1,0,0:0:0:0:
224,348,217077,1,0,0:0:0:0:
264,344,217169,1,0,0:0:0:0:
304,332,217261,1,0,0:0:0:0:
336,308,217353,1,0,0:0:0:0:
348,268,217445,1,0,0:0:0:0:
344,228,217537,1,0,0:0:0:0:
316,200,217629,1,0,0:0:0:0:
276,192,217722,1,0,0:0:0:0:
240,208,217814,1,0,0:0:0:0:
204,192,217906,1,0,0:0:0:0:
168,212,217998,1,0,0:0:0:0:
136,188,218090,6,0,B|104:176|104:176|144:116|104:48,1,160,8|0,0:0|0:0,0:0:0:0:
108,56,218642,1,0,0:0:0:0:
272,188,218826,2,0,P|268:124|224:88,1,120
192,72,219194,1,0,0:0:0:0:
36,112,219378,1,0,0:0:0:0:
80,208,219562,5,8,0:0:0:0:
141,290,219746,2,0,L|121:326,1,40
184,327,219930,2,0,L|178:369,1,40
235,343,220114,2,0,L|243:384,1,40
288,341,220298,2,0,L|310:377,1,40
337,321,220482,2,0,L|370:347,1,40
377,286,220666,2,0,L|417:299,1,40
401,238,220850,2,8,L|443:237,1,40,0|0,0:0|0:0,0:0:0:0:
256,192,221034,12,0,223243,0:0:0:0:
44,360,223611,6,0,L|100:304,1,80
188,140,223979,6,0,B|116:108|76:216|116:252|200:292|228:192|228:192|252:96|344:132|384:168|340:292|244:232,1,560,12|0,0:0|0:0,0:0:0:0:
92,84,225452,6,0,P|36:192|92:300,1,240,8|0,0:0|0:0,0:0:0:0:
280,232,226188,2,0,P|201:309|81:293,1,240,0|0,0:0|0:0,0:0:0:0:
184,156,226924,6,0,P|222:322|390:254,1,400,8|0,0:0|0:0,0:0:0:0:
184,156,228028,2,0,L|104:156,1,80,0|0,0:0|0:0,0:0:0:0:
304,252,228396,6,0,B|268:212|268:212|316:152|268:92|268:92|304:52,1,240,8|0,0:0|0:0,0:0:0:0:
368,4,229133,1,0,0:0:0:0:
448,144,229501,1,0,0:0:0:0:
344,272,229869,6,0,L|180:272,3,160,12|0|0|0,0:0|0:0|0:0|0:0,0:0:0:0:
288,104,231157,2,0,P|331:99|369:65,1,80,0|8,0:0|0:0,0:0:0:0:
185,272,231525,5,0,0:0:0:0:
284,96,231709,2,0,P|326:87|361:50,1,80,0|0,0:0|0:0,0:0:0:0:
185,272,232077,1,0,0:0:0:0:
292,104,232261,6,0,P|335:108|373:142,2,80,0|0|0,0:0|0:0|0:0,0:0:0:0:
252,112,232722,1,0,0:0:0:0:
216,132,232814,6,0,P|172:127|134:93,1,80,12|0,0:0|0:0,0:0:0:0:
256,232,233182,1,0,0:0:0:0:
176,292,233366,2,0,B|220:276|220:336|220:336|255:372|292:336|292:336|292:276|336:292,1,240,0|0,0:0|0:0,0:0:0:0:
175,292,234102,2,0,L|108:216,1,80,0|8,0:0|0:0,0:0:0:0:
336,292,234470,6,0,L|404:216,1,80
176,292,234838,1,0,0:0:0:0:
361,185,235022,1,0,0:0:0:0:
176,78,235206,1,0,0:0:0:0:
260,306,235390,5,0,0:0:0:0:
333,105,235574,1,0,0:0:0:0:
123,142,235758,1,8,0:0:0:0:
333,264,235942,5,0,0:0:0:0:
260,63,236126,1,0,0:0:0:0:
123,227,236310,2,0,L|202:201,1,80
400,152,236679,2,0,P|408:192|396:232,1,80,0|0,0:0|0:0,0:0:0:0:
294,47,237047,2,0,P|332:60|361:90,1,80,0|8,0:0|0:0,0:0:0:0:
150,87,237415,6,0,P|180:60|221:50,1,80,0|0,0:0|0:0,0:0:0:0:
112,232,237783,2,0,P|104:192|116:152,1,80,0|0,0:0|0:0,0:0:0:0:
220,336,238151,5,0,0:0:0:0:
114,154,238335,1,0,0:0:0:0:
296,48,238519,1,0,0:0:0:0:
369,239,238703,5,8,0:0:0:0:
342,278,238795,1,0,0:0:0:0:
303,305,238887,1,0,0:0:0:0:
256,315,238979,1,0,0:0:0:0:
208,305,239071,1,8,0:0:0:0:
169,278,239163,1,0,0:0:0:0:
142,239,239255,1,0,0:0:0:0:
132,191,239347,1,0,0:0:0:0:
142,144,239439,1,8,0:0:0:0:
169,105,239531,1,0,0:0:0:0:
208,78,239623,1,0,0:0:0:0:
256,68,239715,1,0,0:0:0:0:
303,78,239807,1,8,0:0:0:0:
342,105,239899,1,0,0:0:0:0:
369,144,239991,1,0,0:0:0:0:
379,192,240083,1,0,0:0:0:0:
341,227,240175,5,8,0:0:0:0:
321,257,240268,1,0,0:0:0:0:
291,277,240360,1,0,0:0:0:0:
256,284,240452,1,0,0:0:0:0:
220,277,240544,1,8,0:0:0:0:
190,257,240636,1,0,0:0:0:0:
170,227,240728,1,0,0:0:0:0:
163,191,240820,1,0,0:0:0:0:
170,156,240912,1,8,0:0:0:0:
190,126,241004,1,0,0:0:0:0:
220,106,241096,1,0,0:0:0:0:
256,99,241188,1,0,0:0:0:0:
291,106,241280,1,8,0:0:0:0:
321,126,241372,1,0,0:0:0:0:
341,156,241464,1,0,0:0:0:0:
348,192,241556,1,0,0:0:0:0:
322,219,241648,5,8,0:0:0:0:
306,242,241740,1,0,0:0:0:0:
283,258,241832,1,0,0:0:0:0:
256,263,241924,1,0,0:0:0:0:
228,258,242016,1,8,0:0:0:0:
205,242,242108,1,0,0:0:0:0:
189,219,242200,1,0,0:0:0:0:
184,192,242292,1,0,0:0:0:0:
189,164,242384,1,8,0:0:0:0:
205,141,242476,1,0,0:0:0:0:
228,125,242568,1,0,0:0:0:0:
256,120,242660,1,0,0:0:0:0:
283,125,242752,1,8,0:0:0:0:
306,141,242844,1,0,0:0:0:0:
322,164,242936,1,0,0:0:0:0:
327,192,243028,1,0,0:0:0:0:
299,211,243120,5,8,0:0:0:0:
288,227,243212,1,0,0:0:0:0:
270,237,243304,1,0,0:0:0:0:
250,239,243396,1,0,0:0:0:0:
231,233,243488,1,8,0:0:0:0:
217,220,243580,1,0,0:0:0:0:
208,202,243672,1,0,0:0:0:0:
208,182,243764,1,0,0:0:0:0:
212,164,243856,2,2,L|211:144,16,20
464,48,244961,5,6,0:0:0:0:
256,192,245053,12,0,254899,0:0:0:0:
