osu file format v12

[General]
AudioFilename: mp3.mp3
AudioLeadIn: 2000
PreviewTime: 110421
Countdown: 0
SampleSet: Normal
StackLeniency: 0.7
Mode: 0
LetterboxInBreaks: 0
WidescreenStoryboard: 1

[Editor]
Bookmarks: 176,25206,54654,110421,142998,179807,265574
DistanceSpacing: 1.2
BeatDivisor: 3
GridSize: 4

[Metadata]
Title:Shinkou -1st Desire-
TitleUnicode:信仰 -1st Desire-
Artist:Tatsh
ArtistUnicode:Tatsh
Creator:jonchua
Version:Hard
Source:Touhou
Tags:far east of east vi toyosatomimi no miko shimizu tatsuya yu oda shoutoku legend true administrator ojami neonat psychicrose
BeatmapID:235300
BeatmapSetID:83482

[Difficulty]
HPDrainRate:7
CircleSize:4
OverallDifficulty:6
ApproachRate:8
SliderMultiplier:1.6
SliderTickRate:1

[Events]
//Background and Video events
0,0,"bg.jpg",0,0
//Break Periods
2,23198,24456
2,97553,109671
//Storyboard Layer 0 (Background)
//Storyboard Layer 1 (Fail)
//Storyboard Layer 2 (Pass)
//Storyboard Layer 3 (Foreground)
//Storyboard Sound Samples
//Background Colour Transformations
3,100,163,162,255

[TimingPoints]
176,368.098159509202,4,2,0,30,1,0
176,-133.333333333333,4,2,0,30,0,0
25206,-100,4,1,0,60,0,0
54654,-100,4,1,0,60,0,0
110605,-100,4,1,0,60,0,1
142998,-100,4,1,0,60,0,0
179807,-100,4,1,0,60,0,1
212200,-100,4,1,0,60,0,0
244961,-100,4,1,0,60,0,1
245053,-100,4,1,0,60,0,0
254899,-100,4,2,0,10,0,0

[Colours]
Combo1 : 255,0,0
Combo2 : 0,200,0
Combo3 : 170,170,255
Combo4 : 200,0,200
Combo5 : 255,255,0

[HitObjects]
128,160,176,2,0,P|168:112|224:104,1,120.000004577637,0|0,0:0|0:0,0:0:0:0:
208,188,728,2,0,L|208:248,1,60.0000022888184,0|0,0:0|0:0,0:0:0:0:
208,248,1648,5,0,0:0:0:0:
256,48,3120,5,0,0:0:0:0:
256,192,3856,1,0,0:0:0:0:
256,48,4593,6,0,P|225:39|196:48,1,60.0000022888184,0|0,0:0|0:0,0:0:0:0:
160,108,4961,2,0,P|151:138|160:168,1,60.0000022888184,0|0,0:0|0:0,0:0:0:0:
220,204,5329,2,0,P|250:212|280:204,1,60.0000022888184,0|0,0:0|0:0,0:0:0:0:
340,168,5697,2,0,P|346:139|338:110,1,60.0000022888184,0|0,0:0|0:0,0:0:0:0:
308,44,6065,6,0,P|340:36|376:48,1,60.0000022888184,0|0,0:0|0:0,0:0:0:0:
204,44,6433,2,0,P|172:36|136:48,1,60.0000022888184,0|0,0:0|0:0,0:0:0:0:
256,192,7353,6,0,L|256:256,1,60.0000022888184,0|0,0:0|0:0,0:0:0:0:
256,108,8274,5,0,0:0:0:0:
256,252,9010,5,0,0:0:0:0:
256,108,9746,1,0,0:0:0:0:
256,36,10114,1,0,0:0:0:0:
256,108,10482,6,0,L|216:156,1,60.0000022888184,0|0,0:0|0:0,0:0:0:0:
144,156,10850,2,0,L|105:109,1,60.0000022888184,8|8,0:0|0:0,0:0:0:0:
160,64,11218,5,0,0:0:0:0:
92,40,11402,1,0,0:0:0:0:
36,88,11586,1,8,0:0:0:0:
48,160,11771,1,8,0:0:0:0:
36,232,11955,2,0,P|56:292|112:312,1,120.000004577637,0|0,0:0|0:0,0:0:0:0:
108,240,12507,2,0,L|132:216,2,30.0000011444092,0|0|0,0:0|0:0|0:0,0:0:0:0:
396,236,13427,6,0,P|376:296|320:316,1,120.000004577637,0|0,0:0|0:0,0:0:0:0:
324,244,13979,1,0,0:0:0:0:
260,212,14163,2,0,P|228:204|208:172,1,60.0000022888184,0|0,0:0|0:0,0:0:0:0:
220,112,14531,2,0,P|252:120|272:152,1,60.0000022888184,0|0,0:0|0:0,0:0:0:0:
270,139,14899,5,0,0:0:0:0:
315,191,15083,1,0,0:0:0:0:
379,163,15268,1,0,0:0:0:0:
374,97,15452,1,0,0:0:0:0:
306,80,15636,2,0,L|256:44,1,60.0000022888184,0|0,0:0|0:0,0:0:0:0:
188,24,16004,1,0,0:0:0:0:
132,72,16188,1,0,0:0:0:0:
184,128,16372,6,0,P|132:154|80:128,1,120.000004577637,0|0,0:0|0:0,0:0:0:0:
24,76,16924,2,0,L|-4:52,2,30.0000011444092,0|0|0,0:0|0:0|0:0,0:0:0:0:
256,156,17844,6,0,B|296:156|296:156|340:136|384:156,1,120.000004577637,0|0,0:0|0:0,0:0:0:0:
340,228,18396,2,0,L|340:276,2,30.0000011444092,0|0|0,0:0|0:0|0:0,0:0:0:0:
200,260,19317,6,0,L|108:176,1,120.000004577637,0|0,0:0|0:0,0:0:0:0:
92,108,19869,1,0,0:0:0:0:
160,128,20053,2,0,L|252:212,1,120.000004577637,0|0,0:0|0:0,0:0:0:0:
304,252,20605,1,0,0:0:0:0:
374,250,20789,5,0,0:0:0:0:
411,188,20973,1,0,0:0:0:0:
375,126,21157,1,0,0:0:0:0:
303,126,21341,1,0,0:0:0:0:
267,188,21525,5,0,0:0:0:0:
144,264,21893,1,0,0:0:0:0:
144,120,22261,1,0,0:0:0:0:
348,192,22814,2,0,L|380:192,2,30.0000011444092,0|0|0,0:0|0:0|0:0,0:0:0:0:
188,152,25206,6,0,P|256:188|324:152,1,160,12|0,0:0|0:0,0:0:0:0:
256,84,25758,2,0,L|256:44,2,40,0|0|0,0:0|0:0|0:0,0:0:0:0:
256,180,26126,1,0,0:0:0:0:
228,272,26310,1,0,0:0:0:0:
144,324,26495,1,0,0:0:0:0:
48,320,26679,6,0,P|68:264|117:232,2,120,8|0|0,0:0|0:0|0:0,0:0:0:0:
144,324,27415,2,0,P|180:304|204:272,1,80,0|0,0:0|0:0,0:0:0:0:
204,176,27783,2,0,P|175:150|136:136,1,80,0|0,0:0|0:0,0:0:0:0:
44,112,28151,5,8,0:0:0:0:
120,52,28335,1,0,0:0:0:0:
208,88,28519,1,0,0:0:0:0:
288,32,28703,1,0,0:0:0:0:
372,76,28887,2,0,P|400:112|432:128,1,80,0|0,0:0|0:0,0:0:0:0:
504,64,29255,1,0,0:0:0:0:
432,128,29439,1,0,0:0:0:0:
500,196,29623,6,0,B|472:232|472:232|444:312|360:308,1,160,8|0,0:0|0:0,0:0:0:0:
372,204,30175,2,0,L|344:176,2,40,0|0|0,0:0|0:0|0:0,0:0:0:0:
392,306,30544,1,0,0:0:0:0:
296,308,30728,1,0,0:0:0:0:
272,308,30820,1,0,0:0:0:0:
248,308,30912,1,0,0:0:0:0:
224,308,31004,1,0,0:0:0:0:
200,308,31096,6,0,P|140:264|120:184,1,160,12|0,0:0|0:0,0:0:0:0:
176,104,31648,2,0,L|152:60,2,40,0|0|0,0:0|0:0|0:0,0:0:0:0:
264,144,32016,1,0,0:0:0:0:
252,48,32200,1,0,0:0:0:0:
176,104,32384,1,0,0:0:0:0:
184,200,32568,6,0,P|204:232|244:244,1,80,8|0,0:0|0:0,0:0:0:0:
248,340,32936,1,0,0:0:0:0:
248,340,33120,1,0,0:0:0:0:
244,244,33304,2,0,P|282:231|302:199,1,80,0|0,0:0|0:0,0:0:0:0:
244,124,33672,2,0,P|280:104|328:108,1,80,0|0,0:0|0:0,0:0:0:0:
388,168,34041,5,8,0:0:0:0:
460,232,34225,1,0,0:0:0:0:
388,168,34409,1,0,0:0:0:0:
460,232,34593,1,0,0:0:0:0:
412,316,34777,2,0,B|324:316|324:316|288:336,1,120,0|0,0:0|0:0,0:0:0:0:
268,292,35145,2,0,B|295:275|295:275|339:199,1,120,0|0,0:0|0:0,0:0:0:0:
356,152,35513,6,0,L|352:112,3,40,12|0|0|0,0:0|0:0|0:0|0:0,0:0:0:0:
340,68,35881,2,0,L|304:52,3,40,0|0|0|0,0:0|0:0|0:0|0:0,0:0:0:0:
256,44,36249,2,0,L|216:56,3,40,0|0|0|0,0:0|0:0|0:0|0:0,0:0:0:0:
176,80,36617,2,0,L|152:120,3,40,2|0|0|0,0:0|0:0|0:0|0:0,0:0:0:0:
128,152,36985,6,0,L|60:200,1,80,12|0,0:0|0:0,0:0:0:0:
152,228,37353,2,0,L|220:180,1,80,0|0,0:0|0:0,0:0:0:0:
308,212,37722,2,0,L|240:260,1,80,0|0,0:0|0:0,0:0:0:0:
332,288,38090,2,0,L|400:240,1,80,0|0,0:0|0:0,0:0:0:0:
480,212,38458,6,0,P|460:176|426:157,1,80,8|0,0:0|0:0,0:0:0:0:
396,76,38826,2,0,P|360:96|341:129,1,80,0|0,0:0|0:0,0:0:0:0:
260,160,39194,2,0,P|280:196|313:214,1,80,0|0,0:0|0:0,0:0:0:0:
344,296,39562,2,0,P|380:276|398:242,1,80,0|0,0:0|0:0,0:0:0:0:
368,160,39930,6,0,B|316:116|316:116|316:56,2,120,12|0|0,0:0|0:0|0:0,0:0:0:0:
456,160,40666,2,0,B|508:116|508:116|508:56,2,120,0|0|0,0:0|0:0|0:0,0:0:0:0:
412,236,41402,6,0,P|396:272|352:296,1,80,8|0,0:0|0:0,0:0:0:0:
276,292,41771,2,0,P|242:270|226:234,2,80,0|0|0,0:0|0:0|0:0,0:0:0:0:
320,216,42323,1,0,0:0:0:0:
320,216,42507,2,0,L|320:176,3,40,0|0|0|0,0:0|0:0|0:0|0:0,0:0:0:0:
320,128,42875,6,0,L|283:23,2,106.666666666667,12|0|0,0:0|0:0|0:0,0:0:0:0:
240,128,43611,2,0,L|155:55,2,106.666666666667,0|0|0,0:0|0:0|0:0,0:0:0:0:
176,176,44347,6,0,L|67:155,2,106.666666666667,8|0|0,0:0|0:0|0:0,0:0:0:0:
152,252,45083,2,0,L|47:288,2,106.666666666667,0|0|0,0:0|0:0|0:0,0:0:0:0:
228,280,45820,6,0,L|156:364,2,106.666666666667,8|0|0,0:0|0:0|0:0,0:0:0:0:
304,256,46556,2,0,L|283:364,2,106.666666666667,0|0|0,0:0|0:0|0:0,0:0:0:0:
368,208,47292,6,0,L|404:312,2,106.666666666667,8|0|0,0:0|0:0|0:0,0:0:0:0:
308,92,48028,1,4,0:0:0:0:
228,192,48274,2,0,L|168:192,3,53.3333333333333,0|0|0|0,0:0|0:0|0:0|0:0,0:0:0:0:
136,192,48764,5,8,0:0:0:0:
232,108,49010,1,0,0:0:0:0:
328,192,49255,1,0,0:0:0:0:
232,276,49501,1,0,0:0:0:0:
232,276,49746,2,0,L|232:332,3,53.3333333333333,0|0|0|0,0:0|0:0|0:0|0:0,0:0:0:0:
232,376,50237,5,8,0:0:0:0:
328,292,50482,1,0,0:0:0:0:
452,324,50728,1,0,0:0:0:0:
476,200,50973,1,0,0:0:0:0:
408,92,51218,2,0,L|364:124,3,53.3333333333333,0|0|0|0,0:0|0:0|0:0|0:0,0:0:0:0:
304,144,51709,5,8,0:0:0:0:
184,104,51955,1,0,0:0:0:0:
268,200,52200,1,0,0:0:0:0:
144,164,52445,1,0,0:0:0:0:
236,252,52691,2,0,L|284:280,3,53.3333333333333,0|0|0|0,0:0|0:0|0:0|0:0,0:0:0:0:
344,292,53182,5,8,0:0:0:0:
236,360,53427,1,0,0:0:0:0:
112,332,53672,1,0,0:0:0:0:
56,216,53918,1,0,0:0:0:0:
100,96,54163,2,0,L|136:56,3,53.3333333333333,0|0|0|0,0:0|0:0|0:0|0:0,0:0:0:0:
200,52,54654,6,0,L|256:108,1,80,12|0,0:0|0:0,0:0:0:0:
164,128,55022,2,0,L|220:184,1,80,0|0,0:0|0:0,0:0:0:0:
316,188,55390,2,0,L|260:244,1,80,0|0,0:0|0:0,0:0:0:0:
352,264,55758,2,0,L|296:320,1,80,0|0,0:0|0:0,0:0:0:0:
200,320,56126,6,0,P|180:328|160:320,2,40,8|0|0,0:0|0:0|0:0,0:0:0:0:
296,320,56495,2,0,P|316:328|336:320,2,40,0|0|0,0:0|0:0|0:0,0:0:0:0:
256,232,56863,2,0,L|232:200,3,40,0|0|0|0,0:0|0:0|0:0|0:0,0:0:0:0:
216,156,57231,2,0,L|216:116,3,40,0|0|0|0,0:0|0:0|0:0|0:0,0:0:0:0:
232,72,57599,6,0,L|260:44,3,40,8|0|0|0,0:0|0:0|0:0|0:0,0:0:0:0:
308,32,57967,2,0,L|348:40,3,40,0|0|0|0,0:0|0:0|0:0|0:0,0:0:0:0:
392,56,58335,2,0,L|424:80,3,40,0|0|0|0,0:0|0:0|0:0|0:0,0:0:0:0:
448,120,58703,2,0,L|460:160,3,40,0|0|0|0,0:0|0:0|0:0|0:0,0:0:0:0:
468,204,59071,6,0,L|456:244,7,40,8|0|0|0|0|0|0|0,0:0|0:0|0:0|0:0|0:0|0:0|0:0|0:0,0:0:0:0:
424,276,59807,2,0,L|392:300,7,40,0|0|0|0|0|0|0|0,0:0|0:0|0:0|0:0|0:0|0:0|0:0|0:0,0:0:0:0:
348,320,60544,6,0,P|271:309|223:248,1,160,12|0,0:0|0:0,0:0:0:0:
200,152,61096,2,0,P|276:162|324:224,1,160,0|0,0:0|0:0,0:0:0:0:
348,320,61648,1,0,0:0:0:0:
348,320,61832,1,0,0:0:0:0:
348,320,62016,5,8,0:0:0:0:
420,256,62200,1,0,0:0:0:0:
456,168,62384,1,0,0:0:0:0:
420,80,62568,2,0,B|404:52|404:52|372:120|292:104,1,160,0|0,0:0|0:0,0:0:0:0:
320,12,63120,2,0,P|280:8|236:32,1,80,0|0,0:0|0:0,0:0:0:0:
176,92,63488,5,8,0:0:0:0:
96,148,63672,2,0,L|56:160,2,40,0|0|0,0:0|0:0|0:0,0:0:0:0:
176,204,64041,2,0,L|152:244,2,40,0|0|0,0:0|0:0|0:0,0:0:0:0:
272,196,64409,2,0,L|296:232,2,40,0|0|0,0:0|0:0|0:0,0:0:0:0:
344,132,64777,2,0,L|384:152,1,40,0|0,0:0|0:0,0:0:0:0:
416,176,64961,6,0,B|465:212|465:212|456:267|517:305,3,160,8|0|0|0,0:0|0:0|0:0|0:0,0:0:0:0:
416,328,66249,1,0,0:0:0:0:
376,328,66341,1,0,0:0:0:0:
336,328,66433,6,0,B|308:340|276:320|276:320|244:340|216:328,2,120,12|0|0,0:0|0:0|0:0,0:0:0:0:
328,240,67353,1,0,0:0:0:0:
224,240,67537,1,0,0:0:0:0:
276,160,67722,1,0,0:0:0:0:
276,64,67906,6,0,P|352:104|368:172,1,160,12|0,0:0|0:0,0:0:0:0:
276,64,68458,1,0,0:0:0:0:
276,64,68550,1,0,0:0:0:0:
276,64,68642,2,0,P|200:104|184:172,1,160,0|0,0:0|0:0,0:0:0:0:
116,240,69194,1,0,0:0:0:0:
96,144,69378,6,0,P|124:64|176:12,1,160,8|0,0:0|0:0,0:0:0:0:
272,12,69930,1,0,0:0:0:0:
368,12,70114,2,0,P|420:64|448:144,1,160,0|0,0:0|0:0,0:0:0:0:
400,228,70666,1,0,0:0:0:0:
360,140,70850,5,8,0:0:0:0:
296,212,71034,1,0,0:0:0:0:
256,124,71218,1,0,0:0:0:0:
188,192,71402,1,0,0:0:0:0:
148,104,71587,2,0,P|100:160|108:244,1,160,0|0,0:0|0:0,0:0:0:0:
184,300,72139,1,0,0:0:0:0:
280,316,72323,6,0,P|414:261|481:183,1,240,8|0,0:0|0:0,0:0:0:0:
484,160,72967,1,0,0:0:0:0:
488,128,73059,1,0,0:0:0:0:
408,64,73243,1,0,0:0:0:0:
376,64,73335,1,0,0:0:0:0:
344,64,73427,1,0,0:0:0:0:
312,64,73519,1,0,0:0:0:0:
280,64,73611,1,0,0:0:0:0:
248,64,73703,1,0,0:0:0:0:
216,64,73795,6,0,B|125:80|142:211|53:227,1,240,12|0,0:0|0:0,0:0:0:0:
24,244,74439,1,0,0:0:0:0:
0,264,74531,1,0,0:0:0:0:
52,344,74715,2,0,B|108:344|108:344|128:328,2,80,0|0|0,0:0|0:0|0:0,0:0:0:0:
100,260,75268,6,0,P|144:256|184:284,1,80,8|0,0:0|0:0,0:0:0:0:
212,360,75636,1,0,0:0:0:0:
268,280,75820,1,0,0:0:0:0:
228,192,76004,2,0,L|180:128,1,80,0|0,0:0|0:0,0:0:0:0:
260,72,76372,1,0,0:0:0:0:
356,72,76556,1,0,0:0:0:0:
260,72,76740,5,8,0:0:0:0:
327,139,76924,1,0,0:0:0:0:
260,72,77108,1,0,0:0:0:0:
260,166,77292,1,0,0:0:0:0:
260,72,77476,1,0,0:0:0:0:
193,138,77660,1,0,0:0:0:0:
260,72,77844,1,0,0:0:0:0:
165,71,78028,1,0,0:0:0:0:
92,136,78212,6,0,L|76:176,3,40,8|0|0|0,0:0|0:0|0:0|0:0,0:0:0:0:
60,220,78580,2,0,L|64:260,3,40,0|0|0|0,0:0|0:0|0:0|0:0,0:0:0:0:
88,300,78949,2,0,L|112:336,3,40,0|0|0|0,0:0|0:0|0:0|0:0,0:0:0:0:
148,360,79317,2,0,L|176:376,7,20,0|0|0|0|0|0|0|0,0:0|0:0|0:0|0:0|0:0|0:0|0:0|0:0,0:0:0:0:
188,364,79685,6,0,B|232:328|232:328|256:328,1,80,12|0,0:0|0:0,0:0:0:0:
324,364,80053,2,0,B|280:328|280:328|256:328,1,80,0|0,0:0|0:0,0:0:0:0:
152,260,80421,2,0,B|196:224|196:224|220:224,1,80,0|0,0:0|0:0,0:0:0:0:
360,260,80789,2,0,B|316:224|316:224|292:224,1,80,0|0,0:0|0:0,0:0:0:0:
232,144,81157,6,0,B|245:118|245:118|232:64,1,80,8|0,0:0|0:0,0:0:0:0:
156,124,81525,2,0,B|169:98|169:98|156:44,1,80,0|0,0:0|0:0,0:0:0:0:
80,108,81893,2,0,B|93:82|93:82|80:28,1,80,0|0,0:0|0:0,0:0:0:0:
4,92,82261,2,0,B|17:66|17:66|4:12,1,80,0|0,0:0|0:0,0:0:0:0:
80,108,82629,6,0,B|55:147|55:147|32:192|32:220|44:264,1,160,12|0,0:0|0:0,0:0:0:0:
112,324,83182,1,0,0:0:0:0:
208,340,83366,2,0,P|284:316|318:247,1,160,0|0,0:0|0:0,0:0:0:0:
224,248,83918,1,0,0:0:0:0:
318,249,84102,6,0,P|307:210|281:178,1,80,8|0,0:0|0:0,0:0:0:0:
224,248,84470,1,0,0:0:0:0:
284,178,84654,1,0,0:0:0:0:
352,108,84838,2,0,B|368:64|416:36,1,80,0|0,0:0|0:0,0:0:0:0:
456,136,85206,1,0,0:0:0:0:
456,232,85390,1,0,0:0:0:0:
384,292,85574,6,0,P|339:326|290:346,2,106.666666666667,12|0|0,0:0|0:0|0:0,0:0:0:0:
280,216,86310,2,0,P|224:200|188:164,2,106.666666666667,0|0|0,0:0|0:0|0:0,0:0:0:0:
292,38,87047,6,0,P|341:59|384:92,2,106.666666666667,8|0|0,0:0|0:0|0:0,0:0:0:0:
292,168,87783,2,0,P|334:199|383:220,2,106.666666666667,0|0|0,0:0|0:0|0:0,0:0:0:0:
164,156,88519,5,8,0:0:0:0:
292,232,88764,1,0,0:0:0:0:
344,92,89010,1,0,0:0:0:0:
468,176,89255,5,0,0:0:0:0:
416,316,89501,1,0,0:0:0:0:
292,232,89746,1,0,0:0:0:0:
208,368,89991,5,8,0:0:0:0:
84,268,90237,1,0,0:0:0:0:
84,108,90482,1,0,0:0:0:0:
228,36,90728,5,0,0:0:0:0:
84,108,90973,2,0,L|84:168,3,53.3333333333333,0|0|0|0,0:0|0:0|0:0|0:0,0:0:0:0:
80,216,91464,5,8,0:0:0:0:
176,356,91709,1,0,0:0:0:0:
80,216,91955,1,0,0:0:0:0:
144,168,92200,5,0,0:0:0:0:
281,266,92445,1,0,0:0:0:0:
144,168,92691,1,0,0:0:0:0:
172,92,92936,5,8,0:0:0:0:
348,144,93181,1,0,0:0:0:0:
172,92,93427,1,0,0:0:0:0:
176,16,93672,5,0,0:0:0:0:
359,4,93917,1,0,0:0:0:0:
176,16,94163,1,0,0:0:0:0:
256,192,94409,5,8,0:0:0:0:
404,316,94654,1,0,0:0:0:0:
420,124,94899,1,0,0:0:0:0:
260,176,95145,5,0,0:0:0:0:
436,276,95390,1,0,0:0:0:0:
420,72,95636,1,0,0:0:0:0:
260,152,95881,5,8,0:0:0:0:
464,220,96126,1,0,0:0:0:0:
408,12,96372,1,0,0:0:0:0:
252,132,96617,5,0,0:0:0:0:
96,292,96863,2,0,L|52:328,4,53.3333333333333,0|0|0|0|0,0:0|0:0|0:0|0:0|0:0,0:0:0:0:
256,96,110421,5,0,0:0:0:0:
248,192,110605,2,0,P|276:263|352:279,1,160,12|0,0:0|0:0,0:0:0:0:
340,188,111157,2,0,L|240:312,1,160,0|0,0:0|0:0,0:0:0:0:
156,264,111709,2,0,P|144:308|152:356,1,80,0|0,0:0|0:0,0:0:0:0:
64,248,112077,6,0,P|76:204|68:156,1,80,8|0,0:0|0:0,0:0:0:0:
96,76,112445,1,0,0:0:0:0:
144,68,112537,1,0,0:0:0:0:
188,48,112629,2,0,B|245:69|245:69|288:32|352:48,1,160,0|0,0:0|0:0,0:0:0:0:
416,100,113182,2,0,P|432:60|432:24,1,80,0|0,0:0|0:0,0:0:0:0:
312,136,113550,6,0,P|368:196|444:204,1,160,8|0,0:0|0:0,0:0:0:0:
312,272,114102,2,0,P|368:212|444:204,1,160,0|0,0:0|0:0,0:0:0:0:
416,284,114654,2,0,P|432:324|432:360,1,80,0|0,0:0|0:0,0:0:0:0:
332,368,115022,6,0,L|292:380,2,40,8|0|0,0:0|0:0|0:0,0:0:0:0:
240,304,115390,2,0,L|209:275,2,40,0|0|0,0:0|0:0|0:0,0:0:0:0:
252,192,115758,2,0,L|261:151,2,40,0|0|0,0:0|0:0|0:0,0:0:0:0:
344,128,116126,2,0,L|384:117,3,40,0|0|0|0,0:0|0:0|0:0|0:0,0:0:0:0:
432,124,116495,6,0,P|385:63|306:56,1,160,12|0,0:0|0:0,0:0:0:0:
205,56,117047,2,0,P|126:63|80:124,1,160,0|0,0:0|0:0,0:0:0:0:
137,207,117599,2,0,P|160:184|176:140,1,80,0|0,0:0|0:0,0:0:0:0:
256,224,117967,6,0,P|240:268|217:291,1,80,8|0,0:0|0:0,0:0:0:0:
188,304,118243,2,0,L|204:344,1,40,0|0,0:0|0:0,0:0:0:0:
300,332,118519,2,0,B|348:326|348:326|384:332,2,80,0|0|0,0:0|0:0|0:0,0:0:0:0:
356,252,119071,2,0,P|392:224|408:188,1,80,0|0,0:0|0:0,0:0:0:0:
443,106,119439,6,0,P|368:108|316:168,1,160,12|0,0:0|0:0,0:0:0:0:
196,168,119991,2,0,P|144:108|68:106,1,160,0|0,0:0|0:0,0:0:0:0:
105,193,120544,2,0,P|120:224|156:252,1,80,0|0,0:0|0:0,0:0:0:0:
256,260,120912,6,0,L|208:324,1,80,8|0,0:0|0:0,0:0:0:0:
256,260,121280,2,0,L|304:324,1,80,0|0,0:0|0:0,0:0:0:0:
256,260,121648,2,0,L|208:196,1,80,0|0,0:0|0:0,0:0:0:0:
256,260,122016,2,0,L|304:196,1,80,0|0,0:0|0:0,0:0:0:0:
384,144,122384,6,0,B|304:144|304:144|284:104|232:100,1,160,12|0,0:0|0:0,0:0:0:0:
220,196,122936,2,0,B|176:192|156:152|156:152|76:152,1,160,0|0,0:0|0:0,0:0:0:0:
48,244,123488,2,0,L|48:324,1,80,0|0,0:0|0:0,0:0:0:0:
140,352,123856,6,0,P|104:264|36:244,1,160,8|0,0:0|0:0,0:0:0:0:
48,140,124409,2,0,P|104:120|140:32,1,160,0|0,0:0|0:0,0:0:0:0:
236,36,124961,2,0,P|232:84|216:128,1,80,0|0,0:0|0:0,0:0:0:0:
188,184,125329,6,0,P|124:232|44:244,1,160,8|0,0:0|0:0,0:0:0:0:
104,320,125881,2,0,P|175:356|256:354,1,160,0|0,0:0|0:0,0:0:0:0:
336,304,126433,2,0,L|268:256,1,80,0|0,0:0|0:0,0:0:0:0:
276,160,126801,6,0,L|208:208,1,80,8|0,0:0|0:0,0:0:0:0:
196,220,127077,1,0,0:0:0:0:
180,232,127169,1,0,0:0:0:0:
164,244,127261,1,0,0:0:0:0:
148,256,127353,1,0,0:0:0:0:
132,268,127445,1,0,0:0:0:0:
116,280,127537,2,0,P|140:316|176:336,1,80,0|0,0:0|0:0,0:0:0:0:
252,280,127906,2,0,P|276:244|312:224,1,80,0|0,0:0|0:0,0:0:0:0:
352,144,128274,6,0,B|300:112|244:176|192:144,1,160,12|0,0:0|0:0,0:0:0:0:
188,52,128826,2,0,B|240:84|296:20|348:52,1,160,0|0,0:0|0:0,0:0:0:0:
424,100,129378,2,0,L|448:176,1,80,0|0,0:0|0:0,0:0:0:0:
444,272,129746,6,0,L|420:348,1,80,8|0,0:0|0:0,0:0:0:0:
324,348,130114,2,0,L|284:336,3,40,0|0|0|0,0:0|0:0|0:0|0:0,0:0:0:0:
240,324,130482,2,0,L|300:264,1,80,0|0,0:0|0:0,0:0:0:0:
196,228,130850,2,0,L|272:200,1,80,0|0,0:0|0:0,0:0:0:0:
204,128,131218,6,0,B|320:128|320:128|348:92,1,160,8|0,0:0|0:0,0:0:0:0:
364,188,131771,2,0,B|391:153|391:153|507:153,1,160,0|0,0:0|0:0,0:0:0:0:
448,228,132323,2,0,P|420:260|384:276,1,80,0|0,0:0|0:0,0:0:0:0:
292,252,132691,6,0,P|270:221|262:180,1,80,12|0,0:0|0:0,0:0:0:0:
308,96,133059,1,0,0:0:0:0:
392,52,133243,1,0,0:0:0:0:
308,96,133427,2,0,B|236:96|236:96|192:120|152:96,2,160,0|0|8,0:0|0:0|0:0,0:0:0:0:
392,52,134347,5,0,0:0:0:0:
308,96,134531,2,0,L|308:192,1,80,0|0,0:0|0:0,0:0:0:0:
404,184,134899,2,0,L|444:184,2,40,0|0|0,0:0|0:0|0:0,0:0:0:0:
364,272,135268,2,0,L|392:300,2,40,0|0|0,0:0|0:0|0:0,0:0:0:0:
276,308,135636,6,0,L|275:348,2,40,8|0|0,0:0|0:0|0:0,0:0:0:0:
188,288,136004,2,0,L|159:316,2,40,0|0|0,0:0|0:0|0:0,0:0:0:0:
136,208,136372,2,0,P|98:183|78:139,1,80,0|0,0:0|0:0,0:0:0:0:
120,64,136740,2,0,P|149:81|174:118,1,80,0|0,0:0|0:0,0:0:0:0:
256,64,137108,6,0,B|284:176|392:192|392:192|284:208|256:320,1,400,8|0,0:0|0:0,0:0:0:0:
352,332,138212,2,0,P|368:296|404:280,1,80,0|0,0:0|0:0,0:0:0:0:
472,212,138580,2,0,L|472:168,3,40,8|0|0|0,0:0|0:0|0:0|0:0,0:0:0:0:
448,128,138949,2,0,L|424:92,3,40,8|0|0|0,0:0|0:0|0:0|0:0,0:0:0:0:
380,80,139317,2,0,L|340:72,3,40,8|0|0|0,0:0|0:0|0:0|0:0,0:0:0:0:
292,80,139685,2,0,L|256:96,3,40,8|0|0|0,0:0|0:0|0:0|0:0,0:0:0:0:
232,136,140053,6,0,L|264:168,3,40,8|0|0|0,0:0|0:0|0:0|0:0,0:0:0:0:
260,212,140421,2,0,L|228:244,3,40,8|0|0|0,0:0|0:0|0:0|0:0,0:0:0:0:
184,240,140789,2,0,L|152:208,3,40,8|0|0|0,0:0|0:0|0:0|0:0,0:0:0:0:
156,164,141157,2,0,L|188:132,3,40,8|0|0|0,0:0|0:0|0:0|0:0,0:0:0:0:
232,136,141525,6,0,L|264:104,3,40,8|0|0|0,0:0|0:0|0:0|0:0,0:0:0:0:
260,60,141893,2,0,L|228:28,3,40,8|0|0|0,0:0|0:0|0:0|0:0,0:0:0:0:
184,32,142261,2,0,L|152:64,3,40,8|0|0|0,0:0|0:0|0:0|0:0,0:0:0:0:
156,108,142629,2,2,L|172:128,7,20,2|2|2|2|2|2|0|0,0:0|0:0|0:0|0:0|0:0|0:0|0:0|0:0,0:0:0:0:
184,144,142998,6,0,P|216:288|368:296,1,320,8|0,0:0|0:0,0:0:0:0:
464,304,143918,2,0,L|444:224,1,80,0|0,0:0|0:0,0:0:0:0:
384,152,144286,1,0,0:0:0:0:
296,192,144470,6,0,P|240:296|132:356,1,240,8|0,0:0|0:0,0:0:0:0:
72,284,145206,1,0,0:0:0:0:
128,152,145482,1,0,0:0:0:0:
256,88,145758,1,0,0:0:0:0:
348,112,145942,6,0,B|379:162|336:240|336:240|395:234|426:285,1,240,8|2,0:0|0:0,0:0:0:0:
344,336,146679,6,0,B|340:324|340:324|336:336|336:336|332:324|332:324|328:336|328:336|324:324|324:324|320:336|320:336|316:324|316:324|312:336|312:336|308:324|308:324|304:336|304:336|300:324|300:324|296:336|296:336|292:324|292:324|288:336|288:336|284:324|284:324|280:336|280:336|276:324|276:324|272:336|272:336|268:324|268:324|264:336|264:336|260:324|260:324|256:336|256:336|252:324|252:324|248:336|248:336|244:324|244:324|240:336|240:336|236:324|236:324|232:336|232:336|228:324|228:324|224:336|224:336|220:324|220:324|216:336|216:336|212:324|212:324|208:336|208:336|204:324|204:324|200:336|200:336|196:324|196:324|192:336|192:336|188:324|188:324|184:336,1,480,0|0,0:0|0:0,0:0:0:0:
100,316,147967,5,0,0:0:0:0:
64,284,148059,1,0,0:0:0:0:
52,236,148151,2,0,P|72:128|184:88,1,240,0|0,0:0|0:0,0:0:0:0:
180,184,148887,6,0,B|308:184|308:184|316:120|384:108,1,240,8|0,0:0|0:0,0:0:0:0:
400,204,149623,1,0,0:0:0:0:
264,288,149930,1,0,0:0:0:0:
136,272,150175,1,0,0:0:0:0:
180,184,150360,6,0,B|308:184|308:184|316:120|379:108,1,240,8|0,0:0|0:0,0:0:0:0:
400,204,151096,1,0,0:0:0:0:
264,288,151402,1,0,0:0:0:0:
132,268,151648,1,0,0:0:0:0:
204,204,151832,6,0,P|280:176|352:208,1,160,12|0,0:0|0:0,0:0:0:0:
276,276,152384,2,0,B|276:188|276:188|296:168|296:168|296:44,1,240,0|0,0:0|0:0,0:0:0:0:
200,44,153120,1,0,0:0:0:0:
296,44,153304,5,12,0:0:0:0:
324,137,153488,1,0,0:0:0:0:
245,192,153672,1,0,0:0:0:0:
168,134,153856,1,0,0:0:0:0:
200,44,154041,5,0,0:0:0:0:
324,137,154225,1,0,0:0:0:0:
168,134,154409,1,0,0:0:0:0:
296,44,154593,1,0,0:0:0:0:
245,192,154777,6,0,P|304:240|408:84,1,320,12|0,0:0|0:0,0:0:0:0:
324,137,155697,1,0,0:0:0:0:
324,137,155789,1,0,0:0:0:0:
324,137,155881,2,0,P|296:112|256:104,1,80,0|0,0:0|0:0,0:0:0:0:
164,132,156249,6,0,P|132:208|180:260,1,160,8|0,0:0|0:0,0:0:0:0:
256,316,156801,2,0,P|288:240|240:188,1,160,0|0,0:0|0:0,0:0:0:0:
164,132,157353,1,0,0:0:0:0:
252,96,157537,1,0,0:0:0:0:
344,64,157722,6,0,P|425:192|344:320,1,320,8|0,0:0|0:0,0:0:0:0:
248,320,158642,1,0,0:0:0:0:
208,320,158734,1,0,0:0:0:0:
168,320,158826,1,0,0:0:0:0:
100,252,159010,1,0,0:0:0:0:
176,192,159194,6,0,B|216:168|296:216|336:192,3,160,10|0|0|0,0:0|0:0|0:0|0:0,0:0:0:0:
360,180,160390,1,0,0:0:0:0:
380,156,160482,1,0,0:0:0:0:
432,236,160666,6,0,L|432:276,3,40,8|0|0|0,0:0|0:0|0:0|0:0,0:0:0:0:
396,308,161034,2,0,L|370:338,3,40,0|0|0|0,0:0|0:0|0:0|0:0,0:0:0:0:
328,360,161402,2,0,L|288:366,3,40,0|0|0|0,0:0|0:0|0:0|0:0,0:0:0:0:
240,368,161771,2,0,L|205:347,3,40,0|0|0|0,0:0|0:0|0:0|0:0,0:0:0:0:
160,328,162139,6,0,L|146:290,3,40,8|0|0|0,0:0|0:0|0:0|0:0,0:0:0:0:
124,248,162507,2,0,L|137:210,3,40,0|0|0|0,0:0|0:0|0:0|0:0,0:0:0:0:
136,164,162875,2,0,L|170:144,3,40,0|0|0|0,0:0|0:0|0:0|0:0,0:0:0:0:
200,104,163243,2,0,L|239:110,3,40,0|0|0|0,0:0|0:0|0:0|0:0,0:0:0:0:
288,120,163611,6,0,L|304:160,1,40,12|0,0:0|0:0,0:0:0:0:
344,136,163795,2,0,L|337:178,1,40,0|0,0:0|0:0,0:0:0:0:
388,172,163979,2,0,L|361:205,1,40,0|0,0:0|0:0,0:0:0:0:
402,228,164163,2,0,L|361:243,1,40,0|0,0:0|0:0,0:0:0:0:
392,280,164347,2,0,L|349:273,1,40,0|0,0:0|0:0,0:0:0:0:
350,320,164531,2,0,L|316:293,1,40,0|0,0:0|0:0,0:0:0:0:
300,340,164715,2,0,L|284:300,1,40,0|0,0:0|0:0,0:0:0:0:
244,323,164899,2,0,L|249:283,1,40,0|0,0:0|0:0,0:0:0:0:
216,254,165083,6,0,L|204:292,1,40,12|0,0:0|0:0,0:0:0:0:
201,215,165267,2,0,L|172:242,1,40,0|0,0:0|0:0,0:0:0:0:
203,179,165452,2,0,L|164:188,1,40,0|0,0:0|0:0,0:0:0:0:
228,147,165636,2,0,L|191:135,1,40,0|0,0:0|0:0,0:0:0:0:
258,129,165820,2,0,L|232:100,1,40,0|0,0:0|0:0,0:0:0:0:
299,135,166004,2,0,L|291:96,1,40,0|0,0:0|0:0,0:0:0:0:
328,152,166188,2,0,L|340:114,1,40,0|0,0:0|0:0,0:0:0:0:
342,183,166372,2,0,L|372:157,1,40,0|0,0:0|0:0,0:0:0:0:
344,216,166556,6,0,P|404:244|348:280,4,160,12|0|0|0|8,0:0|0:0|0:0|0:0|0:0,0:0:0:0:
340,120,168212,6,0,P|424:128|484:176,1,160,0|0,0:0|0:0,0:0:0:0:
480,268,168764,1,0,0:0:0:0:
360,348,169041,1,0,0:0:0:0:
216,344,169317,1,0,0:0:0:0:
128,304,169501,6,0,L|104:272,3,40,8|0|0|0,0:0|0:0|0:0|0:0,0:0:0:0:
92,224,169869,2,0,L|87:184,3,40,0|0|0|0,0:0|0:0|0:0|0:0,0:0:0:0:
96,136,170237,2,0,L|111:99,3,40,0|0|0|0,0:0|0:0|0:0|0:0,0:0:0:0:
156,84,170605,1,0,0:0:0:0:
248,60,170789,1,0,0:0:0:0:
332,104,170973,5,8,0:0:0:0:
324,200,171157,1,0,0:0:0:0:
236,236,171341,1,0,0:0:0:0:
156,180,171525,2,0,P|154:284|188:328,1,160,0|0,0:0|0:0,0:0:0:0:
276,296,172077,1,0,0:0:0:0:
368,328,172261,2,0,L|448:328,1,80,0|8,0:0|0:0,0:0:0:0:
444,216,172629,6,0,L|444:176,2,40,0|0|0,0:0|0:0|0:0,0:0:0:0:
348,160,172998,2,0,L|312:136,2,40,0|0|0,0:0|0:0|0:0,0:0:0:0:
252,220,173366,2,0,L|292:228,2,40,0|0|0,0:0|0:0|0:0,0:0:0:0:
156,280,173734,2,0,L|128:308,2,40,0|0|8,0:0|0:0|0:0,0:0:0:0:
148,168,174102,6,0,L|124:136,2,40,0|0|0,0:0|0:0|0:0,0:0:0:0:
216,80,174470,2,0,L|172:80,2,40,0|0|0,0:0|0:0|0:0,0:0:0:0:
328,80,174838,2,0,L|368:80,2,40,0|0|0,0:0|0:0|0:0,0:0:0:0:
264,172,175206,2,0,L|236:200,1,40,0|0,0:0|0:0,0:0:0:0:
204,248,175390,6,0,B|272:296|344:228|344:228|388:324|484:320,1,320,8|0,0:0|0:0,0:0:0:0:
476,200,176310,2,0,P|444:172|408:156,1,80,0|0,0:0|0:0,0:0:0:0:
300,136,176679,2,0,L|260:124,2,40,0|0|8,0:0|0:0|0:0,0:0:0:0:
208,200,177047,6,0,L|136:236,1,80,0|0,0:0|0:0,0:0:0:0:
228,304,177415,1,0,0:0:0:0:
228,304,177507,1,0,0:0:0:0:
228,304,177599,2,0,B|281:293|281:293|304:280,2,80,0|0|0,0:0|0:0|0:0,0:0:0:0:
256,192,178335,12,0,179439,0:0:0:0:
192,248,179623,5,0,0:0:0:0:
276,200,179807,2,0,B|276:132|276:132|300:108|300:108|300:48,1,160,12|0,0:0|0:0,0:0:0:0:
392,80,180360,2,0,B|392:148|392:148|368:172|368:172|368:232,1,160,0|0,0:0|0:0,0:0:0:0:
340,320,180912,2,0,B|288:320|288:320|260:308,1,80,0|0,0:0|0:0,0:0:0:0:
228,220,181280,6,0,B|280:220|280:220|308:232,1,80,8|0,0:0|0:0,0:0:0:0:
352,236,181556,2,0,L|352:192,1,40,0|0,0:0|0:0,0:0:0:0:
296,116,181832,2,0,B|232:140|232:140|196:108|144:120,1,160,0|0,0:0|0:0,0:0:0:0:
160,216,182384,2,0,L|80:192,1,80,0|0,0:0|0:0,0:0:0:0:
12,88,182752,6,0,L|87:62,1,80,8|0,0:0|0:0,0:0:0:0:
128,44,183028,2,0,L|160:68,1,40,0|0,0:0|0:0,0:0:0:0:
220,147,183304,2,0,B|249:200|298:192|298:192|348:183|376:236,1,160,0|0,0:0|0:0,0:0:0:0:
284,272,183856,2,0,P|240:268|208:248,1,80,0|0,0:0|0:0,0:0:0:0:
164,336,184225,6,0,P|208:340|240:360,1,80,8|0,0:0|0:0,0:0:0:0:
332,376,184593,2,0,P|376:379|411:365,1,80,0|0,0:0|0:0,0:0:0:0:
448,277,184961,2,0,P|429:237|399:213,1,80,0|0,0:0|0:0,0:0:0:0:
260,268,185329,1,0,0:0:0:0:
232,256,185421,1,0,0:0:0:0:
204,244,185513,1,0,0:0:0:0:
172,232,185605,1,0,0:0:0:0:
144,220,185697,6,0,P|100:156|156:112,1,160,12|0,0:0|0:0,0:0:0:0:
236,64,186249,2,0,P|280:128|224:172,1,160,0|0,0:0|0:0,0:0:0:0:
144,220,186801,2,0,L|136:136,1,80,0|0,0:0|0:0,0:0:0:0:
228,172,187169,6,0,L|236:252,1,80,8|0,0:0|0:0,0:0:0:0:
212,292,187445,2,0,L|252:320,1,40,0|0,0:0|0:0,0:0:0:0:
304,240,187722,2,0,P|340:172|304:104,1,160,0|0,0:0|0:0,0:0:0:0:
228,172,188274,2,0,L|144:172,1,80,0|0,0:0|0:0,0:0:0:0:
64,216,188642,6,0,B|64:304|64:304|120:348,1,160,12|0,0:0|0:0,0:0:0:0:
208,384,189194,2,0,B|208:296|208:296|152:252,1,160,0|0,0:0|0:0,0:0:0:0:
64,216,189746,2,0,L|64:136,1,80,0|0,0:0|0:0,0:0:0:0:
156,104,190114,6,0,L|156:184,1,80,8|0,0:0|0:0,0:0:0:0:
244,148,190482,2,0,L|244:68,1,80,8|0,0:0|0:0,0:0:0:0:
332,36,190850,2,0,L|332:116,1,80,8|0,0:0|0:0,0:0:0:0:
420,80,191218,2,0,L|420:0,1,80,8|0,0:0|0:0,0:0:0:0:
332,36,191587,6,0,B|264:16|264:16|216:4|180:40,1,160,12|0,0:0|0:0,0:0:0:0:
168,132,192139,2,0,B|235:151|235:151|284:164|320:128,1,160,0|0,0:0|0:0,0:0:0:0:
376,208,192691,2,0,P|340:232|304:244,1,80,0|0,0:0|0:0,0:0:0:0:
208,244,193059,6,0,L|128:220,1,80,8|0,0:0|0:0,0:0:0:0:
84,220,193335,2,0,L|96:268,1,40,0|0,0:0|0:0,0:0:0:0:
164,320,193611,2,0,B|240:320|240:320|280:288|280:288|312:288,1,160,0|0,0:0|0:0,0:0:0:0:
388,352,194163,2,0,B|364:384|364:384|324:384,1,80,0|0,0:0|0:0,0:0:0:0:
312,288,194531,6,0,P|332:212|400:172,1,160,8|0,0:0|0:0,0:0:0:0:
496,164,195083,2,0,P|476:240|408:280,1,160,0|0,0:0|0:0,0:0:0:0:
312,288,195636,2,0,P|268:284|236:264,1,80,0|0,0:0|0:0,0:0:0:0:
152,224,196004,6,0,P|108:220|76:200,1,80,8|0,0:0|0:0,0:0:0:0:
140,132,196372,1,0,0:0:0:0:
172,128,196464,1,0,0:0:0:0:
204,124,196556,1,0,0:0:0:0:
236,120,196648,1,0,0:0:0:0:
268,116,196740,2,0,L|348:104,1,80,0|0,0:0|0:0,0:0:0:0:
392,188,197108,2,0,L|312:200,1,80,0|0,0:0|0:0,0:0:0:0:
268,116,197476,6,0,P|224:180|240:256,1,160,12|0,0:0|0:0,0:0:0:0:
316,316,198028,2,0,P|393:322|451:270,1,160,0|0,0:0|0:0,0:0:0:0:
472,176,198580,2,0,P|460:132|433:101,1,80,0|0,0:0|0:0,0:0:0:0:
360,52,198949,6,0,P|316:40|276:48,1,80,8|0,0:0|0:0,0:0:0:0:
200,92,199317,1,0,0:0:0:0:
172,108,199409,1,0,0:0:0:0:
144,124,199501,1,0,0:0:0:0:
116,140,199593,1,0,0:0:0:0:
88,156,199685,2,0,B|60:176|60:176|60:224,1,80,0|0,0:0|0:0,0:0:0:0:
156,220,200053,2,0,B|184:240|184:240|184:288,1,80,0|0,0:0|0:0,0:0:0:0:
280,288,200421,6,0,P|344:248|348:168,1,160,12|0,0:0|0:0,0:0:0:0:
272,204,200973,2,0,L|408:292,1,160,0|0,0:0|0:0,0:0:0:0:
480,232,201525,2,0,P|504:272|508:320,1,80,0|0,0:0|0:0,0:0:0:0:
408,292,201893,6,0,P|384:252|380:204,1,80,8|0,0:0|0:0,0:0:0:0:
384,124,202261,1,0,0:0:0:0:
384,124,202353,1,0,0:0:0:0:
384,124,202445,1,0,0:0:0:0:
384,124,202537,1,0,0:0:0:0:
384,124,202629,2,0,L|312:84,1,80,0|0,0:0|0:0,0:0:0:0:
228,128,202998,2,0,L|156:88,1,80,0|0,0:0|0:0,0:0:0:0:
96,160,203366,6,0,B|144:188|144:188|96:216|96:276,1,160,8|0,0:0|0:0,0:0:0:0:
192,272,203918,2,0,L|272:272,1,80,0|0,0:0|0:0,0:0:0:0:
364,244,204286,1,0,0:0:0:0:
424,172,204470,1,0,0:0:0:0:
424,140,204562,1,0,0:0:0:0:
424,108,204654,1,0,0:0:0:0:
328,120,204838,5,8,0:0:0:0:
304,140,204930,1,0,0:0:0:0:
276,152,205022,1,0,0:0:0:0:
244,164,205114,1,0,0:0:0:0:
212,168,205206,1,8,0:0:0:0:
180,164,205298,1,0,0:0:0:0:
148,152,205390,1,0,0:0:0:0:
120,140,205482,1,0,0:0:0:0:
96,120,205574,2,0,P|68:92|48:56,1,80,0|0,0:0|0:0,0:0:0:0:
4,144,205942,2,0,P|32:172|52:208,1,80,0|0,0:0|0:0,0:0:0:0:
100,292,206310,6,0,B|152:252|152:196|152:196|232:252|312:196|312:196|312:252|364:292,1,400,8|0,0:0|0:0,0:0:0:0:
272,296,207415,2,0,P|232:300|192:296,1,80,0|0,0:0|0:0,0:0:0:0:
100,292,207783,6,0,L|100:252,3,40,8|0|0|0,0:0|0:0|0:0|0:0,0:0:0:0:
120,208,208151,2,0,L|140:172,3,40,8|0|0|0,0:0|0:0|0:0|0:0,0:0:0:0:
180,144,208519,2,0,L|220:132,3,40,8|0|0|0,0:0|0:0|0:0|0:0,0:0:0:0:
268,128,208887,2,0,L|312:128,3,40,8|0|0|0,0:0|0:0|0:0|0:0,0:0:0:0:
356,140,209255,6,0,L|388:168,3,40,8|0|0|0,0:0|0:0|0:0|0:0,0:0:0:0:
396,212,209623,2,0,L|384:252,3,40,8|0|0|0,0:0|0:0|0:0|0:0,0:0:0:0:
356,288,209991,2,0,L|320:308,3,40,8|0|0|0,0:0|0:0|0:0|0:0,0:0:0:0:
272,304,210360,2,0,L|232:292,3,40,8|0|0|0,0:0|0:0|0:0|0:0,0:0:0:0:
208,252,210728,6,0,L|200:212,3,40,8|0|0|0,0:0|0:0|0:0|0:0,0:0:0:0:
220,168,211096,2,0,L|244:132,3,40,8|0|0|0,0:0|0:0|0:0|0:0,0:0:0:0:
284,108,211464,2,0,L|324:104,3,40,8|0|0|0,0:0|0:0|0:0|0:0,0:0:0:0:
372,108,211832,2,2,L|388:124,7,20,2|2|2|2|2|2|2|2,0:0|0:0|0:0|0:0|0:0|0:0|0:0|0:0,0:0:0:0:
404,136,212200,6,0,L|444:144,1,40,12|0,0:0|0:0,0:0:0:0:
413,181,212384,2,0,L|449:201,1,40,0|0,0:0|0:0,0:0:0:0:
410,228,212568,2,0,L|438:257,1,40,0|0,0:0|0:0,0:0:0:0:
392,271,212752,2,0,L|411:307,1,40,0|0,0:0|0:0,0:0:0:0:
363,308,212936,2,0,L|370:348,1,40,0|0,0:0|0:0,0:0:0:0:
324,334,213120,2,0,L|320:375,1,40,0|0,0:0|0:0,0:0:0:0:
280,348,213304,2,0,L|263:385,1,40,0|0,0:0|0:0,0:0:0:0:
233,348,213488,2,0,L|206:379,1,40,0|0,0:0|0:0,0:0:0:0:
188,335,213672,6,0,L|154:357,1,40,8|0,0:0|0:0,0:0:0:0:
149,309,213856,2,0,L|110:320,1,40,0|0,0:0|0:0,0:0:0:0:
119,272,214041,2,0,L|79:271,1,40,0|0,0:0|0:0,0:0:0:0:
102,229,214225,2,0,L|63:216,1,40,0|0,0:0|0:0,0:0:0:0:
98,182,214409,2,0,L|64:159,7,40,0|0|0|0|0|0|0|0,0:0|0:0|0:0|0:0|0:0|0:0|0:0|0:0,0:0:0:0:
56,112,215145,6,0,P|98:51|177:54,1,160,8|0,0:0|0:0,0:0:0:0:
144,144,215697,1,0,0:0:0:0:
177,54,215881,1,0,0:0:0:0:
144,144,216065,1,0,0:0:0:0:
192,228,216249,1,0,0:0:0:0:
256,156,216433,1,0,0:0:0:0:
256,156,216525,1,0,0:0:0:0:
256,156,216617,6,0,L|209:143,7,40,8|0|0|0|0|0|0|0,0:0|0:0|0:0|0:0|0:0|0:0|0:0|0:0,0:0:0:0:
256,156,217353,2,0,L|256:204,7,40,0|0|0|0|0|0|0|0,0:0|0:0|0:0|0:0|0:0|0:0|0:0|0:0,0:0:0:0:
256,196,218090,6,0,L|256:356,1,160,8|0,0:0|0:0,0:0:0:0:
444,312,218826,1,0,0:0:0:0:
448,168,219102,1,0,0:0:0:0:
344,68,219378,1,0,0:0:0:0:
256,32,219562,5,8,0:0:0:0:
164,0,219746,1,0,0:0:0:0:
112,80,219930,1,0,0:0:0:0:
112,80,220022,1,0,0:0:0:0:
112,80,220114,1,0,0:0:0:0:
68,164,220298,5,0,0:0:0:0:
68,164,220390,1,0,0:0:0:0:
68,164,220482,1,0,0:0:0:0:
116,248,220666,5,0,0:0:0:0:
144,268,220758,1,0,0:0:0:0:
168,288,220850,1,0,0:0:0:0:
192,308,220942,1,0,0:0:0:0:
220,324,221034,6,0,B|268:296|312:328|312:328|452:232|536:352|396:468|296:400|356:192|378:192|378:192|356:192|296:-16|396:-84|536:32|452:152|312:56|312:56|268:88|220:60,1,1040,0|0,0:0|0:0,0:0:0:0:
172,144,223611,1,0,0:0:0:0:
88,192,223795,1,0,0:0:0:0:
172,240,223979,6,0,B|248:200|255:288|255:288|264:200|357:192|357:192|264:184|255:96|255:96|248:184|172:144,1,560,12|0,0:0|0:0,0:0:0:0:
64,112,225452,6,0,P|63:221|171:240,1,240,8|0,0:0|0:0,0:0:0:0:
128,164,226188,2,0,P|43:234|98:329,1,240,0|0,0:0|0:0,0:0:0:0:
171,240,226924,6,0,P|44:156|204:124,1,400,8|0,0:0|0:0,0:0:0:0:
260,196,228028,2,0,L|180:180,1,80,0|0,0:0|0:0,0:0:0:0:
264,196,228396,6,0,L|424:176,1,160,8|0,0:0|0:0,0:0:0:0:
384,264,228949,2,0,L|224:284,1,160,0|0,0:0|0:0,0:0:0:0:
160,352,229501,2,0,P|136:320|128:280,1,80,0|0,0:0|0:0,0:0:0:0:
172,196,229869,6,0,P|209:181|249:183,1,80,12|0,0:0|0:0,0:0:0:0:
332,132,230237,2,0,P|346:169|344:209,1,80,0|0,0:0|0:0,0:0:0:0:
396,292,230605,2,0,P|358:306|318:304,1,80,0|0,0:0|0:0,0:0:0:0:
236,352,230973,2,0,P|221:314|223:274,1,80,0|0,0:0|0:0,0:0:0:0:
172,196,231341,6,0,L|172:116,1,80,8|0,0:0|0:0,0:0:0:0:
224,36,231709,1,0,0:0:0:0:
276,116,231893,2,0,L|276:196,1,80,0|0,0:0|0:0,0:0:0:0:
332,276,232261,1,0,0:0:0:0:
380,196,232445,2,0,L|380:156,2,40,0|0|0,0:0|0:0|0:0,0:0:0:0:
468,240,232814,6,0,P|448:268|408:292,1,80,12|0,0:0|0:0,0:0:0:0:
340,360,233182,1,0,0:0:0:0:
256,312,233366,2,0,P|181:339|104:323,1,160,0|0,0:0|0:0,0:0:0:0:
80,232,233918,1,0,0:0:0:0:
116,140,234102,6,0,L|184:80,1,80,0|8,0:0|0:0,0:0:0:0:
196,180,234470,2,0,L|272:148,1,80,0|0,0:0|0:0,0:0:0:0:
364,168,234838,1,0,0:0:0:0:
330,258,235022,1,0,0:0:0:0:
247,305,235206,1,0,0:0:0:0:
151,288,235390,1,0,0:0:0:0:
90,215,235574,1,0,0:0:0:0:
90,119,235758,5,8,0:0:0:0:
152,46,235942,1,0,0:0:0:0:
247,29,236126,1,0,0:0:0:0:
329,77,236310,2,0,L|400:36,1,80,0|0,0:0|0:0,0:0:0:0:
380,140,236679,2,0,L|461:139,1,80,0|0,0:0|0:0,0:0:0:0:
388,212,237047,6,0,L|459:252,1,80,0|8,0:0|0:0,0:0:0:0:
356,276,237415,2,0,L|396:347,1,80,0|0,0:0|0:0,0:0:0:0:
292,304,237783,2,0,L|292:385,1,80,0|0,0:0|0:0,0:0:0:0:
200,352,238151,1,0,0:0:0:0:
132,284,238335,1,0,0:0:0:0:
68,212,238519,1,0,0:0:0:0:
48,120,238703,6,0,L|48:80,3,40,8|0|0|0,0:0|0:0|0:0|0:0,0:0:0:0:
96,80,239071,2,0,L|96:120,3,40,8|0|0|0,0:0|0:0|0:0|0:0,0:0:0:0:
144,116,239439,2,0,L|144:76,3,40,8|0|0|0,0:0|0:0|0:0|0:0,0:0:0:0:
192,76,239807,2,0,L|192:116,3,40,8|0|0|0,0:0|0:0|0:0|0:0,0:0:0:0:
240,116,240175,6,0,L|240:76,3,40,8|0|0|0,0:0|0:0|0:0|0:0,0:0:0:0:
288,76,240543,2,0,L|288:116,3,40,8|0|0|0,0:0|0:0|0:0|0:0,0:0:0:0:
336,112,240911,2,0,L|336:72,3,40,8|0|0|0,0:0|0:0|0:0|0:0,0:0:0:0:
384,72,241279,2,0,L|384:112,3,40,8|0|0|0,0:0|0:0|0:0|0:0,0:0:0:0:
384,168,241648,6,0,L|368:208,3,40,8|0|0|0,0:0|0:0|0:0|0:0,0:0:0:0:
336,252,242016,2,0,L|308:284,3,40,8|0|0|0,0:0|0:0|0:0|0:0,0:0:0:0:
260,304,242384,2,0,L|220:316,3,40,8|0|0|0,0:0|0:0|0:0|0:0,0:0:0:0:
164,312,242752,2,0,L|120:304,3,40,8|0|0|0,0:0|0:0|0:0|0:0,0:0:0:0:
84,268,243120,6,0,L|120:244,1,40,8|0,0:0|0:0,0:0:0:0:
68,204,243304,2,0,L|110:194,1,40,0|0,0:0|0:0,0:0:0:0:
75,139,243488,2,0,L|118:144,1,40,8|0,0:0|0:0,0:0:0:0:
104,81,243672,2,0,L|142:100,1,40,0|0,0:0|0:0,0:0:0:0:
151,35,243856,6,0,L|181:67,1,40,2|2,0:0|0:0,0:0:0:0:
211,9,244041,2,0,L|228:49,1,40,2|2,0:0|0:0,0:0:0:0:
264,12,244225,2,2,L|268:32,8,20,2|2|2|2|2|2|2|2|2,0:0|0:0|0:0|0:0|0:0|0:0|0:0|0:0|0:0,0:0:0:0:
256,192,244961,5,6,0:0:0:0:
256,192,245053,12,0,254899,0:0:0:0:
