osu file format v14

[General]
AudioFilename: raikou-3rd Desire-.mp3
AudioLeadIn: 0
PreviewTime: 29640
Countdown: 0
SampleSet: Normal
StackLeniency: 0.3
Mode: 0
LetterboxInBreaks: 1
WidescreenStoryboard: 0

[Editor]
Bookmarks: 14808,61999,72449
DistanceSpacing: 1
BeatDivisor: 4
GridSize: 4
TimelineZoom: 1

[Metadata]
Title:Raikou -3rd Desire-
TitleUnicode:雷洸 -3rd Desire-
Artist:Tatsh
ArtistUnicode:Tatsh
Creator:Frey
Version:Normal
Source:東方Project
Tags:古きユアンシェン Ten Desires TatshMusicCircle Kaku Seiga touhou C81 comiket83 FAR EAST OF EAST VI Nunnally Lamperouge Tatsuya Shimizu 清水達也 JJburstOwO
BeatmapID:528709
BeatmapSetID:226818

[Difficulty]
HPDrainRate:4.5
CircleSize:3.5
OverallDifficulty:4.5
ApproachRate:5.5
SliderMultiplier:0.999999999999999
SliderTickRate:1

[Events]
//Background and Video events
0,0,"bgs.jpg",0,0
//Break Periods
2,62199,71324
//Storyboard Layer 0 (Background)
//Storyboard Layer 1 (Fail)
//Storyboard Layer 2 (Pass)
//Storyboard Layer 3 (Foreground)
//Storyboard Sound Samples

[TimingPoints]
2674,337.078651685393,4,1,0,70,1,0
37730,-100,4,1,1,70,0,0
39078,-100,4,1,0,70,0,0
78853,337.078651685393,4,1,0,70,1,0
86942,-100,4,1,1,70,0,0
88291,-100,4,1,0,70,0,0
97729,-100,4,1,1,70,0,0
99077,-100,4,1,0,70,0,0
108515,-100,4,1,1,70,0,0
109864,-100,4,1,0,70,0,0
134133,-100,4,1,0,70,0,1
142223,-100,4,1,1,70,0,1
143572,-100,4,1,0,70,0,1
144414,-100,4,1,0,70,0,0
144920,-100,4,1,0,70,0,1
153010,-100,4,1,1,70,0,1
154358,-100,4,1,0,70,0,1
155201,-100,4,1,0,70,0,0
155706,-100,4,1,0,70,0,1
161100,-100,4,1,0,70,0,0

[Colours]
Combo1 : 255,149,255
Combo2 : 38,147,255

[HitObjects]
32,80,2674,6,0,L|152:72,1,99.9999999999999
212,132,3348,2,0,P|224:184|216:240,1,99.9999999999999
132,276,4022,2,0,L|12:268,2,99.9999999999999
188,360,5033,1,0,0:0:0:0:
272,308,5370,6,0,P|324:296|384:304,1,99.9999999999999
460,344,6044,2,0,L|480:240,1,99.9999999999999
448,152,6718,1,0,0:0:0:0:
380,228,7056,1,0,0:0:0:0:
256,80,8067,5,0,0:0:0:0:
164,36,8404,1,0,0:0:0:0:
64,64,8741,2,0,P|56:128|56:176,1,99.9999999999999
108,248,9415,1,0,0:0:0:0:
196,196,9752,1,0,0:0:0:0:
144,112,10089,1,0,0:0:0:0:
55,163,10426,1,0,0:0:0:0:
108,248,10763,6,0,P|162:246|224:236,1,99.9999999999999
304,239,11438,2,0,P|354:246|404:248,1,99.9999999999999
460,332,12112,1,0,0:0:0:0:
504,244,12449,1,0,0:0:0:0:
448,160,12786,1,0,0:0:0:0:
352,336,13460,6,0,P|256:360|152:332,1,200
112,248,14471,1,8,0:0:0:0:
160,160,14808,2,0,P|256:136|360:164,1,200
400,248,15820,1,8,0:0:0:0:
492,208,16157,6,0,L|504:96,1,99.9999999999999
424,48,16831,1,0,0:0:0:0:
332,84,17168,1,8,0:0:0:0:
324,184,17505,2,0,P|240:200|208:200,2,99.9999999999999,0|0|8,0:0|0:0|0:2,0:0:0:0:
176,52,18853,6,0,P|80:56|20:148,1,200
0,232,19865,1,8,0:0:0:0:
68,308,20202,2,0,P|120:316|176:320,1,99.9999999999999
208,228,20876,2,0,P|256:220|308:228,1,99.9999999999999,0|8,0:0|0:0,0:0:0:0:
344,319,21550,6,0,P|394:315|444:308,2,99.9999999999999
256,368,22561,1,8,0:0:0:0:
196,288,22898,2,0,L|212:176,1,99.9999999999999
300,144,23572,1,0,0:0:0:0:
372,212,23909,1,8,0:2:0:0:
296,276,24247,6,0,P|240:284|180:288,1,99.9999999999999,8|0,0:2|0:2,0:0:0:0:
120,352,24921,2,0,P|70:347|20:340,1,99.9999999999999,8|0,0:2|0:2,0:0:0:0:
16,240,25595,2,0,L|-4:184,2,50,8|0|0,0:2|0:0|0:0,0:0:0:0:
96,184,26269,2,0,L|132:132,2,50,8|0|0,0:2|0:0|0:0,0:0:0:0:
108,284,26943,5,8,0:2:0:0:
188,344,27280,1,0,0:0:0:0:
280,304,27617,1,8,0:2:0:0:
200,244,27954,1,0,0:0:0:0:
108,284,28291,5,0,2:0:0:0:
432,52,29640,6,0,B|344:64|344:64|304:20|232:32,1,200,6|0,0:0|0:0,0:0:0:0:
268,128,30651,1,8,0:0:0:0:
172,100,30988,2,0,P|104:96|64:96,1,99.9999999999999,2|8,0:0|0:0,0:0:0:0:
8,172,31662,1,2,0:0:0:0:
8,221,31830,1,0,0:0:0:0:
12,271,31999,1,8,0:0:0:0:
84,344,32336,6,0,P|180:336|232:248,1,200
164,180,33348,1,8,0:0:0:0:
224,100,33685,2,0,P|272:100|328:96,2,99.9999999999999,2|8|0,0:0|0:0|0:0,0:0:0:0:
124,88,34696,1,8,0:0:0:0:
108,188,35033,6,0,P|108:248|120:296,1,99.9999999999999,6|8,0:0|0:0,0:0:0:0:
196,348,35707,2,0,L|300:340,1,99.9999999999999,0|8,0:0|0:0,0:0:0:0:
364,268,36381,1,2,0:0:0:0:
456,304,36718,1,8,0:0:0:0:
440,204,37056,1,2,0:0:0:0:
348,168,37393,1,8,0:0:0:0:
364,268,37730,6,0,L|348:352,2,66.6666666666666,4|0|8,0:0|0:0|0:0,0:0:0:0:
328,212,38404,2,0,L|262:199,2,66.6666666666666,4|0|8,0:0|0:0|0:0,0:0:0:0:
384,172,39078,6,0,P|392:80|296:48,1,200
212,84,40089,1,8,0:0:0:0:
244,180,40426,6,0,P|224:264|216:288,1,99.9999999999999,6|8,0:0|0:0,0:0:0:0:
140,336,41100,1,0,0:0:0:0:
68,268,41438,1,8,0:0:0:0:
68,268,41606,2,0,P|56:192|64:116,1,150,2|8,0:0|0:0,0:0:0:0:
124,40,42449,1,0,0:0:0:0:
208,92,42786,1,8,0:0:0:0:
208,92,42954,6,0,B|272:88|272:88|296:72|296:72|368:68,1,150,6|8,0:0|0:0,0:0:0:0:
448,96,43797,1,2,0:0:0:0:
376,168,44134,1,8,0:0:0:0:
424,180,44303,1,2,0:0:0:0:
472,196,44471,2,0,P|464:288|372:324,1,200,0|0,0:0|0:0,0:0:0:0:
288,272,45482,1,8,0:0:0:0:
220,344,45820,6,0,P|136:340|100:336,1,99.9999999999999,6|8,0:0|0:0,0:0:0:0:
40,276,46494,1,0,0:0:0:0:
68,180,46831,1,8,0:0:0:0:
68,180,46999,2,0,P|144:164|224:172,1,150,2|8,0:0|0:0,0:0:0:0:
208,268,47842,5,0,0:0:0:0:
300,228,48179,1,8,0:0:0:0:
300,228,48348,2,0,P|374:233|447:217,1,150,2|8,0:0|0:0,0:0:0:0:
484,124,49190,2,0,P|480:72|468:24,1,99.9999999999999,0|8,0:0|0:0,0:0:0:0:
368,40,49865,5,0,0:0:0:0:
307,119,50202,1,8,0:0:0:0:
205,119,50539,1,0,0:0:0:0:
144,40,50876,1,8,0:0:0:0:
205,119,51213,6,0,P|200:180|184:232,1,99.9999999999999,4|8,0:0|0:0,0:0:0:0:
108,272,51887,2,0,L|20:264,2,74.9999999999999,0|0|8,0:0|0:0|0:0,0:0:0:0:
136,312,52561,6,0,L|244:300,1,99.9999999999999,0|8,0:0|0:0,0:0:0:0:
312,364,53235,2,0,L|400:356,2,74.9999999999999,0|0|8,0:0|0:0|0:0,0:0:0:0:
328,316,53909,6,0,L|360:216,1,99.9999999999999,0|8,0:0|0:0,0:0:0:0:
428,148,54584,2,0,P|476:156|508:156,2,74.9999999999999,0|0|8,0:0|0:0|0:0,0:0:0:0:
388,116,55258,6,0,P|340:104|284:104,1,99.9999999999999,0|8,0:0|0:0,0:0:0:0:
220,172,55932,2,0,L|208:248,2,74.9999999999999,0|0|8,0:0|0:0|0:0,0:0:0:0:
188,132,56606,6,0,P|138:131|89:119,1,99.9999999999999,4|8,0:0|0:0,0:0:0:0:
16,52,57280,2,0,P|100:20|104:20,2,74.9999999999999,0|0|8,0:0|0:0|0:0,0:0:0:0:
0,100,57954,6,0,P|8:152|0:200,1,99.9999999999999,0|8,0:0|0:0,0:0:0:0:
84,252,58629,2,0,P|76:288|84:328,2,74.9999999999999,0|0|8,0:0|0:0|0:0,0:0:0:0:
108,208,59303,5,4,0:0:0:0:
196,160,59640,1,8,0:0:0:0:
244,248,59977,1,0,0:0:0:0:
156,296,60314,1,8,0:0:0:0:
108,208,60651,6,0,P|96:160|108:104,1,99.9999999999999,0|8,0:0|0:0,0:0:0:0:
172,36,61325,2,0,L|276:28,1,99.9999999999999,0|8,0:0|0:0,0:0:0:0:
352,88,61999,1,4,0:0:0:0:
468,240,72449,5,0,0:0:0:0:
468,240,72786,2,0,P|412:248|356:252,1,99.9999999999999,4|8,0:0|0:0,0:0:0:0:
336,288,73291,1,0,0:0:0:0:
300,324,73460,1,0,0:0:0:0:
208,288,73797,1,8,0:0:0:0:
220,188,74134,2,0,P|216:140|208:88,2,99.9999999999999,0|8|0,0:0|0:0|0:0,0:0:0:0:
208,288,75145,1,8,0:0:0:0:
108,272,75482,5,0,0:0:0:0:
120,172,75820,1,8,0:0:0:0:
152,136,75988,1,0,0:0:0:0:
192,104,76157,2,0,P|240:108|292:116,1,99.9999999999999,0|8,0:0|0:0,0:0:0:0:
360,188,76831,1,0,0:0:0:0:
460,172,77168,1,8,0:0:0:0:
396,92,77505,1,0,0:0:0:0:
360,188,77842,1,8,0:0:0:0:
424,264,78179,2,0,P|316:276|260:192,1,200,2|4,2:0|0:0,0:0:0:0:
288,112,79190,5,8,0:0:0:0:
208,44,79527,2,0,P|128:52|104:56,1,99.9999999999999,0|8,0:0|0:0,0:0:0:0:
100,156,80202,2,0,P|50:163|0:167,1,99.9999999999999,0|8,0:0|0:0,0:0:0:0:
8,68,80876,1,0,0:0:0:0:
108,56,81213,1,8,0:0:0:0:
192,108,81550,6,0,P|200:168|188:212,1,99.9999999999999,0|8,0:0|0:0,0:0:0:0:
116,272,82224,2,0,L|8:264,2,99.9999999999999,0|8|0,0:0|0:0|0:0,0:0:0:0:
160,360,83235,1,8,0:0:0:0:
256,328,83572,2,0,B|280:228|232:228|255:130,1,200,0|4,0:0|0:0,0:0:0:0:
336,68,84584,5,8,0:0:0:0:
352,168,84921,2,0,L|456:156,1,99.9999999999999,0|8,0:0|0:0,0:0:0:0:
412,248,85595,2,0,P|408:296|412:348,1,99.9999999999999,0|8,0:0|0:0,0:0:0:0:
320,304,86269,2,0,P|268:296|208:296,1,99.9999999999999,0|8,0:0|0:0,0:0:0:0:
132,340,86943,6,0,L|56:348,2,66.6666666666666,4|0|8,0:0|0:0|0:0,0:0:0:0:
124,272,87617,2,0,L|117:205,2,66.6666666666666,4|0|8,0:0|0:0|0:0,0:0:0:0:
190,265,88291,5,0,0:0:0:0:
256,340,88629,1,0,0:0:0:0:
322,265,88966,1,0,0:0:0:0:
256,188,89303,1,8,0:0:0:0:
190,265,89640,6,0,P|132:272|72:276,1,99.9999999999999,0|8,0:0|0:0,0:0:0:0:
12,212,90314,2,0,P|0:120|88:72,1,200,2|0,0:0|0:0,0:0:0:0:
168,20,91325,1,8,0:0:0:0:
232,96,91662,2,0,P|228:160|216:216,1,99.9999999999999,0|8,0:0|0:0,0:0:0:0:
144,260,92336,5,0,0:0:0:0:
52,224,92673,1,8,0:0:0:0:
128,156,93011,2,0,P|228:144|324:192,1,200,2|0,0:0|0:0,0:0:0:0:
368,272,94022,1,8,0:0:0:0:
468,260,94359,1,0,0:0:0:0:
484,160,94696,1,8,0:0:0:0:
396,112,95033,6,0,L|280:124,1,99.9999999999999,0|8,0:0|0:0,0:0:0:0:
232,44,95707,2,0,P|140:88|32:60,1,200,2|0,0:0|0:0,0:0:0:0:
0,160,96718,1,8,0:0:0:0:
68,236,97056,2,0,P|123:231|184:224,1,99.9999999999999,0|8,0:0|0:0,0:0:0:0:
256,272,97730,6,0,L|248:352,2,66.6666666666666,6|0|8,0:0|0:0|0:0,0:0:0:0:
308,232,98404,2,0,L|316:152,2,66.6666666666666,6|0|8,0:0|0:0|0:0,0:0:0:0:
352,280,99078,5,0,0:0:0:0:
452,264,99415,1,8,0:0:0:0:
440,164,99752,1,0,0:0:0:0:
340,180,100089,1,8,0:0:0:0:
352,280,100426,6,0,L|240:272,1,99.9999999999999,4|8,0:0|0:0,0:0:0:0:
156,304,101100,2,0,P|112:216|160:132,1,200,2|0,0:0|0:0,0:0:0:0:
256,160,102111,2,0,P|306:158|360:152,2,99.9999999999999,8|0|8,0:0|0:0|0:0,0:0:0:0:
232,64,103123,5,0,0:0:0:0:
132,52,103460,1,8,0:0:0:0:
76,136,103797,2,0,B|96:200|96:200|60:264|112:328,1,200,2|0,0:0|0:0,0:0:0:0:
180,252,104808,1,8,0:0:0:0:
256,316,105145,2,0,L|372:308,1,99.9999999999999,0|8,0:0|0:0,0:0:0:0:
448,348,105819,5,4,0:0:0:0:
474,251,106156,1,8,0:0:0:0:
500,156,106494,2,0,B|440:160|440:160|432:152|432:152|296:160,1,200,2|0,0:0|0:0,0:0:0:0:
220,216,107505,1,8,0:0:0:0:
144,152,107842,2,0,P|140:104|156:40,1,99.9999999999999,0|8,0:0|0:0,0:0:0:0:
240,8,108516,6,0,L|320:4,2,66.6666666666666,6|0|8,0:0|0:0|0:0,0:0:0:0:
272,68,109190,2,0,L|352:64,2,66.6666666666666,6|0|8,0:0|0:0|0:0,0:0:0:0:
304,128,109865,5,0,0:0:0:0:
272,224,110202,1,8,0:0:0:0:
176,196,110539,1,0,0:0:0:0:
208,100,110876,1,8,0:0:0:0:
304,128,111213,6,0,L|412:120,1,99.9999999999999,4|8,0:0|0:0,0:0:0:0:
476,192,111887,2,0,P|464:228|468:284,2,74.9999999999999,0|0|8,0:0|0:0|0:0,0:0:0:0:
492,144,112561,6,0,P|488:96|452:40,1,99.9999999999999,0|8,0:0|0:0,0:0:0:0:
372,16,113235,2,0,L|280:24,2,74.9999999999999,0|0|8,0:0|0:0|0:0,0:0:0:0:
380,64,113909,5,0,0:0:0:0:
360,160,114247,1,8,0:0:0:0:
264,140,114584,2,0,P|252:192|248:224,2,74.9999999999999,0|0|8,0:0|0:0|0:0,0:0:0:0:
240,96,115258,6,0,L|120:112,1,99.9999999999999,0|8,0:0|0:0,0:0:0:0:
40,120,115931,2,0,P|49:83|54:46,2,74.9999999999999,0|0|8,0:0|0:0|0:0,0:0:0:0:
56,168,116606,6,0,P|80:228|100:272,1,99.9999999999999,0|8,0:0|0:0,0:0:0:0:
140,348,117280,2,0,L|65:355,2,74.9999999999999,0|0|8,0:0|0:0|0:0,0:0:0:0:
180,316,117954,5,0,0:0:0:0:
256,248,118291,1,8,0:0:0:0:
352,280,118629,2,0,P|356:314|360:360,2,74.9999999999999,0|0|8,0:0|0:0|0:0,0:0:0:0:
372,232,119303,6,0,P|420:232|480:252,1,99.9999999999999,0|8,0:0|0:0,0:0:0:0:
504,152,119977,2,0,P|509:111|512:72,2,74.9999999999999,0|0|8,0:0|0:0|0:0,0:0:0:0:
456,172,120651,5,0,0:0:0:0:
376,116,120988,1,8,0:0:0:0:
284,156,121325,1,0,0:0:0:0:
268,256,121662,1,8,0:0:0:0:
352,308,121999,6,0,P|404:292|452:268,1,99.9999999999999,2|8,0:0|0:0,0:0:0:0:
460,224,122504,1,2,0:0:0:0:
456,172,122673,2,0,P|420:136|372:116,1,99.9999999999999,0|8,0:0|0:0,0:0:0:0:
284,156,123347,1,2,0:0:0:0:
268,256,123685,1,8,0:0:0:0:
188,316,124022,2,0,P|120:324|72:324,1,99.9999999999999,0|8,0:0|0:0,0:0:0:0:
28,244,124696,6,0,P|55:181|79:139,1,99.9999999999999,2|8,0:0|0:0,0:0:0:0:
121,150,125201,1,2,0:0:0:0:
172,148,125369,1,0,0:0:0:0:
128,56,125706,1,8,0:0:0:0:
28,60,126043,1,2,0:0:0:0:
72,152,126381,1,8,0:0:0:0:
172,148,126718,2,0,P|189:203|212:260,1,99.9999999999999,2|8,0:0|0:0,0:0:0:0:
307,242,127393,6,0,P|324:195|340:148,1,99.9999999999999,2|8,0:0|0:0,0:0:0:0:
300,116,127897,1,2,0:0:0:0:
256,88,128066,2,0,P|208:88|144:84,1,99.9999999999999,0|8,0:0|0:0,0:0:0:0:
76,148,128740,1,2,0:0:0:0:
136,224,129078,1,8,0:0:0:0:
232,256,129415,2,0,P|284:264|340:268,1,99.9999999999999,2|8,0:0|0:0,0:0:0:0:
404,196,130089,6,0,P|442:187|480:184,2,74.9999999999999,6|0|8,0:0|0:0|0:0,0:0:0:0:
384,152,130763,2,0,P|412:125|443:103,2,74.9999999999999,6|0|8,0:0|0:0|0:0,0:0:0:0:
344,120,131438,2,0,P|355:82|371:48,2,74.9999999999999,6|0|8,0:0|0:0|0:0,0:0:0:0:
296,108,132112,1,2,0:0:0:0:
204,152,132449,1,8,0:0:0:0:
224,196,132617,1,2,0:0:0:0:
248,240,132786,5,0,2:0:0:0:
248,240,134133,6,0,P|180:312|84:272,1,200,6|0,0:0|0:0,0:0:0:0:
8,236,135145,1,8,0:0:0:0:
60,152,135482,2,0,L|48:52,1,99.9999999999999,2|8,0:0|0:0,0:0:0:0:
148,40,136156,1,2,0:0:0:0:
155,90,136324,1,0,0:0:0:0:
160,140,136493,1,8,0:0:0:0:
256,172,136830,6,0,B|344:160|344:160|364:168|364:168|464:156,1,200
508,240,137841,1,8,0:0:0:0:
452,324,138178,1,2,0:0:0:0:
356,296,138515,2,0,P|302:294|244:288,2,99.9999999999999,8|0|8,0:0|0:0|0:0,0:0:0:0:
416,216,139527,6,0,P|424:160|416:104,1,99.9999999999999,6|8,0:0|0:0,0:0:0:0:
332,68,140201,2,0,L|220:76,1,99.9999999999999,0|8,0:0|0:0,0:0:0:0:
156,140,140875,1,2,0:0:0:0:
56,132,141212,1,8,0:0:0:0:
48,232,141549,1,2,0:0:0:0:
148,240,141886,1,8,0:0:0:0:
156,140,142223,6,0,P|144:92|140:52,2,66.6666666666666,4|0|8,0:0|0:0|0:0,0:0:0:0:
212,176,142897,2,0,P|260:164|300:160,2,66.6666666666666,4|0|8,0:0|0:0|0:0,0:0:0:0:
180,236,143572,6,0,P|256:292|332:228,1,200
428,244,144583,1,8,0:0:0:0:
408,148,144920,6,0,P|332:92|256:156,1,200,6|0,0:0|0:0,0:0:0:0:
192,220,145931,1,8,0:0:0:0:
256,296,146268,2,0,P|324:292|368:284,2,99.9999999999999,2|8|2,0:0|0:0|0:0,0:0:0:0:
216,328,147111,1,0,0:0:0:0:
176,360,147279,1,8,0:0:0:0:
80,328,147617,6,0,P|48:228|68:124,1,200
108,48,148628,1,8,0:0:0:0:
196,96,148965,2,0,P|248:96|312:88,1,99.9999999999999,2|8,0:0|0:0,0:0:0:0:
344,176,149639,1,0,0:0:0:0:
444,180,149976,1,8,0:0:0:0:
496,96,150313,6,0,P|464:24|344:12,1,200,6|0,0:0|0:0,0:0:0:0:
297,91,151324,1,8,0:0:0:0:
344,176,151661,1,2,0:0:0:0:
444,180,151999,1,8,0:0:0:0:
388,264,152336,2,0,P|308:276|272:280,1,99.9999999999999,2|8,0:0|0:0,0:0:0:0:
204,224,153010,6,0,L|224:140,2,66.6666666666666,4|0|8,0:0|0:0|0:0,0:0:0:0:
152,264,153684,2,0,L|172:348,2,66.6666666666666,4|0|8,0:0|0:0|0:0,0:0:0:0:
104,216,154358,6,0,B|84:140|84:140|24:96|40:28,1,200
136,56,155369,1,8,0:0:0:0:
196,136,155706,6,0,P|244:136|304:128,1,99.9999999999999,6|8,0:0|0:0,0:0:0:0:
340,40,156381,1,0,0:0:0:0:
428,84,156718,1,8,0:0:0:0:
428,84,156886,2,0,P|440:180|432:252,1,150,2|8,0:0|0:0,0:0:0:0:
460,328,157729,1,0,0:0:0:0:
364,308,158066,1,8,0:0:0:0:
364,308,158234,6,0,P|268:320|196:312,1,150,2|8,0:0|0:0,0:0:0:0:
120,348,159077,2,0,L|96:232,1,99.9999999999999,2|8,0:0|0:0,0:0:0:0:
136,156,159751,2,0,P|228:129|299:193,1,200
268,288,160763,1,8,0:0:0:0:
172,320,161100,6,0,P|108:312|60:304,1,99.9999999999999,6|8,0:0|0:0,0:0:0:0:
12,228,161774,1,0,0:0:0:0:
56,136,162111,1,8,0:0:0:0:
56,136,162279,2,0,P|128:112|216:128,1,150,2|8,0:0|0:0,0:0:0:0:
256,204,163122,1,0,0:0:0:0:
352,172,163459,1,8,0:0:0:0:
352,172,163628,6,0,P|368:100|348:12,1,150,2|8,0:0|0:0,0:0:0:0:
256,0,164470,1,0,0:0:0:0:
157,25,164808,1,8,0:0:0:0:
157,25,164976,6,0,P|143:99|160:172,1,150,2|8,0:0|0:0,0:0:0:0:
180,272,165819,1,0,0:0:0:0:
256,204,166156,1,8,0:0:0:0:
256,204,166324,6,0,L|416:196,1,150,2|8,0:0|0:0,0:0:0:0:
496,244,167167,1,0,0:0:0:0:
440,328,167504,1,8,0:0:0:0:
440,328,167673,6,0,P|368:340|304:304,1,150,2|8,0:0|0:0,0:0:0:0:
240,224,168515,1,0,0:0:0:0:
144,252,168852,1,8,0:0:0:0:
128,204,169021,1,2,0:0:0:0:
116,156,169190,6,0,P|172:140|224:120,1,99.9999999999999,0|8,0:0|0:0,0:0:0:0:
308,156,169864,1,0,0:0:0:0:
288,56,170201,1,8,0:0:0:0:
192,32,170538,2,0,L|132:28,2,50,0|0|8,0:0|0:0|0:0,0:0:0:0:
212,128,171212,2,0,L|208:177,2,50,0|0|4,0:0|0:0|0:0,0:0:0:0:
