osu file format v9

[General]
AudioFilename: Lunatic Tears(Tatsh Remix).mp3
AudioLeadIn: 0
PreviewTime: 126954
Countdown: 0
SampleSet: Normal
StackLeniency: 0.7
Mode: 0
LetterboxInBreaks: 1

[Editor]
DistanceSpacing: 1
BeatDivisor: 4
GridSize: 8

[Metadata]
Title:Lunatic Tears...(Tatsh Remix)
Artist:Tatsh
Creator:Suzully
Version:Patche
Source:11eyes
Tags:Patchouli KSHR Selee kanpakyin

[Difficulty]
HPDrainRate:6
CircleSize:4
OverallDifficulty:7
ApproachRate:8
SliderMultiplier:2
SliderTickRate:1

[Events]
//Background and Video events
0,0,"11eyes_2.jpg"
//Break Periods
2,75677,85636
//Storyboard Layer 0 (Background)
//Storyboard Layer 1 (Fail)
//Storyboard Layer 2 (Pass)
//Storyboard Layer 3 (Foreground)
//Storyboard Sound Samples
//Background Colour Transformations
3,100,163,162,255

[TimingPoints]
4568,340.909090909091,4,1,1,70,1,0
73943,-100,4,1,1,0,0,0
74113,-100,4,1,1,70,0,0
127295,-100,4,1,1,70,0,1
154397,-100,4,1,1,70,0,0
155249,340.909090909091,4,1,1,70,1,1
182522,-100,4,1,1,70,0,0

[HitObjects]
112,144,4567,1,4
112,144,4738,2,0,B|112:40,2,100,0|8|0
400,240,5420,2,0,B|400:344,2,100,0|8|0
304,112,6102,6,0,B|344:80|400:88,1,100,0|8
398,87,6443,1,0
208,272,6783,2,0,B|168:304|112:296,1,100,0|8
113,296,7124,1,0
144,200,7295,5,0
64,144,7465,1,0
152,104,7636,2,0,B|208:112|232:160,1,100,8|0
328,152,7977,2,0,B|328:216|272:248,2,100,0|0|8
424,136,8488,1,0
352,64,8658,5,0
352,64,8829,1,0
152,64,8999,2,0,B|264:64,1,100,8|0
80,176,9340,2,0,B|192:136,1,100
64,312,9681,2,0,B|144:232,1,100,8|0
224,288,10022,5,0
320,320,10192,1,0
296,224,10363,2,0,B|280:168|216:160,1,100,8|0
400,264,10704,2,0,B|424:320|480:320,1,100
496,224,11045,1,8
416,168,11215,1,0
240,80,11386,6,0,B|480:80,2,200,0|8|0
168,152,12238,1,0
256,336,12408,1,8
344,152,12579,1,0
248,184,12749,6,0,B|224:240|160:240,1,100
96,224,13090,1,8
248,264,13261,1,0
320,232,13431,2,0,B|368:200|416:224,1,100
376,296,13772,1,8
456,152,13942,1,0
400,96,14113,6,0,B|376:64|376:64|312:64,1,100
112,96,14454,2,0,B|136:64|136:64|200:64,1,100,8|0
256,144,14795,5,0
256,240,14965,1,0
256,328,15136,5,8
256,56,15306,1,0
192,120,15477,5,0
104,120,15647,2,0,B|104:176|152:224|224:232|272:160,1,200,0|8
320,136,16158,1,0
488,192,16329,2,0,B|376:192,2,100,0|8|0
328,264,16840,6,0,B|464:264,1,100
264,336,17181,2,0,B|408:336,1,100,8|0
200,264,17522,2,0,B|88:264,2,100,0|0|8
344,152,18204,5,0
416,104,18374,2,0,B|384:56|320:48|264:80|256:144,1,200,0|8
258,129,18886,1,0
200,64,19056,2,0,B|160:104|152:184|216:224|280:216,1,200,0|8
336,248,19567,6,0,B|472:248,1,100
264,296,19908,2,0,B|144:296,1,100,8|0
344,336,20249,1,0
344,336,20335,1,0
344,336,20420,1,0
344,336,20505,1,0
344,336,20590,1,8
416,56,20931,5,0
352,120,21102,2,0,B|408:208,2,100,0|8|0
272,72,21613,1,0
272,72,21783,1,0
104,136,21954,2,0,B|232:136,1,100,8|0
464,216,22295,6,0,B|320:216,1,100
40,296,22636,2,0,B|152:296,1,100,8|0
400,336,22977,5,0
256,192,23147,1,0
400,48,23317,1,8
224,64,23658,5,0
168,136,23829,1,0
80,168,23999,2,0,B|64:112|104:72,1,100,8|0
256,192,24340,2,0,B|222:239|169:233,2,100,0|0|8
168,136,24852,1,0
248,296,25022,5,0
328,336,25192,2,0,B|384:352|432:312|432:240|368:208,1,200,4|8
344,128,25704,1,4
432,144,25874,2,0,B|440:80|408:32|344:24|296:48,1,200,4|8
256,120,26386,6,0,B|256:224,1,100,4|0
256,220,26727,1,8
168,232,26897,2,0,B|176:288|216:320|288:328|336:272,2,200,0|8|0
200,144,27749,5,0
288,144,27920,2,0,B|368:80,1,100,0|8
512,192,28261,2,0,B|408:192,1,100
240,232,28602,2,0,B|272:312|368:328|432:248,1,200,0|8
336,216,29113,5,0
208,344,29283,1,0
152,176,29454,1,8
88,240,29624,2,0,B|136:288|208:272|240:232|240:176,2,200,0|8|0
56,152,30477,5,0
144,48,30647,1,0
280,40,30817,1,8
224,160,30988,2,0,B|344:160,1,100
488,232,31329,2,0,B|384:232,1,100,0|8
224,304,31670,1,0
144,272,31840,5,0
144,272,32011,1,8
224,112,32352,2,0,B|128:32|32:120,2,200,0|8|0
368,112,33204,5,0
368,112,33374,1,8
288,272,33715,2,0,B|384:352|480:264,2,200,0|8|0
384,208,34567,5,0
328,152,34738,1,0
280,152,34823,1,8
232,152,34908,1,0
176,80,35079,2,0,B|120:80,2,50
264,80,35420,1,0
312,80,35505,1,0
360,80,35590,1,8
416,152,35761,2,0,B|464:152,2,50
376,240,36102,5,0
366,257,36187,1,0
353,272,36272,1,0
338,285,36357,1,0
322,297,36442,1,0
304,306,36528,1,0
285,313,36613,1,0
265,316,36698,1,0
245,316,36783,1,0
224,315,36869,1,0
204,312,36954,1,0
184,306,37039,1,0
165,298,37124,1,0
147,287,37210,1,0
130,275,37295,1,4
424,96,38658,6,0,B|376:152|288:152|240:88,1,200,4|8
160,72,39170,1,0
184,160,39340,2,0,B|96:232,1,100
184,272,39681,2,0,B|264:352,1,100,8|0
280,256,40022,5,0
120,344,40363,1,8
280,256,40704,1,0
328,184,40874,1,0
400,232,41045,1,8
352,304,41215,1,0
200,200,41386,5,0
128,152,41556,2,0,B|80:136|32:160,2,100,0|8|0
208,112,42067,2,0,B|248:144|304:120,1,100
480,104,42408,2,0,B|440:72|376:96,1,100,8|0
296,56,42749,5,0
440,192,42920,1,0
240,208,43090,1,8
424,288,43261,1,0
392,88,43431,5,0
304,144,43602,1,0
351,225,43772,2,0,B|344:280|280:288,1,100,8|0
109,217,44113,6,0,B|168:232|216:192|224:136|200:88,1,200,0|8
128,136,44624,1,0
160,288,44795,2,0,B|256:376|360:280,2,200,0|8|0
232,232,45647,1,0
320,216,45817,1,8
448,88,46158,5,0
272,40,46329,1,0
176,192,46499,1,8
48,72,46670,1,0
128,120,46840,6,0,B|184:88|240:128,2,100,0|0|8
88,200,47352,1,0
136,280,47522,2,0,B|184:312|232:280,1,100
229,281,47863,2,0,B|288:312|336:272,1,100,8|0
408,312,48204,5,0
472,192,48374,1,0
264,112,48545,1,8
400,88,48715,1,0
352,216,48886,2,0,B|248:216,1,100
16,216,49227,2,0,B|144:216,1,100,8|0
184,152,49567,5,0
352,224,49908,6,0,B|392:176|360:128,1,100,8|0
362,131,50249,2,0,B|256:64|176:160,1,200,0|8
264,192,50761,1,0
104,120,50931,6,0,B|104:64|160:40,1,100
192,128,51272,2,0,B|192:184|128:208,1,100,8|0
48,192,51613,5,0
224,216,51783,1,0
168,288,51954,1,8
104,120,52124,1,0
137,204,52295,6,0,B|64:232|56:336|136:368,1,200,0|8
168,288,52806,1,0
168,288,52977,2,0,B|288:288,1,100
344,336,53317,1,8
344,248,53488,1,0
432,264,53658,6,0,B|472:224|440:168,1,100
376,112,53999,1,8
376,112,54170,1,0
304,168,54340,2,0,B|232:168|232:168|200:120,1,100
216,56,54681,2,0,B|144:56|144:56|112:104,1,100,8|0
176,152,55022,6,0,B|304:312,1,200,0|8
352,232,55533,1,0
192,312,55704,2,0,B|72:312,1,100
144,240,56045,2,0,B|280:240,1,100,8|0
304,176,56386,5,0
400,24,56556,1,0
216,24,56727,1,8
304,176,56897,1,0
368,112,57067,6,0,B|408:160|384:208,1,100
320,264,57408,1,8
232,232,57579,1,0
304,176,57749,6,0,B|208:104,1,100
80,224,58090,2,0,B|168:160,1,100,8|0
160,256,58431,5,0
296,336,58602,1,0
432,256,58772,1,8
408,96,58942,1,0
256,64,59113,6,0,B|256:112,7,50,0|0|0|0|0|0|0|0
256,160,59795,2,0,B|256:248,7,50,0|0|0|0|0|0|0|0
256,256,60477,6,0,B|352:320|448:248,1,200,4|8
368,200,60988,1,0
368,200,61158,2,0,B|368:88,1,100
280,64,61499,2,0,B|280:176,1,100,8|0
192,120,61840,5,0
72,64,62011,1,0
88,200,62181,1,8
224,320,62522,6,0,B|272:344|328:312,1,100
272,240,62863,2,0,B|328:232|344:168,1,100,8|0
248,152,63204,1,0
184,216,63374,2,0,B|64:216,2,100,0|8|0
328,320,63886,2,0,B|216:320,1,100
320,160,64227,2,0,B|432:160,1,100,8|0
384,80,64567,5,0
304,40,64738,1,0
248,112,64908,2,0,B|224:168|144:160,1,100,8|0
96,104,65249,5,0
120,280,65420,1,0
288,336,65590,1,8
440,240,65761,1,0
384,72,65931,6,0,B|264:88|248:216,1,200,4|8
250,199,66442,1,0
184,144,66613,2,0,B|144:96|168:48,1,100
88,104,66954,2,0,B|32:136|40:192,1,100,8|0
128,208,67295,5,0
152,296,67465,1,0
240,280,67636,1,8
320,320,67806,1,0
312,232,67977,2,0,B|264:136,1,100
400,264,68317,2,0,B|344:160,1,100,8|0
352,175,68658,5,0
232,40,68999,1,8
64,104,69340,1,0
88,280,69681,1,8
264,328,70022,6,0,B|208:224,1,100
304,232,70363,2,0,B|352:136,1,100,8|0
288,80,70704,5,0
408,216,70874,1,0
240,152,71045,1,8
256,192,71386,12,0,74028
256,192,74113,12,4,75477
80,128,86386,6,0,B|168:56|288:96,1,200,4|8
268,90,86897,1,0
240,168,87068,1,0
320,160,87238,2,0,B|368:128|352:48,1,100,0|8
272,240,87579,2,0,B|208:264|160:216|144:168|184:112,1,200
272,240,88090,1,8
352,232,88261,2,0,B|352:296|304:336|240:328|200:280,1,200
272,240,88772,1,8
304,168,88943,1,0
392,160,89113,6,0,B|496:152,2,100,0|0|8
344,96,89624,2,0,B|296:64|296:64|248:96|248:96|176:48,1,200
112,104,90136,1,8
64,168,90306,2,0,B|64:312|64:312|112:344,1,200
336,256,90818,2,0,B|336:184|336:184|288:152,1,100,8|0
176,168,91158,2,0,B|176:240|176:240|224:272,1,100
400,336,91499,2,0,B|448:304|448:304|448:160,1,200,8|0
400,96,92011,5,0
368,168,92181,2,0,B|336:216|272:216,1,100,8|0
128,240,92522,2,0,B|152:192|208:184,1,100
284,215,92863,1,8
344,272,93033,1,0
312,296,93119,1,0
272,304,93204,1,0
232,296,93289,1,0
200,272,93374,2,0,B|168:232|168:168|208:128|264:112,1,200,0|8
440,152,93886,2,0,B|320:152,1,100
176,80,94227,1,8
144,240,94568,6,0,B|120:288|56:296,2,100,0|0|8
216,200,95079,2,0,B|328:176|392:280,1,200
448,224,95590,1,8
424,144,95761,6,0,B|352:56|240:104,1,200,0|8
256,192,96272,1,0
88,240,96443,2,0,B|160:328|272:280,1,200,0|8
256,192,97124,5,0
256,192,97295,1,4
152,72,97636,6,0,B|200:104|256:80,1,100,8|0
400,128,97977,2,0,B|344:112|296:144,1,100
72,184,98318,2,0,B|128:224|184:192,1,100,8|0
312,272,98658,6,0,B|264:240|208:272,1,100,0|0
264,336,98999,1,8
392,240,99170,1,0
272,136,99340,2,0,B|160:136,1,100
312,64,99681,1,8
312,64,99852,1,0
352,136,100022,6,0,B|344:192|288:216,1,100
112,216,100363,2,0,B|232:216,1,100,8|0
392,216,100704,1,0
304,184,100874,2,0,B|304:80,2,100,0|8|0
212,216,101386,6,0,B|220:272|276:296,1,100
452,296,101727,2,0,B|332:296,1,100,8|0
172,296,102068,1,0
264,264,102238,2,0,B|264:160,2,100,0|8|0
352,232,102749,6,0,B|376:176|440:176,1,100,4|0
344,136,103090,1,8
344,136,103261,2,0,B|264:48|152:120,1,200
104,48,103772,1,8
224,184,103943,1,0
120,192,104113,6,0,B|64:176|56:120,1,100
144,112,104454,1,8
96,272,104624,2,0,B|176:304|256:272|280:208,1,200
344,280,105136,1,8
352,232,105221,1,0
360,192,105306,1,0
312,112,105477,6,0,B|368:88|416:120,1,100
200,112,105818,2,0,B|144:88|96:120,1,100,8|0
256,192,106158,2,0,B|152:280|352:272|248:352,2,200,0|8|0
328,136,107011,5,0
416,160,107181,1,8
432,248,107352,1,0
368,312,107522,2,0,B|328:264|360:208,1,100
354,218,107778,1,0
354,218,107863,1,8
288,272,108033,1,0
200,296,108204,6,0,B|144:296|120:248,1,100
119,247,108545,1,8
200,208,108715,2,0,B|312:192|312:48,1,200
224,96,109227,1,8
224,96,109312,1,0
224,96,109397,1,0
144,56,109568,6,0,B|120:112|160:152,2,100,0|0|8
304,144,110079,1,0
304,144,110420,2,0,B|336:96|296:40,2,100,0|8|0
232,200,110931,6,0,B|320:272,1,100
472,336,111272,2,0,B|384:256,1,100,8|0
309,263,111613,5,0
488,256,111783,1,0
432,184,111954,1,8
344,344,112124,1,0
216,248,112295,6,0,B|208:312|264:344,2,100,0|0|8
256,176,112806,1,0
336,152,112977,2,0,B|320:96|248:64|192:96|168:160,1,200,0|8
179,136,113488,1,0
184,216,113658,6,0,B|112:216|112:216|88:168,1,100
99,190,113999,1,8
232,280,114170,2,0,B|392:280|392:280|424:232,1,200
328,112,114681,2,0,B|248:112|248:112|216:160,1,100,8|0
288,192,115022,6,0,B|408:192,2,100,0|0|8
88,192,115533,2,0,B|208:192,2,100
248,120,116045,1,8
184,264,116215,1,0
120,120,116386,6,0,B|160:120|160:120|208:192|208:192|288:192,1,200,0|8
328,128,116897,1,0
408,136,117068,2,0,B|360:208|360:208|328:208,1,100
416,176,117408,2,0,B|368:248|368:248|336:248,1,100,8|0
424,216,117749,2,0,B|376:288|376:288|344:288,1,100
432,256,118090,2,0,B|384:328|384:328|352:328,1,100,8|0
370,328,118431,5,0
264,208,118772,1,8
160,328,119113,2,0,B|272:352|336:248,1,200,0|8
384,104,119624,2,0,B|360:160|408:208,1,100
320,176,119965,1,0
320,176,120136,2,0,B|248:96,1,100,8|0
240,184,120477,6,0,B|176:288|56:224,1,200,0|8
88,152,120988,2,0,B|128:112|184:128,1,100
256,104,121329,1,0
440,104,121499,2,0,B|312:104,1,100,8|0
340,104,121840,1,0
392,168,122011,6,0,B|416:216|416:216|392:264,1,100,0|8
328,216,122352,2,0,B|224:216,1,100
88,144,122693,2,0,B|200:144,1,100,0|8
128,248,123033,5,0
160,272,123119,1,0
200,280,123204,2,0,B|328:280,1,100
336,352,123545,1,8
384,288,123715,1,0
320,144,123886,2,0,B|312:248,1,100,0|4
312,243,124397,1,0
112,144,124568,6,0,B|80:192|112:240,1,100
400,144,124908,2,0,B|432:192|400:240,1,100,8|0
256,344,125249,2,0,B|256:232,1,100
192,48,125590,1,8
320,48,125761,1,0
256,136,125931,6,0,B|256:184,8,50,0|0|0|0|0|0|0|0|4
144,248,126954,5,0
224,312,127124,1,0
240,216,127295,2,0,B|272:96|424:112,1,200,4|8
344,200,127806,2,0,B|296:256|328:328|400:336|448:304,1,200
440,216,128318,5,8
256,48,128488,1,0
344,96,128658,6,0,B|400:112|448:80,2,100,0|0|8
144,72,129170,1,0
144,72,129511,1,0
304,192,129681,2,0,B|400:264,1,100,8|0
288,288,130022,5,0
208,352,130193,1,0
192,256,130363,2,0,B|128:280|128:280|96:264,1,100,8|0
136,176,130704,1,0
136,176,130874,1,0
80,96,131045,2,0,B|144:72|144:72|176:88,1,100,8|0
376,96,131386,5,0
376,96,131556,2,0,B|368:176|288:208|216:152,1,200,0|8
424,200,132238,1,0
264,80,132579,1,8
72,136,132749,6,0,B|104:184|104:184|272:184,1,200,4|8
408,304,133261,1,0
360,280,133346,1,0
312,272,133431,2,0,B|240:272|240:272|208:320,1,100
96,224,133772,2,0,B|168:224|168:224|200:176,1,100,8|0
264,16,134113,5,0
304,208,134283,1,4
152,72,134454,1,8
352,104,134624,2,0,B|280:104|280:104|248:152|248:152|176:152,2,200,0|8|0
416,176,135477,6,0,B|440:224|432:288|384:328|288:296,1,200,4|8
208,216,135988,1,0
208,216,136073,1,0
208,216,136158,2,0,B|336:216,1,100
336,120,136499,1,8
240,80,136670,6,0,B|136:56,1,100
248,168,137011,2,0,B|136:184,1,100,0|8
288,248,137352,2,0,B|192:320,1,100
360,304,137693,2,0,B|304:392,2,100,0|8|0
368,200,138204,6,0,B|376:80|272:32,1,200,4|8
216,112,138715,2,0,B|96:80,1,100
64,168,139056,1,0
160,200,139227,1,8
136,240,139312,1,0
104,272,139397,1,0
200,288,139568,2,0,B|248:224|336:232|368:304,1,200,0|8
280,352,140079,1,0
280,152,140420,5,0
104,64,140590,1,8
216,224,140761,1,0
304,240,140931,6,0,B|416:240,1,100
192,136,141272,2,0,B|80:136,2,100,8|0|0
368,48,141783,1,0
464,224,141954,1,8
288,328,142124,1,0
192,296,142295,5,0
264,232,142465,2,0,B|360:272|352:144|440:176,1,200,0|8
240,144,143147,2,0,B|144:104|152:232|64:200,1,200,0|8
128,280,143658,5,4
128,280,143744,1,0
128,280,143829,1,0
216,336,143999,2,0,B|288:320|288:320|320:272,1,100,8|0
302,298,144511,1,0
216,240,144681,2,0,B|256:184|320:200,1,100,8|0
384,248,145022,5,0
392,200,145107,1,0
384,152,145193,2,0,B|368:96|304:88,1,100,0|8
408,64,145533,1,0
216,104,145874,2,0,B|88:104,1,100,0|8
116,104,146215,1,0
160,192,146386,6,0,B|288:192,2,100,4|0|8
128,288,146897,2,0,B|160:336|160:336|304:336,1,200
400,304,147408,2,0,B|376:248|320:240,1,100,8|0
128,200,147920,5,0
328,160,148261,1,8
128,120,148602,1,0
328,80,148943,1,8
248,120,149113,6,0,B|248:232,1,100
160,272,149454,2,0,B|160:168,1,100,8|0
336,72,149795,2,0,B|336:176,1,100
72,320,150136,2,0,B|72:216,1,100,8|0
424,32,150477,2,0,B|424:144,1,100,4|0
256,192,150818,1,8
328,256,150988,6,0,B|368:304|432:296,2,100
152,272,151499,2,0,B|272:272,1,100,8|0
360,112,152011,2,0,B|240:112,1,100,0|8
176,160,152352,5,0
168,248,152522,1,0
256,272,152693,1,0
336,224,152863,1,8
360,312,153033,1,0
256,192,153204,12,4,154397
96,88,155249,6,0,B|144:192|272:144,1,200,4|8
448,144,155760,2,0,B|432:264|280:248,1,200
128,280,156271,2,0,B|168:232|224:240,1,100,8|0
208,328,156612,5,0
88,192,156783,1,0
208,56,156953,1,8
376,128,157123,2,0,B|352:240|224:240,1,200
112,104,157635,2,0,B|160:168|256:168|296:104,1,200,8|0
286,116,158146,1,0
320,200,158317,6,0,B|416:232,2,100,8|0|0
240,248,158828,2,0,B|120:208,2,100,0|8|0
296,320,159339,5,0
376,280,159510,1,0
424,200,159680,1,8
392,112,159851,1,0
320,64,160021,2,0,B|288:112|328:168,1,100
320,320,160362,2,0,B|352:272|312:216,1,100,8|0
232,192,160703,5,0
208,192,160788,1,0
184,192,160873,1,0
160,192,160959,1,0
136,192,161044,2,0,B|16:192,2,100,8|0|4
184,112,161555,1,0
272,112,161726,1,8
320,192,161896,1,0
272,272,162067,5,0
296,272,162152,1,0
320,272,162237,1,0
344,272,162322,1,0
368,272,162408,2,0,B|488:272,2,100,8|0|4
320,192,162919,1,0
232,192,163089,1,8
184,272,163260,1,0
112,328,163430,6,0,B|88:280|88:280|112:224,1,100
224,160,163771,1,8
336,72,163942,1,4
432,176,164112,2,0,B|384:208|328:192,1,100
320,336,164453,2,0,B|256:328|248:256,1,100,8|4
184,192,164794,5,0
296,120,164964,1,4
328,248,165135,1,8
440,320,165305,1,4
480,192,165476,6,0,B|432:168|376:192,1,100,0|4
32,192,165817,2,0,B|80:216|136:192,1,100,8|4
96,112,166158,6,0,B|152:96|200:120|232:168|208:240,1,200,4|8
416,272,166669,2,0,B|360:288|312:264|280:216|304:144,2,200,0|8|0
384,184,167521,6,0,B|424:176|448:200,2,50
240,288,167862,1,8
152,296,168033,2,0,B|72:296|40:200|112:136,1,200
272,200,168544,2,0,B|144:216,1,100,8|0
336,280,168885,1,0
368,192,169055,6,0,B|416:208|432:264,2,100,0|8|0
216,96,169567,2,0,B|264:136|320:120,1,100
308,122,169822,1,0
308,122,169908,1,8
288,32,170078,1,0
464,64,170248,6,0,B|352:64,1,100
408,144,170589,1,8
352,216,170760,1,0
360,304,170930,2,0,B|408:320,2,50
320,288,171186,1,0
280,272,171271,1,8
200,320,171442,1,0
112,304,171612,6,0,B|32:208|136:120,1,200,4|8
176,200,172123,2,0,B|224:168|208:112,1,100
160,40,172464,5,4
272,184,172635,1,8
232,8,172805,1,4
272,88,172976,6,0,B|352:168|464:104,1,200,0|8
384,48,173487,1,0
384,48,173572,1,0
384,48,173658,1,0
472,208,173828,1,4
344,336,173998,1,8
168,304,174169,1,4
56,160,174339,6,0,B|128:88|168:240|240:152,1,200,4|8
233,158,174851,1,4
464,256,175021,2,0,B|392:328|352:176|280:264,1,200,0|8
286,257,175533,1,4
200,240,175703,6,0,B|96:216,1,100,0|4
328,168,176044,2,0,B|432:144,1,100,8|4
168,120,176385,2,0,B|64:96,1,100,0|4
344,48,176726,2,0,B|456:24,1,100,8|4
256,72,177067,6,0,B|256:120,15,50,4|0|0|0|0|0|0|0|0|0|0|0|0|0|0|0
256,168,178430,2,0,B|256:240,15,50
264,264,179794,6,0,B|288:304|320:296,7,50
344,304,180476,2,0,B|376:304|400:280,7,50
416,256,181158,6,0,B|440:208,3,50
408,176,181498,2,0,B|384:128,3,50
404,123,181839,5,0
404,113,181925,1,0
404,102,182010,1,0
404,92,182095,1,0
404,82,182180,1,0
404,72,182266,1,0
404,61,182351,1,0
404,51,182436,1,0
404,41,182521,5,4
