osu file format v14

[General]
AudioFilename: 12 Lunatic Tears... (Tatsh Remix) - ex edit.mp3
AudioLeadIn: 0
PreviewTime: 137491
Countdown: 0
SampleSet: Normal
StackLeniency: 0.7
Mode: 0
LetterboxInBreaks: 0
WidescreenStoryboard: 1

[Editor]
Bookmarks: 329592,332319,339138
DistanceSpacing: 1.3
BeatDivisor: 4
GridSize: 4
TimelineZoom: 1.8

[Metadata]
Title:Lunatic Tears... (Tatsh Remix)
TitleUnicode:Lunatic Tears... (Tatsh Remix)
Artist:Tatsh
ArtistUnicode:Tatsh
Creator:NewRulerNA
Version:Sin
Source:11eyes -Tsumi to Batsu to Aganai no Shoujo-
Tags:Patchouli Lass Ayane Remix Resona Forma
BeatmapID:628313
BeatmapSetID:277251

[Difficulty]
HPDrainRate:6
CircleSize:4.2
OverallDifficulty:7
ApproachRate:9
SliderMultiplier:1.5
SliderTickRate:2

[Events]
//Background and Video events
0,0,"fd_shi14_22.png",0,0
//Break Periods
2,86383,96493
2,203656,213766
//Storyboard Layer 0 (Background)
//Storyboard Layer 1 (Fail)
//Storyboard Layer 2 (Pass)
//Storyboard Layer 3 (Foreground)
//Storyboard Sound Samples

[TimingPoints]
4366,340.909090909091,4,1,100,80,1,0
38456,-100,4,1,100,70,0,0
60275,-100,4,1,100,80,0,0
97434,-100,4,1,100,100,0,0
97519,-100,4,1,100,80,0,0
113116,-100,4,1,0,40,0,0
113456,-100,4,1,100,80,0,0
137491,-100,4,1,100,80,0,1
148400,-133.333333333333,4,1,100,80,0,1
148911,-100,4,1,100,80,0,1
164252,-100,4,1,100,50,0,1
164422,-100,4,1,100,60,0,1
164763,-100,4,1,100,70,0,1
165104,-100,4,1,100,80,0,0
170729,-133.333333333333,4,1,100,80,0,0
172093,-100,4,1,100,80,0,0
230388,-100,4,1,0,40,0,0
230729,-100,4,1,100,80,0,0
255275,-100,4,1,100,80,0,1
265672,-133.333333333333,4,1,100,80,0,1
266184,-100,4,1,100,80,0,1
281525,-100,4,1,100,60,0,1
281695,-100,4,1,100,70,0,1
282036,-100,4,1,100,90,0,1
282377,-100,4,1,100,90,0,0
283229,340.909090909091,4,1,100,80,1,1
310501,-100,4,1,100,80,0,0

[Colours]
Combo1 : 0,255,255
Combo2 : 255,0,0
Combo3 : 128,128,128

[HitObjects]
372,132,4366,5,4,0:2:0:0:
284,184,4536,1,0,0:0:0:0:
255,184,4621,1,0,0:0:0:0:
228,180,4706,1,8,0:0:0:0:
202,169,4792,1,0,0:0:0:0:
178,154,4877,2,0,L|168:64,1,75
284,184,5218,1,0,0:0:0:0:
284,212,5303,1,0,0:0:0:0:
280,239,5388,1,8,0:0:0:0:
269,265,5473,1,0,0:0:0:0:
254,289,5559,2,0,L|163:299,1,75
43,202,5900,5,0,0:0:0:0:
70,193,5985,1,0,0:0:0:0:
93,178,6070,1,8,0:0:0:0:
111,157,6155,1,0,0:0:0:0:
124,132,6241,2,0,P|152:84|184:64,1,75
291,113,6581,1,0,0:0:0:0:
299,140,6667,1,0,0:0:0:0:
304,167,6752,1,8,0:0:0:0:
305,195,6837,1,0,0:0:0:0:
300,224,6922,2,0,P|348:252|368:284,1,75
184,320,7263,5,0,0:0:0:0:
166,298,7348,1,0,0:0:0:0:
157,271,7434,1,8,0:0:0:0:
157,243,7519,1,0,0:0:0:0:
166,217,7604,2,0,L|184:132,1,75
288,104,7945,1,0,0:0:0:0:
288,104,8030,1,0,0:0:0:0:
288,104,8116,2,0,L|328:80,1,37.5,8|0,0:0|0:0,0:0:0:0:
344,48,8286,2,0,P|388:48|436:68,1,75
416,208,8627,5,0,0:0:0:0:
416,208,8712,1,0,0:0:0:0:
416,208,8797,2,0,L|400:264,1,37.5,8|0,0:0|0:0,0:0:0:0:
364,280,8968,2,0,P|328:256|268:244,1,75
104,292,9309,1,0,0:0:0:0:
104,292,9394,1,0,0:0:0:0:
104,292,9479,2,0,L|120:236,1,37.5,8|0,0:0|0:0,0:0:0:0:
156,220,9650,2,0,P|192:244|252:256,1,75
225,61,9991,5,0,0:0:0:0:
217,88,10076,1,0,0:0:0:0:
214,115,10161,1,8,0:0:0:0:
216,144,10246,1,0,0:0:0:0:
222,171,10331,2,0,L|310:183,1,75
404,224,10672,1,0,0:0:0:0:
412,197,10758,1,0,0:0:0:0:
415,170,10843,1,8,0:0:0:0:
413,141,10928,1,0,0:0:0:0:
407,114,11013,2,0,L|319:102,1,75
136,84,11354,6,0,L|108:56,3,37.5,0|0|8|0,0:0|0:0|0:0|0:0,0:0:0:0:
160,108,11695,2,0,L|148:216,1,75
240,304,12036,2,0,L|268:332,3,37.5,0|0|8|0,0:0|0:0|0:0|0:0,0:0:0:0:
216,280,12377,2,0,L|228:172,1,75
244,76,12718,5,0,0:0:0:0:
267,61,12803,1,0,0:0:0:0:
293,50,12888,1,8,0:0:0:0:
321,44,12973,1,0,0:0:0:0:
348,44,13059,2,0,L|412:120,1,75
367,274,13400,1,0,0:0:0:0:
343,260,13485,1,0,0:0:0:0:
320,243,13570,1,8,0:0:0:0:
301,222,13655,1,0,0:0:0:0:
288,200,13741,2,0,L|321:106,1,75
236,32,14081,5,0,0:0:0:0:
208,26,14167,1,0,0:0:0:0:
180,23,14252,1,8,0:0:0:0:
152,25,14337,1,0,0:0:0:0:
124,28,14422,1,0,0:0:0:0:
56,136,14593,1,4,0:2:0:0:
224,112,14763,1,4,0:2:0:0:
316,152,14934,1,4,0:2:0:0:
148,176,15104,1,4,0:2:0:0:
211,18,15275,5,6,0:0:0:0:
224,112,15445,2,0,P|232:164|216:248,1,112.5,2|0,0:0|0:0,0:0:0:0:
192,264,15786,1,2,0:0:0:0:
116,156,15956,1,2,0:0:0:0:
332,68,16127,2,0,P|340:120|324:204,1,112.5,2|0,0:0|0:0,0:0:0:0:
300,224,16468,1,2,0:0:0:0:
224,112,16638,1,2,0:0:0:0:
440,24,16809,2,0,P|448:76|432:160,1,112.5,2|0,0:0|0:0,0:0:0:0:
408,180,17150,1,2,0:0:0:0:
332,68,17320,1,2,0:0:0:0:
224,112,17491,1,0,0:0:0:0:
255,236,17661,2,0,P|218:238|184:224,1,75,2|0,0:0|0:0,0:0:0:0:
224,112,18002,5,2,0:0:0:0:
440,24,18172,2,0,P|448:76|432:160,1,112.5,2|0,0:0|0:0,0:0:0:0:
380,196,18513,1,2,0:0:0:0:
332,68,18684,1,2,0:0:0:0:
224,112,18854,2,0,P|156:104|88:64,1,112.5,2|0,0:0|0:0,0:0:0:0:
100,40,19195,1,2,0:0:0:0:
224,112,19366,1,2,0:0:0:0:
120,296,19536,2,0,P|120:216|124:160,1,112.5,2|0,0:0|0:0,0:0:0:0:
168,176,19877,1,2,0:0:0:0:
352,120,20047,2,0,L|440:92,1,75,2|0,0:0|0:0,0:0:0:0:
160,264,20388,2,0,L|88:286,1,75,2|0,0:0|0:0,0:0:0:0:
280,228,20729,5,2,0:0:0:0:
152,184,20900,2,0,P|152:108|160:48,1,112.5,2|0,0:0|0:0,0:0:0:0:
196,40,21241,1,2,0:0:0:0:
244,152,21411,1,2,0:0:0:0:
200,280,21581,2,0,P|124:280|64:272,1,112.5,2|0,0:0|0:0,0:0:0:0:
56,236,21922,1,2,0:0:0:0:
168,188,22093,1,2,0:0:0:0:
240,304,22263,2,0,P|312:296|368:264,1,112.5,2|0,0:0|0:0,0:0:0:0:
372,236,22604,1,2,0:0:0:0:
320,144,22775,1,2,0:0:0:0:
396,76,22945,1,0,0:0:0:0:
372,236,23116,2,0,L|288:256,1,75,2|0,0:0|0:0,0:0:0:0:
104,200,23456,5,2,0:0:0:0:
192,136,23627,2,0,P|208:184|188:260,1,112.5,2|0,0:0|0:0,0:0:0:0:
128,272,23968,1,2,0:0:0:0:
112,120,24138,1,2,0:0:0:0:
276,128,24309,2,0,P|288:188|276:264,1,112.5,2|0,0:0|0:0,0:0:0:0:
216,292,24650,1,2,0:0:0:0:
112,120,24820,1,2,0:0:0:0:
163,206,24991,1,2,0:0:0:0:
252,120,25161,2,0,L|272:16,1,75,2|0,0:0|0:0,0:0:0:0:
212,144,25502,1,6,0:2:0:0:
263,230,25672,1,0,0:0:0:0:
352,144,25843,2,0,L|372:40,1,75,4|0,0:2|0:0,0:0:0:0:
352,240,26184,6,0,L|372:344,2,75,2|0|8,0:0|0:0|0:0,0:0:0:0:
272,128,26695,2,0,P|220:120|148:128,1,112.5,2|0,0:0|0:0,0:0:0:0:
140,160,27036,1,2,0:0:0:0:
24,120,27206,1,8,0:0:0:0:
160,125,27377,1,2,0:0:0:0:
288,124,27547,2,0,L|320:40,2,75,2|0|8,0:0|0:0|0:0,0:0:0:0:
240,256,28059,2,0,P|292:264|364:256,1,112.5,2|0,0:0|0:0,0:0:0:0:
372,224,28400,1,2,0:0:0:0:
488,264,28570,1,8,0:0:0:0:
351,258,28741,1,2,0:0:0:0:
288,124,28911,6,0,L|256:40,2,75,2|0|8,0:0|0:0|0:0,0:0:0:0:
232,224,29422,2,0,P|236:304|208:364,1,112.5,2|0,0:0|0:0,0:0:0:0:
176,348,29763,2,0,L|88:344,1,75,2|8,0:0|0:0,0:0:0:0:
8,252,30104,1,2,0:0:0:0:
96,164,30275,2,0,P|108:120|112:72,2,75,2|0|8,0:0|0:0|0:0,0:0:0:0:
116,268,30786,2,0,P|196:288|248:280,1,112.5,2|0,0:0|0:0,0:0:0:0:
272,244,31127,1,2,0:0:0:0:
252,100,31297,1,8,0:0:0:0:
212,228,31468,1,2,0:0:0:0:
380,308,31638,6,0,L|484:288,2,75,2|0|8,0:0|0:0|0:0,0:0:0:0:
212,228,32150,2,0,P|196:280|204:344,1,112.5,2|0,0:0|0:0,0:0:0:0:
256,360,32491,1,2,0:0:0:0:
212,228,32661,1,8,0:0:0:0:
344,228,32831,1,2,0:0:0:0:
278,97,33002,2,0,P|275:134|276:172,1,75,2|0,0:0|0:0,0:0:0:0:
368,248,33343,1,8,0:0:0:0:
276,171,33513,2,0,P|212:144|144:144,1,112.5,2|0,0:0|0:0,0:0:0:0:
116,188,33854,2,0,L|36:192,2,75,2|8|2,0:0|0:0|0:0,0:0:0:0:
196,100,34366,5,2,0:0:0:0:
312,112,34536,1,2,0:0:0:0:
336,80,34621,1,0,0:0:0:0:
360,48,34706,1,2,0:0:0:0:
320,152,34877,1,2,0:0:0:0:
296,184,34962,1,0,0:0:0:0:
276,216,35047,1,2,0:0:0:0:
164,188,35218,1,2,0:0:0:0:
188,156,35303,1,0,0:0:0:0:
212,124,35388,1,2,0:0:0:0:
176,228,35559,1,2,0:0:0:0:
152,260,35644,1,0,0:0:0:0:
128,292,35729,1,2,0:0:0:0:
160,310,35814,1,0,0:0:0:0:
196,320,35900,1,0,0:0:0:0:
233,321,35985,1,0,0:0:0:0:
270,312,36070,1,2,0:0:0:0:
303,294,36155,1,0,0:0:0:0:
330,269,36241,1,0,0:0:0:0:
348,236,36326,1,0,0:0:0:0:
360,200,36411,2,0,L|364:172,16,18.75,2|0|0|0|0|0|0|0|0|0|0|0|0|0|0|0|0,0:0|0:0|0:0|0:0|0:0|0:0|0:0|0:0|0:0|0:0|0:0|0:0|0:0|0:0|0:0|0:0|0:0,0:0:0:0:
206,65,38456,6,0,B|176:88|176:88|152:144|196:191,1,150,6|10,0:0|0:0,0:0:0:0:
305,318,38968,1,0,0:0:0:0:
305,318,39138,2,0,B|336:296|336:296|360:240|315:192,1,150,2|10,0:0|0:0,0:0:0:0:
208,240,39820,2,0,L|200:328,1,75,2|0,0:0|0:0,0:0:0:0:
304,144,40161,2,0,L|310:69,1,75,10|0,0:0|0:0,0:0:0:0:
228,136,40502,1,2,0:0:0:0:
152,228,40672,1,2,0:0:0:0:
104,120,40843,1,10,0:0:0:0:
180,28,41013,1,2,0:0:0:0:
304,144,41184,6,0,P|340:132|372:104,1,75,2|0,0:0|0:0,0:0:0:0:
208,144,41525,2,0,P|172:132|140:104,1,75,10|0,0:0|0:0,0:0:0:0:
320,32,41866,1,2,0:0:0:0:
192,32,42036,1,2,0:0:0:0:
313,47,42206,1,10,0:0:0:0:
198,47,42377,1,2,0:0:0:0:
304,144,42547,2,0,L|320:240,1,75,2|0,0:0|0:0,0:0:0:0:
208,144,42888,2,0,L|192:240,1,75,10|0,0:0|0:0,0:0:0:0:
256,344,43229,1,2,0:0:0:0:
352,288,43400,1,2,0:0:0:0:
160,288,43570,1,10,0:0:0:0:
256,344,43741,1,2,0:0:0:0:
352,288,43911,6,0,P|380:208|372:132,1,150,2|10,0:0|0:0,0:0:0:0:
160,96,44422,1,0,0:0:0:0:
160,96,44593,2,0,P|132:176|140:252,1,150,2|10,0:0|0:0,0:0:0:0:
248,128,45275,2,0,L|328:116,1,75,2|0,0:0|0:0,0:0:0:0:
264,256,45616,2,0,L|184:268,1,75,10|0,0:0|0:0,0:0:0:0:
248,128,45956,1,2,0:0:0:0:
264,256,46127,1,2,0:0:0:0:
152,144,46297,1,10,0:0:0:0:
300,192,46468,1,2,0:0:0:0:
368,96,46638,6,0,L|384:16,1,75,2|0,0:0|0:0,0:0:0:0:
448,160,46979,2,0,L|368:176,1,75,10|0,0:0|0:0,0:0:0:0:
248,128,47320,1,2,0:0:0:0:
168,216,47491,1,2,0:0:0:0:
44,172,47661,2,0,P|32:112|32:76,1,75,10|2,0:0|0:0,0:0:0:0:
136,16,48002,1,2,0:0:0:0:
144,136,48172,1,0,0:0:0:0:
50,246,48343,2,0,L|44:172,1,75,10|0,0:0|0:0,0:0:0:0:
92,76,48684,1,2,0:0:0:0:
196,80,48854,1,2,0:0:0:0:
252,168,49025,2,0,L|258:242,1,75,10|2,0:0|0:0,0:0:0:0:
328,344,49366,6,0,P|372:280|376:196,1,150,2|10,0:0|0:0,0:0:0:0:
184,40,49877,1,0,0:0:0:0:
184,40,50047,2,0,P|140:104|136:188,1,150,2|10,0:0|0:0,0:0:0:0:
268,332,50729,2,0,L|252:248,1,75,2|0,0:0|0:0,0:0:0:0:
268,52,51070,2,0,L|252:136,1,75,10|0,0:0|0:0,0:0:0:0:
384,184,51411,1,2,0:0:0:0:
272,220,51581,1,2,0:0:0:0:
156,156,51752,2,0,P|100:148|64:152,1,75,10|2,0:0|0:0,0:0:0:0:
264,320,52093,5,2,0:0:0:0:
228,208,52263,1,0,0:0:0:0:
336,104,52434,2,0,P|336:141|329:178,1,75,10|0,0:0|0:0,0:0:0:0:
175,280,52775,2,0,P|175:242|182:205,1,75,2|2,0:0|0:0,0:0:0:0:
329,178,53116,2,0,L|424:156,1,75,10|2,0:0|0:0,0:0:0:0:
436,260,53456,1,2,0:0:0:0:
329,178,53627,1,0,0:0:0:0:
400,64,53797,2,0,L|494:41,1,75,10|0,0:0|0:0,0:0:0:0:
329,178,54138,1,2,0:0:0:0:
260,92,54309,1,2,0:0:0:0:
252,252,54479,2,0,P|244:288|240:356,1,75,10|2,0:0|0:0,0:0:0:0:
329,178,54820,6,0,P|240:152|168:184,1,150,2|10,0:0|0:0,0:0:0:0:
28,244,55331,1,0,0:0:0:0:
28,244,55502,2,0,P|117:270|189:238,1,150,2|10,0:0|0:0,0:0:0:0:
244,40,56184,2,0,L|260:128,1,75,2|0,0:0|0:0,0:0:0:0:
352,176,56525,2,0,L|365:249,1,75,10|0,0:0|0:0,0:0:0:0:
344,96,56866,1,2,0:0:0:0:
280,220,57036,1,2,0:0:0:0:
344,96,57206,1,10,0:0:0:0:
324,208,57377,1,2,0:0:0:0:
204,272,57547,6,0,L|170:285|124:272,1,75,2|0,0:0|0:0,0:0:0:0:
132,109,57888,2,0,L|170:99|204:112,1,75,10|0,0:0|0:0,0:0:0:0:
204,272,58229,1,2,0:0:0:0:
132,109,58400,1,2,0:0:0:0:
168,190,58570,2,0,P|208:192|240:180,1,75,10|2,0:0|0:0,0:0:0:0:
308,92,58911,2,0,P|268:90|236:102,1,75,2|0,0:0|0:0,0:0:0:0:
344,216,59252,2,0,P|356:180|354:143,1,75,10|0,0:0|0:0,0:0:0:0:
168,168,59593,1,2,0:0:0:0:
344,216,59763,1,2,0:0:0:0:
168,168,59934,2,0,P|155:203|157:240,1,75,10|2,0:0|0:0,0:0:0:0:
264,164,60275,6,0,P|264:120|176:32,1,150,2|10,0:0|0:0,0:0:0:0:
92,56,60786,1,0,0:0:0:0:
168,168,60956,2,0,P|160:228|120:308,1,150,2|10,0:0|0:0,0:0:0:0:
184,16,61638,1,2,0:0:0:0:
220,96,61809,1,0,0:0:0:0:
288,44,61979,1,10,0:0:0:0:
324,124,62150,1,0,0:0:0:0:
220,96,62320,1,2,0:0:0:0:
288,44,62491,1,2,0:0:0:0:
260,180,62661,2,0,P|218:178|152:160,1,75,10|2,0:0|0:0,0:0:0:0:
327,49,63002,6,0,L|324:124,1,75,2|0,0:0|0:0,0:0:0:0:
263,254,63343,2,0,L|260:180,1,75,10|0,0:0|0:0,0:0:0:0:
244,72,63684,1,2,0:0:0:0:
260,180,63854,1,2,0:0:0:0:
244,72,64025,2,0,P|196:68|152:80,1,75,10|2,0:0|0:0,0:0:0:0:
144,176,64366,1,2,0:0:0:0:
260,180,64536,1,0,0:0:0:0:
336,96,64706,2,0,L|428:120,1,75,10|0,0:0|0:0,0:0:0:0:
260,180,65047,1,2,0:0:0:0:
336,96,65218,1,2,0:0:0:0:
240,36,65388,2,0,P|200:44|168:60,1,75,10|2,0:0|0:0,0:0:0:0:
325,241,65729,6,0,P|345:169|336:96,1,150,2|10,0:0|0:0,0:0:0:0:
244,192,66241,1,0,0:0:0:0:
300,308,66411,2,0,P|365:271|410:213,1,150,2|10,0:0|0:0,0:0:0:0:
140,176,67093,1,2,0:0:0:0:
164,84,67263,1,0,0:0:0:0:
260,88,67434,1,10,0:0:0:0:
288,180,67604,1,0,0:0:0:0:
164,84,67775,1,2,0:0:0:0:
272,24,67945,1,2,0:0:0:0:
336,132,68116,2,0,P|332:184|324:224,1,75,10|2,0:0|0:0,0:0:0:0:
192,164,68456,6,0,B|152:160|152:160|88:180,1,75,2|0,0:0|0:0,0:0:0:0:
360,192,68797,2,0,B|400:196|400:196|433:185,1,75,10|0,0:0|0:0,0:0:0:0:
444,88,69138,1,2,0:0:0:0:
364,32,69309,1,2,0:0:0:0:
268,52,69479,1,10,0:0:0:0:
216,136,69650,1,2,0:0:0:0:
232,232,69820,1,2,0:0:0:0:
211,262,69905,1,0,0:0:0:0:
180,284,69991,1,0,0:0:0:0:
145,295,70076,1,0,0:0:0:0:
107,292,70161,1,10,0:0:0:0:
73,278,70246,1,0,0:0:0:0:
46,252,70331,1,0,0:0:0:0:
29,219,70417,1,0,0:0:0:0:
25,182,70502,2,0,L|32:140,7,37.5,2|0|0|0|2|0|0|0,0:0|0:0|0:0|0:0|0:0|0:0|0:0|0:0,0:0:0:0:
12,104,71184,6,0,P|72:72|180:68,1,150,6|10,0:1|0:0,0:0:0:0:
260,84,71695,1,0,0:0:0:0:
280,191,71866,2,0,P|273:265|240:332,1,150,2|10,0:0|0:0,0:0:0:0:
148,276,72377,1,0,0:0:0:0:
116,176,72547,2,0,L|104:84,1,75,2|0,0:0|0:0,0:0:0:0:
204,132,72888,2,0,L|213:206,1,75,10|0,0:0|0:0,0:0:0:0:
284,160,73229,1,2,0:0:0:0:
416,236,73400,1,2,0:0:0:0:
312,236,73570,1,10,0:0:0:0:
388,160,73741,1,2,0:0:0:0:
332,312,73911,6,0,P|240:280|232:212,1,150,2|10,0:0|0:0,0:0:0:0:
256,144,74422,1,0,0:0:0:0:
352,172,74593,2,0,L|312:236,1,75,2|0,0:0|0:0,0:0:0:0:
189,178,74934,2,0,L|256:144,1,75,10|0,0:0|0:0,0:0:0:0:
392,32,75275,2,0,B|336:44|336:44|296:76|228:52,1,150,2|10,0:0|0:0,0:0:0:0:
144,72,75786,2,0,P|148:24|164:-8,1,75,0|2,0:0|0:0,0:0:0:0:
224,108,76127,1,0,0:0:0:0:
224,108,76212,1,0,0:0:0:0:
224,108,76297,1,10,0:0:0:0:
148,176,76468,1,0,0:0:0:0:
52,120,76638,6,0,P|24:188|40:276,1,150,14|10,0:0|0:0,0:0:0:0:
116,324,77150,1,0,0:0:0:0:
200,240,77320,2,0,B|244:240|244:240|336:292,1,150,2|10,0:0|0:0,0:0:0:0:
224,328,77831,1,0,0:0:0:0:
128,220,78002,2,0,P|120:160|124:124,1,75,2|0,0:0|0:0,0:0:0:0:
364,28,78343,2,0,P|363:65|356:102,1,75,10|0,0:0|0:0,0:0:0:0:
180,64,78684,1,2,0:0:0:0:
271,46,78854,1,2,0:0:0:0:
200,156,79025,1,10,0:0:0:0:
180,64,79195,1,2,0:0:0:0:
328,136,79366,6,0,P|316:200|272:272,1,150,2|10,0:0|0:0,0:0:0:0:
112,320,79877,1,0,0:0:0:0:
211,225,80047,2,0,P|278:191|328:136,1,150,2|10,0:0|0:0,0:0:0:0:
340,8,80559,1,0,0:0:0:0:
224,56,80729,2,0,L|232:160,1,75,2|0,0:0|0:0,0:0:0:0:
288,328,81070,2,0,L|280:224,1,75,10|0,0:0|0:0,0:0:0:0:
224,56,81411,1,2,0:0:0:0:
288,328,81752,1,10,0:0:0:0:
256,148,82093,5,2,0:0:0:0:
144,188,82263,1,0,0:0:0:0:
256,236,82434,2,0,L|336:264,1,75,10|0,0:0|0:0,0:0:0:0:
224,56,82775,1,2,0:0:0:0:
144,188,82945,1,0,0:0:0:0:
312,180,83116,2,0,L|392:152,1,75,10|0,0:0|0:0,0:0:0:0:
224,144,83456,1,2,0:0:0:0:
224,144,83542,1,0,0:0:0:0:
224,144,83627,1,0,0:0:0:0:
224,144,83712,1,0,0:0:0:0:
224,144,83797,1,10,0:0:0:0:
224,144,83883,1,0,0:0:0:0:
224,144,83968,1,0,0:0:0:0:
224,144,84053,1,0,0:0:0:0:
224,144,84138,1,2,0:0:0:0:
224,144,84223,1,0,0:0:0:0:
224,144,84309,1,0,0:0:0:0:
224,144,84394,1,0,0:0:0:0:
224,144,84479,1,10,0:0:0:0:
224,144,84564,1,0,0:0:0:0:
224,144,84650,1,0,0:0:0:0:
224,144,84735,1,0,0:0:0:0:
224,144,84820,6,0,L|228:176,32,18.75,0|0|0|0|0|0|0|0|8|0|0|0|0|0|0|0|0|0|0|0|0|0|0|0|8|0|0|0|0|0|0|0|4,0:0|0:0|0:0|0:0|0:0|0:0|0:0|0:0|0:0|0:0|0:0|0:0|0:0|0:0|0:0|0:0|0:0|0:0|0:0|0:0|0:0|0:0|0:0|0:0|0:0|0:0|0:0|0:0|0:0|0:0|0:0|0:0|0:2,0:0:0:0:
184,172,97093,6,0,B|232:172|280:212|332:212,1,150,6|8,0:0|0:0,0:0:0:0:
392,144,97604,2,0,P|392:100|380:52,1,75,2|0,0:0|0:0,0:0:0:0:
268,284,97945,2,0,P|267:321|274:358,1,75,2|8,0:0|0:0,0:0:0:0:
328,212,98286,2,0,B|280:212|232:172|180:172,1,150,2|2,0:0|0:0,0:0:0:0:
84,192,98797,1,8,0:0:0:0:
184,212,98968,2,0,B|232:212|280:172|332:172,1,150,2|2,0:0|0:0,0:0:0:0:
448,156,99479,2,0,P|456:192|448:228,1,75,10|0,0:0|0:0,0:0:0:0:
324,344,99820,6,0,P|264:312|248:212,1,150,2|8,0:0|0:0,0:0:0:0:
188,40,100331,2,0,P|248:72|264:172,1,150,2|2,0:0|0:0,0:0:0:0:
168,136,100843,1,8,0:0:0:0:
296,56,101013,2,0,L|384:96,1,75,2|0,0:0|0:0,0:0:0:0:
216,328,101354,2,0,L|128:288,1,75,2|8,0:0|0:0,0:0:0:0:
88,152,101695,2,0,P|172:144|248:160,1,150,2|2,0:0|0:0,0:0:0:0:
376,236,102206,2,0,P|334:239|296:232,1,75,10|0,0:0|0:0,0:0:0:0:
319,14,102547,6,0,P|341:85|340:160,1,150,2|8,0:0|0:0,0:0:0:0:
192,369,103059,2,0,P|170:298|172:224,1,150,2|2,0:0|0:0,0:0:0:0:
248,104,103570,1,8,0:0:0:0:
248,104,103741,2,0,L|260:196,1,75,2|0,0:0|0:0,0:0:0:0:
193,370,104081,2,0,L|181:278,1,75,2|8,0:0|0:0,0:0:0:0:
92,96,104422,2,0,P|77:167|119:226,1,150,2|2,0:0|0:0,0:0:0:0:
200,164,104934,2,0,L|276:156,1,75,10|0,0:0|0:0,0:0:0:0:
472,92,105275,6,0,P|392:92|304:68,1,150,2|8,0:0|0:0,0:0:0:0:
200,164,105786,2,0,P|200:212|208:264,1,75,2|0,0:0|0:0,0:0:0:0:
322,151,106127,2,0,P|325:113|325:76,1,75,2|8,0:0|0:0,0:0:0:0:
196,20,106468,2,0,P|104:40|64:104,1,150,2|2,0:0|0:0,0:0:0:0:
144,160,106979,1,8,0:0:0:0:
64,232,107150,2,0,L|52:324,1,75,2|0,0:0|0:0,0:0:0:0:
144,344,107491,2,0,L|163:194,1,150,2|0,0:0|0:0,0:0:0:0:
416,80,108002,6,0,L|316:64,1,75,6|0,0:2|0:0,0:0:0:0:
216,20,108343,1,10,0:0:0:0:
136,116,108513,1,0,0:0:0:0:
136,116,108598,1,0,0:0:0:0:
136,116,108684,1,2,0:0:0:0:
204,200,108854,1,0,0:0:0:0:
156,44,109025,1,10,0:0:0:0:
72,172,109195,1,0,0:0:0:0:
204,200,109366,2,0,L|296:188,1,75,2|0,0:0|0:0,0:0:0:0:
376,12,109706,2,0,L|284:0,1,75,10|0,0:0|0:0,0:0:0:0:
136,116,110047,1,2,0:0:0:0:
252,280,110218,1,0,0:0:0:0:
340,148,110388,2,0,P|300:124|252:112,1,75,10|0,0:0|0:0,0:0:0:0:
132,232,110729,6,0,P|132:280|172:360,1,112.5,2|0,0:0|0:0,0:0:0:0:
216,356,111070,2,0,L|320:356,1,75,10|0,0:0|0:0,0:0:0:0:
268,128,111411,1,2,0:0:0:0:
208,272,111581,1,0,0:0:0:0:
384,284,111752,2,0,P|396:240|400:184,1,75,10|0,0:0|0:0,0:0:0:0:
160,104,112093,2,0,P|160:152|200:232,1,112.5,2|0,0:0|0:0,0:0:0:0:
244,228,112434,2,0,L|348:228,1,75,10|0,0:0|0:0,0:0:0:0:
296,0,112775,1,2,0:0:0:0:
236,144,112945,1,0,0:0:0:0:
412,156,113116,5,0,0:0:0:0:
417,138,113201,1,0,0:0:0:0:
422,120,113286,1,0,0:0:0:0:
425,101,113371,1,0,0:0:0:0:
427,82,113456,2,0,P|356:72|280:84,1,150,6|10,0:0|0:0,0:0:0:0:
164,208,113968,2,0,B|156:252|156:252|168:288,1,75,2|0,0:0|0:0,0:0:0:0:
255,227,114309,1,0,0:0:0:0:
348,176,114479,2,0,B|356:132|356:132|344:96,1,75,10|0,0:0|0:0,0:0:0:0:
96,172,114820,2,0,B|80:255|80:255|103:324,1,150,2|10,0:0|0:0,0:0:0:0:
208,336,115331,2,0,P|260:320|284:228,1,150,2|0,0:0|0:0,0:0:0:0:
216,80,115843,2,0,P|200:136|196:188,1,75,10|0,0:0|0:0,0:0:0:0:
296,312,116184,6,0,P|376:312|416:252,1,150,2|8,0:0|0:0,0:0:0:0:
360,128,116695,1,2,0:0:0:0:
264,48,116866,2,0,L|164:96,1,75,2|0,0:0|0:0,0:0:0:0:
208,192,117206,2,0,L|112:192,1,75,10|0,0:0|0:0,0:0:0:0:
264,336,117547,2,0,L|164:288,1,75,2|0,0:0|0:0,0:0:0:0:
72,248,117888,1,10,0:0:0:0:
108,340,118229,1,2,0:0:0:0:
108,340,118570,5,10,0:0:0:0:
72,248,118741,1,0,0:0:0:0:
128,168,118911,2,0,P|148:100|144:8,1,150,2|8,0:0|0:0,0:0:0:0:
128,168,119422,2,0,P|196:187|288:184,1,150,2|0,0:0|0:0,0:0:0:0:
496,32,119934,2,0,P|461:22|416:24,1,75,10|0,0:0|0:0,0:0:0:0:
304,112,120275,2,0,P|288:208|316:272,1,150,2|10,0:0|0:0,0:0:0:0:
416,212,120786,1,2,0:0:0:0:
320,184,120956,1,2,0:0:0:0:
224,220,121127,1,0,0:0:0:0:
132,176,121297,1,10,0:0:0:0:
320,184,121468,1,0,0:0:0:0:
224,220,121638,6,0,P|212:168|216:60,1,150,2|8,0:0|0:0,0:0:0:0:
256,232,122150,2,0,L|228:336,2,75,2|2|0,0:0|0:0|0:0,0:0:0:0:
284,112,122661,2,0,P|344:84|412:76,1,112.5,10|0,0:0|0:0,0:0:0:0:
432,104,123002,2,0,L|424:208,1,75,2|0,0:0|0:0,0:0:0:0:
348,228,123343,2,0,L|340:332,1,75,10|0,0:0|0:0,0:0:0:0:
188,160,123684,2,0,L|180:56,1,75,2|0,0:0|0:0,0:0:0:0:
104,16,124025,1,10,0:0:0:0:
0,124,124366,6,0,L|16:284,1,150,2|8,0:0|0:0,0:0:0:0:
48,180,124877,2,0,P|108:168|188:216,1,150,2|0,0:0|0:0,0:0:0:0:
101,333,125388,2,0,P|95:297|100:260,1,75,10|0,0:0|0:0,0:0:0:0:
128,52,125729,2,0,P|200:96|280:96,1,150,2|8,0:0|0:0,0:0:0:0:
436,20,126241,2,0,P|399:13|362:18,1,75,2|2,1:0|0:0,0:0:0:0:
188,120,126581,1,0,1:0:0:0:
252,192,126752,2,0,P|248:224|252:292,1,75,10|0,0:0|0:0,0:0:0:0:
444,196,127093,6,0,P|400:152|308:128,1,150,2|8,0:0|0:0,0:0:0:0:
212,192,127604,1,2,0:0:0:0:
308,310,127775,2,0,L|312:236,1,75,2|0,0:0|0:0,0:0:0:0:
203,73,128116,2,0,L|200:148,1,75,10|0,0:0|0:0,0:0:0:0:
128,236,128456,1,2,0:0:0:0:
196,320,128627,1,0,0:0:0:0:
248,244,128797,2,0,P|264:196|268:152,1,75,10|0,0:0|0:0,0:0:0:0:
88,68,129138,2,0,P|72:116|72:188,1,112.5,2|0,0:0|0:0,0:0:0:0:
40,220,129479,2,0,P|88:236|132:240,1,75,10|0,0:0|0:0,0:0:0:0:
224,216,129820,6,0,L|232:136,1,75,2|2,0:0|0:0,0:0:0:0:
176,52,130161,1,8,0:0:0:0:
316,212,130331,2,0,L|324:132,2,75,2|2|0,0:0|0:0|0:0,0:0:0:0:
232,304,130843,2,0,P|164:272|136:212,1,112.5,10|0,0:0|0:0,0:0:0:0:
172,192,131184,2,0,L|180:112,1,75,2|0,0:0|0:0,0:0:0:0:
140,0,131525,1,10,0:0:0:0:
52,104,131695,1,0,0:0:0:0:
172,192,131866,2,0,P|240:184|264:168,1,75,2|0,0:0|0:0,0:0:0:0:
140,0,132206,2,0,P|112:62|114:91,1,75,10|0,0:0|0:0,0:0:0:0:
172,192,132547,5,2,0:0:0:0:
232,112,132718,1,2,0:0:0:0:
271,203,132888,1,8,0:0:0:0:
73,181,133059,1,2,0:0:0:0:
133,101,133229,1,2,0:0:0:0:
172,192,133400,1,0,0:0:0:0:
73,181,133570,1,10,0:0:0:0:
232,112,133741,2,0,P|296:112|340:120,1,75,2|2,0:0|0:0,0:0:0:0:
416,216,134081,2,0,P|416:280|408:324,1,75,2|10,0:0|0:0,0:0:0:0:
416,216,134422,1,2,0:0:0:0:
344,48,134593,1,2,0:0:0:0:
156,116,134763,2,0,P|156:180|164:224,1,75,2|8,0:0|0:0,0:0:0:0:
280,104,135104,1,2,0:0:0:0:
236,184,135275,6,0,L|248:284,1,75,2|0,0:0|0:0,0:0:0:0:
335,122,135616,2,0,L|344:48,1,75,10|0,0:0|0:0,0:0:0:0:
245,259,135956,2,0,L|257:359,1,75,2|0,0:0|0:0,0:0:0:0:
392,92,136297,2,0,L|400:17,1,75,10|0,0:0|0:0,0:0:0:0:
260,60,136638,1,0,0:0:0:0:
260,60,137320,1,0,0:0:0:0:
260,60,137661,6,0,L|276:144,1,75
192,320,138002,6,0,P|128:276|112:220,1,112.5,6|0,0:0|0:0,0:0:0:0:
148,200,138343,2,0,L|164:104,1,75,8|2,0:0|0:0,0:0:0:0:
104,44,138684,1,0,0:0:0:0:
56,200,138854,1,0,0:0:0:0:
215,163,139025,1,10,0:0:0:0:
104,44,139195,1,0,0:0:0:0:
76,164,139366,2,0,P|168:136|192:104,1,112.5,2|0,0:0|0:0,0:0:0:0:
220,16,139706,2,0,L|216:90,1,75,8|2,0:0|0:0,0:0:0:0:
220,368,140047,2,0,P|208:288|216:228,1,112.5
272,216,140388,2,0,L|346:212,1,75,10|0,0:0|0:0,0:0:0:0:
420,52,140729,5,2,0:0:0:0:
452,172,140900,1,0,0:0:0:0:
420,332,141070,1,8,0:0:0:0:
452,212,141241,1,2,0:0:0:0:
312,120,141411,1,0,0:0:0:0:
312,264,141581,1,0,0:0:0:0:
312,264,141667,1,0,0:0:0:0:
312,264,141752,1,10,0:0:0:0:
376,132,141922,1,0,0:0:0:0:
240,196,142093,1,2,0:0:0:0:
140,112,142263,2,0,P|152:44|180:16,1,75,0|8,0:0|0:0,0:0:0:0:
240,196,142604,2,0,P|208:220|104:224,1,112.5,2|0,0:0|0:0,0:0:0:0:
65,75,142945,2,0,P|127:114|152:184,1,150,2|0,0:0|0:0,0:0:0:0:
40,352,143456,6,0,L|130:328,1,75,6|0,0:0|0:0,0:0:0:0:
292,276,143797,1,8,0:0:0:0:
184,280,143968,2,0,P|184:212|216:156,1,112.5,2|0,0:0|0:0,0:0:0:0:
288,84,144309,2,0,B|280:124|280:124|240:152,1,75,2|8,0:0|0:0,0:0:0:0:
96,220,144650,1,0,0:0:0:0:
188,48,144820,1,6,0:1:0:0:
292,216,144991,2,0,P|344:208|380:176,1,75,0|8,0:0|0:0,0:0:0:0:
188,48,145331,2,0,P|180:124|200:184,1,112.5,2|0,0:0|0:0,0:0:0:0:
292,216,145672,2,0,P|344:208|380:176,1,75,2|8,0:0|0:0,0:0:0:0:
296,56,146013,1,0,0:0:0:0:
256,236,146184,6,0,L|232:332,2,75,2|0|8,0:0|0:0|0:0,0:0:0:0:
296,56,146695,1,2,0:0:0:0:
256,236,146866,1,0,0:0:0:0:
132,112,147036,1,2,0:0:0:0:
260,144,147206,1,10,0:0:0:0:
380,92,147377,2,0,L|400:4,1,75,2|0,0:0|0:0,0:0:0:0:
380,292,147718,2,0,L|400:380,1,75,2|8,0:0|0:0,0:0:0:0:
244,120,148059,2,0,P|256:80|260:40,1,75,2|0,0:0|0:0,0:0:0:0:
244,264,148400,2,0,P|256:304|256:376,1,112.500004291535,2|0,0:0|0:0,0:0:0:0:
172,108,148911,6,0,P|96:88|48:56,1,112.5,6|0,0:0|0:0,0:0:0:0:
56,24,149252,1,8,0:0:0:0:
172,108,149422,1,2,0:0:0:0:
256,48,149593,1,0,0:0:0:0:
348,120,149763,1,0,0:0:0:0:
348,120,149848,1,0,0:0:0:0:
348,120,149934,1,10,0:0:0:0:
380,20,150104,1,0,0:0:0:0:
256,48,150275,2,0,P|248:88|264:172,1,112.5,2|0,0:0|0:0,0:0:0:0:
296,180,150616,1,8,0:0:0:0:
88,272,150786,2,0,P|128:240|216:240,1,112.5,2|0,0:0|0:0,0:0:0:0:
232,240,151127,1,0,0:0:0:0:
300,328,151297,2,0,P|268:348|208:352,1,75,10|0,0:0|0:0,0:0:0:0:
132,180,151638,5,2,0:0:0:0:
88,272,151809,1,0,0:0:0:0:
211,231,151979,1,8,0:0:0:0:
255,139,152150,1,2,0:0:0:0:
132,180,152320,1,0,0:0:0:0:
188,72,152491,1,0,0:0:0:0:
188,72,152576,1,0,0:0:0:0:
188,72,152661,1,10,0:0:0:0:
322,206,152831,1,0,0:0:0:0:
292,84,153002,2,0,P|292:48|300:0,2,75,2|0|8,0:0|0:0|0:0,0:0:0:0:
400,232,153513,2,0,P|424:168|420:100,1,112.5,2|0,0:0|0:0,0:0:0:0:
376,92,153854,2,0,P|276:108|224:160,1,150,2|0,0:0|0:0,0:0:0:0:
192,324,154366,5,6,0:0:0:0:
248,232,154536,1,0,0:0:0:0:
192,324,154706,1,8,0:0:0:0:
248,232,154877,1,0,0:0:0:0:
49,241,155047,2,0,L|176:256,1,112.5,2|0,0:0|0:0,0:0:0:0:
248,232,155388,2,0,L|348:243,1,75,10|0,0:0|0:0,0:0:0:0:
192,324,155729,1,2,0:0:0:0:
88,164,155900,1,0,0:0:0:0:
126,182,155985,1,0,0:0:0:0:
168,184,156070,1,10,0:0:0:0:
320,56,156241,2,0,P|280:92|280:200,1,150,2|0,0:0|0:0,0:0:0:0:
356,144,156752,2,0,P|396:124|412:84,1,75,10|0,0:0|0:0,0:0:0:0:
224,108,157093,5,6,0:0:0:0:
104,48,157263,1,0,0:0:0:0:
16,144,157434,1,8,0:0:0:0:
224,108,157604,2,0,P|264:92|304:20,1,112.5,2|0,0:0|0:0,0:0:0:0:
320,96,157945,2,0,L|336:184,1,75,2|10,0:0|0:0,0:0:0:0:
252,352,158286,2,0,P|232:256|240:220,1,112.5,2|0,0:0|0:0,0:0:0:0:
248,128,158627,2,0,L|264:216,1,75,2|8,0:0|0:0,0:0:0:0:
180,384,158968,2,0,P|160:288|168:252,1,112.5,2|0,0:0|0:0,0:0:0:0:
176,160,159309,2,0,L|192:248,1,75,2|8,0:0|0:0,0:0:0:0:
68,288,159650,1,0,0:0:0:0:
256,252,159820,6,0,L|344:236,1,75,6|0,0:0|0:0,0:0:0:0:
400,156,160161,1,8,0:0:0:0:
392,64,160331,1,2,0:0:0:0:
288,36,160502,2,0,P|256:80|252:128,1,75
256,192,160843,1,10,0:0:0:0:
224,348,161013,2,0,P|256:304|260:256,1,75,0|2,0:0|0:0,0:0:0:0:
168,184,161354,1,0,0:0:0:0:
168,184,161439,1,0,0:0:0:0:
168,184,161525,1,10,0:0:0:0:
72,276,161695,1,2,0:0:0:0:
116,280,161780,1,0,0:0:0:0:
160,284,161866,2,0,P|209:261|237:222,1,75,0|2,0:0|0:0,0:0:0:0:
164,56,162206,1,8,0:0:0:0:
168,184,162377,6,0,P|224:224|316:204,1,150,2|0,0:0|0:0,0:0:0:0:
352,104,162888,2,0,P|356:64|348:24,1,75,10|0,0:0|0:0,0:0:0:0:
240,272,163229,2,0,P|236:312|244:352,1,75,2|0,0:0|0:0,0:0:0:0:
271,112,163570,2,0,P|276:74|269:37,1,75,10|0,0:0|0:0,0:0:0:0:
160,279,163911,2,0,P|155:317|162:354,1,75,2|2,0:3|0:3,0:0:0:0:
240,272,164252,1,2,0:3:0:0:
196,152,164422,1,2,0:3:0:0:
272,272,164593,1,2,0:3:0:0:
316,152,164763,1,2,0:3:0:0:
96,264,164934,1,2,0:3:0:0:
416,264,165104,1,2,0:3:0:0:
160,112,166638,6,0,P|152:48|152:24,2,75,6|0|8,0:0|0:0|0:0,0:0:0:0:
252,208,167150,2,0,P|316:200|364:120,1,150,2|0,0:0|0:0,0:0:0:0:
252,208,167661,2,0,P|240:248|240:296,1,75,10|0,0:0|0:0,0:0:0:0:
363,134,168002,2,0,P|351:94|351:46,1,75,2|0,0:0|0:0,0:0:0:0:
444,112,168343,1,8,0:0:0:0:
264,136,168513,2,0,B|212:120|212:120|104:120,1,150,2|2,0:0|0:0,0:0:0:0:
24,168,169025,1,10,0:0:0:0:
56,256,169195,1,0,0:0:0:0:
116,120,169366,5,2,0:0:0:0:
152,296,169536,1,0,0:0:0:0:
134,208,169706,1,8,0:0:0:0:
238,325,169877,2,0,P|304:316|340:292,1,75,2|0,0:0|0:0,0:0:0:0:
289,174,170218,2,0,P|271:207|264:244,1,75,2|8,0:0|0:0,0:0:0:0:
400,312,170559,1,0,0:0:0:0:
384,216,170729,1,2,0:0:0:0:
436,140,170900,2,0,P|440:88|428:68,1,56.2500021457673,0|8,0:0|0:0,0:0:0:0:
320,40,171241,2,0,P|272:48|184:36,1,112.500004291535,2|2,0:0|0:0,0:0:0:0:
112,56,171752,2,0,P|96:80|96:120,1,56.2500021457673,10|0,0:0|0:0,0:0:0:0:
184,308,172093,5,6,0:0:0:0:
156,144,172263,1,0,0:0:0:0:
128,168,172348,1,0,0:0:0:0:
100,192,172434,1,8,0:0:0:0:
256,208,172604,2,0,P|272:172|272:120,1,75,2|0,0:0|0:0,0:0:0:0:
348,72,172945,2,0,P|332:36|332:-16,2,75,2|8|2,0:0|0:0|0:0,0:0:0:0:
440,244,173456,1,2,0:0:0:0:
328,216,173627,1,0,0:0:0:0:
282,323,173797,1,8,0:0:0:0:
440,244,173968,2,0,P|436:192|428:152,1,75,2|0,0:0|0:0,0:0:0:0:
296,88,174309,2,0,P|300:36|308:-4,2,75,2|8|2,0:0|0:0|0:0,0:0:0:0:
352,220,174820,5,0,0:0:0:0:
232,176,174991,1,2,0:0:0:0:
200,164,175076,1,0,0:0:0:0:
168,152,175161,1,8,0:0:0:0:
100,228,175331,1,2,0:0:0:0:
68,216,175417,1,0,0:0:0:0:
36,204,175502,1,0,0:0:0:0:
12,100,175672,1,2,0:0:0:0:
44,112,175758,1,0,0:0:0:0:
76,124,175843,1,8,0:0:0:0:
144,48,176013,1,2,0:0:0:0:
176,60,176098,1,0,0:0:0:0:
208,72,176184,2,0,L|256:64,1,37.5,2|0,0:0|0:0,0:0:0:0:
316,112,176354,2,0,L|364:104,1,37.5,2|0,0:0|0:0,0:0:0:0:
216,168,176525,2,0,L|264:160,1,37.5,10|0,0:0|0:0,0:0:0:0:
324,208,176695,2,0,L|372:200,1,37.5,2|0,0:0|0:0,0:0:0:0:
224,264,176866,2,0,L|248:260,15,18.75,2|0|0|0|0|0|0|0|0|0|0|0|0|0|0|0,0:0|0:0|0:0|0:0|0:0|0:0|0:0|0:0|0:0|0:0|0:0|0:0|0:0|0:0|0:0|0:0,0:0:0:0:
224,264,177547,1,4,0:0:0:0:
116,328,177718,5,0,0:0:0:0:
100,304,177803,1,0,0:0:0:0:
90,278,177888,1,8,0:0:0:0:
88,250,177973,1,0,0:0:0:0:
93,222,178059,2,0,P|112:180|108:132,1,75
80,56,178400,1,0,0:0:0:0:
103,40,178485,1,0,0:0:0:0:
129,30,178570,1,8,0:0:0:0:
157,28,178655,1,0,0:0:0:0:
185,33,178741,2,0,P|227:51|275:47,1,75
456,72,179081,5,0,0:0:0:0:
428,64,179167,1,0,0:0:0:0:
400,64,179252,1,8,0:0:0:0:
373,71,179337,1,0,0:0:0:0:
348,84,179422,2,0,L|328:176,1,75
208,242,179763,1,0,0:0:0:0:
236,250,179848,1,0,0:0:0:0:
264,250,179934,1,8,0:0:0:0:
291,243,180019,1,0,0:0:0:0:
315,230,180104,2,0,L|332:157,1,75
152,160,180445,5,0,0:0:0:0:
136,183,180530,1,0,0:0:0:0:
124,208,180616,1,8,0:0:0:0:
117,235,180701,1,0,0:0:0:0:
115,263,180786,1,0,0:0:0:0:
208,244,180956,1,0,0:0:0:0:
120,100,181127,1,0,0:0:0:0:
140,119,181212,1,0,0:0:0:0:
165,131,181297,1,8,0:0:0:0:
193,136,181383,1,0,0:0:0:0:
220,132,181468,2,0,P|276:120|304:124,1,75
252,244,181809,5,0,0:0:0:0:
231,224,181894,1,0,0:0:0:0:
206,212,181979,1,8,0:0:0:0:
178,207,182064,1,0,0:0:0:0:
151,211,182150,2,0,P|95:223|67:219,1,75
168,20,182491,1,0,0:0:0:0:
163,47,182576,1,0,0:0:0:0:
160,75,182661,1,8,0:0:0:0:
161,104,182746,1,0,0:0:0:0:
165,131,182831,2,0,P|175:169|180:216,1,75
84,279,183172,5,0,0:0:0:0:
111,284,183258,1,0,0:0:0:0:
139,287,183343,1,8,0:0:0:0:
168,286,183428,1,0,0:0:0:0:
195,282,183513,2,0,P|233:272|280:268,1,75
456,224,183854,1,0,0:0:0:0:
454,251,183939,1,0,0:0:0:0:
440,276,184025,1,8,0:0:0:0:
417,292,184110,1,0,0:0:0:0:
390,296,184195,2,0,P|356:252|344:224,1,75
336,44,184536,5,0,0:0:0:0:
342,71,184621,1,0,0:0:0:0:
345,99,184706,1,8,0:0:0:0:
344,127,184792,1,0,0:0:0:0:
339,154,184877,1,0,0:0:0:0:
272,224,185047,1,0,0:0:0:0:
184,148,185218,1,0,0:0:0:0:
156,152,185303,1,0,0:0:0:0:
129,161,185388,1,8,0:0:0:0:
104,173,185473,1,0,0:0:0:0:
81,190,185559,1,0,0:0:0:0:
40,288,185729,5,0,0:0:0:0:
156,316,185900,1,0,0:0:0:0:
156,316,185985,1,0,0:0:0:0:
156,316,186070,1,8,0:0:0:0:
224,228,186241,1,0,0:0:0:0:
224,228,186326,1,0,0:0:0:0:
224,228,186411,1,0,0:0:0:0:
248,40,186581,1,0,0:0:0:0:
248,40,186667,1,0,0:0:0:0:
248,40,186752,1,8,0:0:0:0:
180,128,186922,1,0,0:0:0:0:
180,128,187008,1,0,0:0:0:0:
180,128,187093,2,0,L|168:184,3,37.5
224,228,187434,2,0,L|212:284,3,37.5,8|0|0|0,0:0|0:0|0:0|0:0,0:0:0:0:
268,328,187775,2,0,L|262:356,15,18.75
216,288,188456,6,0,P|132:300|80:268,1,150,6|10,0:0|0:0,0:0:0:0:
60,156,188968,1,0,0:0:0:0:
164,108,189138,2,0,L|264:100,1,75,2|0,0:0|0:0,0:0:0:0:
348,276,189479,2,0,L|248:284,1,75,10|0,0:0|0:0,0:0:0:0:
128,216,189820,1,2,0:0:0:0:
228,180,189991,1,0,0:0:0:0:
332,200,190161,2,0,P|380:188|416:160,1,75,10|0,0:0|0:0,0:0:0:0:
228,180,190502,1,2,0:0:0:0:
332,200,190672,1,2,0:0:0:0:
200,80,190843,1,10,0:0:0:0:
228,180,191013,1,2,0:0:0:0:
160,272,191184,6,0,P|160:328|168:360,1,75,2|0,0:0|0:0,0:0:0:0:
352,272,191525,2,0,P|352:328|344:360,1,75,10|0,0:0|0:0,0:0:0:0:
240,280,191866,1,2,0:0:0:0:
332,200,192036,1,2,0:0:0:0:
180,200,192206,1,10,0:0:0:0:
272,280,192377,1,2,0:0:0:0:
332,200,192547,2,0,L|308:120,1,75,2|0,0:0|0:0,0:0:0:0:
180,200,192888,2,0,L|204:120,1,75,10|0,0:0|0:0,0:0:0:0:
244,4,193229,1,2,0:0:0:0:
148,88,193400,1,2,0:0:0:0:
272,88,193570,2,0,P|320:100|356:120,1,75,10|2,0:0|0:0,0:0:0:0:
192,296,193911,6,0,P|152:224|168:144,1,150,6|10,0:0|0:0,0:0:0:0:
328,184,194422,1,0,0:0:0:0:
232,216,194593,1,2,0:0:0:0:
288,104,194763,1,0,0:0:0:0:
296,252,194934,2,0,P|288:296|264:336,1,75,10|0,0:0|0:0,0:0:0:0:
128,284,195275,1,2,0:0:0:0:
112,140,195445,1,0,0:0:0:0:
216,40,195616,2,0,P|268:40|300:48,1,75,10|0,0:0|0:0,0:0:0:0:
96,40,195956,1,2,0:0:0:0:
200,120,196127,1,2,0:0:0:0:
324,64,196297,2,0,B|348:96|348:96|360:148,1,75,10|2,0:0|0:0,0:0:0:0:
136,240,196638,6,0,P|192:216|308:224,1,150,2|10,0:0|0:0,0:0:0:0:
220,304,197150,1,0,0:0:0:0:
208,152,197320,2,0,L|200:44,1,75,2|0,0:0|0:0,0:0:0:0:
136,240,197661,2,0,L|128:348,1,75,10|0,0:0|0:0,0:0:0:0:
48,168,198002,1,2,0:0:0:0:
136,240,198172,1,0,0:0:0:0:
208,152,198343,2,0,P|272:140|296:144,1,75,10|0,0:0|0:0,0:0:0:0:
380,212,198684,1,2,0:0:0:0:
208,152,199025,1,10,0:0:0:0:
349,29,199366,5,2,0:0:0:0:
304,120,199536,1,0,0:0:0:0:
208,152,199706,1,10,0:0:0:0:
117,106,199877,1,0,0:0:0:0:
202,50,200047,1,2,0:0:0:0:
136,176,200218,1,0,0:0:0:0:
32,112,200388,2,0,P|32:64|44:32,1,75,10|0,0:0|0:0,0:0:0:0:
136,176,200729,1,2,0:0:0:0:
32,216,200900,1,0,0:0:0:0:
117,106,201070,1,10,0:0:0:0:
128,256,201241,1,0,0:0:0:0:
128,256,201326,1,0,0:0:0:0:
128,256,201411,2,0,L|144:340,1,75,2|0,0:0|0:0,0:0:0:0:
208,96,201752,2,0,L|224:12,1,75,10|0,0:0|0:0,0:0:0:0:
396,112,202093,5,2,0:0:0:0:
240,160,202263,1,0,0:0:0:0:
322,34,202434,2,0,L|308:108,1,75,10|0,0:0|0:0,0:0:0:0:
276,248,202775,1,2,0:0:0:0:
330,42,202945,1,0,0:0:0:0:
330,42,203030,1,0,0:0:0:0:
330,42,203116,2,0,L|315:115,1,75,10|0,0:0|0:0,0:0:0:0:
172,244,203456,1,4,0:2:0:0:
192,48,214366,6,0,B|168:84|168:84|168:216,1,150,6|8,0:0|0:0,0:0:0:0:
300,328,214877,2,0,B|312:310|312:310|312:244,1,75,2|0,0:0|0:0,0:0:0:0:
248,92,215218,1,2,0:0:0:0:
224,236,215388,1,8,0:0:0:0:
400,232,215559,2,0,P|355:174|282:167,1,150,2|2,0:0|0:0,0:0:0:0:
216,280,216070,1,8,0:0:0:0:
124,212,216241,2,0,L|32:220,2,75,2|0|2,0:0|0:0|0:0,0:0:0:0:
204,108,216752,2,0,P|244:132|280:144,1,75,10|0,0:0|0:0,0:0:0:0:
432,12,217093,6,0,P|384:48|360:152,1,150,2|8,0:0|0:0,0:0:0:0:
468,240,217604,2,0,P|444:212|404:196,1,75,2|0,0:0|0:0,0:0:0:0:
280,224,217945,2,0,P|245:209|221:180,1,75,2|8,0:0|0:0,0:0:0:0:
116,100,218286,2,0,P|140:52|232:80,1,150,2|2,0:0|0:0,0:0:0:0:
184,156,218797,1,8,0:0:0:0:
72,172,218968,2,0,P|36:120|32:80,2,75,2|0|2,0:0|0:0|0:0,0:0:0:0:
168,248,219479,2,0,L|276:236,1,75,10|0,0:0|0:0,0:0:0:0:
389,146,219820,6,0,P|391:220|360:288,1,150,2|8,0:0|0:0,0:0:0:0:
152,288,220331,2,0,P|127:245|117:198,1,75,2|0,0:0|0:0,0:0:0:0:
272,48,220672,2,0,P|297:91|307:138,1,75,2|8,0:0|0:0,0:0:0:0:
256,200,221013,2,0,B|196:200|172:156|88:156,1,150,2|2,0:0|0:0,0:0:0:0:
4,216,221525,1,8,0:0:0:0:
148,240,221695,2,0,P|180:192|176:96,1,150,2|2,0:0|0:0,0:0:0:0:
76,20,222206,2,0,L|160:32,1,75,10|0,0:0|0:0,0:0:0:0:
304,16,222547,6,0,P|320:72|300:196,1,150,2|8,0:0|0:0,0:0:0:0:
160,228,223059,2,0,P|152:200|162:138,1,75,2|0,0:0|0:0,0:0:0:0:
224,52,223400,2,0,P|252:59|300:98,1,75,2|8,0:0|0:0,0:0:0:0:
268,184,223741,1,2,0:0:0:0:
246,283,223911,1,0,0:0:0:0:
160,228,224081,2,0,L|56:216,1,75,2|8,0:0|0:0,0:0:0:0:
352,228,224422,2,0,L|456:216,1,75,2|0,0:0|0:0,0:0:0:0:
416,68,224763,2,0,P|332:56|260:112,1,150,2|0,0:0|0:0,0:0:0:0:
232,276,225275,6,0,P|256:224|264:192,1,75,4|0,0:2|0:0,0:0:0:0:
184,80,225616,1,10,0:0:0:0:
156,252,225786,1,0,0:0:0:0:
156,252,225871,1,0,0:0:0:0:
156,252,225956,1,2,0:0:0:0:
120,152,226127,1,0,0:0:0:0:
284,88,226297,2,0,L|384:76,1,75,10|0,0:0|0:0,0:0:0:0:
184,80,226638,1,2,0:0:0:0:
332,168,226809,1,0,0:0:0:0:
332,168,226894,1,0,0:0:0:0:
332,168,226979,2,0,L|432:156,1,75,10|0,0:0|0:0,0:0:0:0:
216,156,227320,1,2,0:0:0:0:
364,244,227491,1,0,0:0:0:0:
364,244,227576,1,0,0:0:0:0:
364,244,227661,2,0,L|464:232,1,75,10|0,0:0|0:0,0:0:0:0:
312,308,228002,6,0,P|236:292|176:292,1,112.5,2|0,0:0|0:0,0:0:0:0:
140,333,228343,2,0,P|173:315|201:290,1,75,10|0,0:0|0:0,0:0:0:0:
232,176,228684,1,2,0:0:0:0:
144,112,228854,1,0,0:0:0:0:
64,196,229025,2,0,P|60:236|68:272,1,75,10|0,0:0|0:0,0:0:0:0:
342,158,229366,2,0,P|288:172|232:176,1,112.5,2|0,0:0|0:0,0:0:0:0:
171,133,229706,2,0,P|204:151|232:176,1,75,10|0,0:0|0:0,0:0:0:0:
263,291,230047,1,2,0:0:0:0:
175,355,230218,1,0,0:0:0:0:
94,270,230388,5,0,0:0:0:0:
91,252,230473,1,0,0:0:0:0:
90,233,230559,1,0,0:0:0:0:
92,215,230644,1,0,0:0:0:0:
98,197,230729,2,0,P|120:128|124:36,1,150,6|8,0:0|0:0,0:0:0:0:
176,220,231241,2,0,P|188:184|196:132,1,75,2|0,0:0|0:0,0:0:0:0:
304,256,231581,1,2,0:0:0:0:
304,256,231752,2,0,P|292:220|284:168,1,75,10|0,0:0|0:0,0:0:0:0:
356,44,232093,2,0,P|408:88|400:168,1,150,2|8,0:0|0:0,0:0:0:0:
288,96,232604,2,0,P|224:84|124:108,1,150,2|0,0:0|0:0,0:0:0:0:
80,192,233116,2,0,P|76:244|80:288,1,75,10|0,0:0|0:0,0:0:0:0:
188,344,233456,6,0,P|216:304|216:180,1,150,2|8,0:0|0:0,0:0:0:0:
124,64,233968,1,2,0:0:0:0:
124,64,234138,2,0,P|124:101|142:133,1,75,2|0,0:0|0:0,0:0:0:0:
240,136,234479,2,0,L|336:120,1,75,10|0,0:0|0:0,0:0:0:0:
448,48,234820,2,0,L|352:32,1,75,2|0,0:0|0:0,0:0:0:0:
240,136,235161,1,10,0:0:0:0:
268,20,235502,1,2,0:0:0:0:
268,20,235843,5,10,0:0:0:0:
240,136,236013,1,0,0:0:0:0:
132,64,236184,2,0,P|80:64|16:160,1,150,2|8,0:0|0:0,0:0:0:0:
80,256,236695,2,0,L|240:304,1,150,2|0,0:0|0:0,0:0:0:0:
392,280,237206,2,0,L|320:258,1,75,10|0,0:0|0:0,0:0:0:0:
148,128,237547,2,0,L|308:176,1,150,2|8,0:0|0:0,0:0:0:0:
424,144,238059,2,0,P|432:92|424:48,2,75,2|0|0,0:0|0:0|0:0,0:0:0:0:
340,227,238570,2,0,P|332:263|334:301,1,75,10|0,0:0|0:0,0:0:0:0:
172,253,238911,6,0,P|203:320|268:356,1,150,2|8,0:0|0:0,0:0:0:0:
372,200,239422,2,0,P|324:192|280:192,1,75,2|0,0:0|0:0,0:0:0:0:
128,220,239763,1,2,0:0:0:0:
208,156,239934,2,0,P|224:104|224:52,1,75,10|0,0:0|0:0,0:0:0:0:
136,28,240275,1,2,0:0:0:0:
64,96,240445,1,0,0:0:0:0:
120,184,240616,2,0,P|164:184|200:160,1,75,10|0,0:0|0:0,0:0:0:0:
236,40,240956,1,2,0:0:0:0:
284,180,241297,6,0,L|296:272,1,75,10|0,0:0|0:0,0:0:0:0:
248,352,241638,2,0,B|208:312|148:312|104:268,1,150,2|8,0:0|0:0,0:0:0:0:
120,100,242150,2,0,B|160:140|160:200|204:244,1,150,2|0,0:0|0:0,0:0:0:0:
284,208,242661,2,0,P|368:208|384:212,1,75,10|0,0:0|0:0,0:0:0:0:
232,24,243002,2,0,P|212:112|224:196,1,150,2|8,0:0|0:0,0:0:0:0:
316,144,243513,1,2,0:0:0:0:
176,104,243684,2,0,L|68:96,1,75,2|0,0:0|0:0,0:0:0:0:
128,200,244025,2,0,L|20:208,1,75,10|0,0:0|0:0,0:0:0:0:
220,88,244366,6,0,P|240:176|228:260,1,150,2|8,0:0|0:0,0:0:0:0:
192,320,244877,1,2,0:0:0:0:
316,328,245047,2,0,L|408:308,1,75,2|0,0:0|0:0,0:0:0:0:
423,192,245388,2,0,L|348:192,1,75,10|0,0:0|0:0,0:0:0:0:
316,56,245729,2,0,L|408:76,1,75,2|0,0:0|0:0,0:0:0:0:
252,112,246070,1,10,0:0:0:0:
192,52,246241,1,0,0:0:0:0:
116,112,246411,2,0,P|60:104|-4:48,1,112.5,2|0,0:0|0:0,0:0:0:0:
14,73,246752,2,0,L|4:164,1,75,10|0,0:0|0:0,0:0:0:0:
14,311,247093,5,2,0:0:0:0:
14,311,247263,2,0,L|4:220,1,75,2|8,0:0|0:0,0:0:0:0:
192,64,247604,1,2,0:0:0:0:
192,64,247775,2,0,L|182:155,1,75,2|0,0:0|0:0,0:0:0:0:
152,328,248116,2,0,P|139:293|136:256,1,75,10|0,0:0|0:0,0:0:0:0:
256,168,248456,1,2,0:0:0:0:
208,244,248627,1,0,0:0:0:0:
183,138,248797,2,0,L|192:64,1,75,10|0,0:0|0:0,0:0:0:0:
296,20,249138,2,0,P|320:72|304:144,1,112.5,2|0,0:0|0:0,0:0:0:0:
256,168,249479,2,0,P|199:186|172:184,1,75,10|0,0:0|0:0,0:0:0:0:
70,183,249820,5,2,0:0:0:0:
168,168,249991,1,2,0:0:0:0:
132,260,250161,1,8,0:0:0:0:
7,105,250331,1,2,0:0:0:0:
106,91,250502,1,2,0:0:0:0:
70,183,250672,1,0,0:0:0:0:
7,105,250843,1,10,0:0:0:0:
168,168,251013,2,0,P|213:213|238:250,1,75,2|2,0:0|0:0,0:0:0:0:
320,76,251354,2,0,P|303:137|284:178,2,75,2|10|2,0:0|0:0|0:0,0:0:0:0:
264,0,251866,1,2,0:0:0:0:
400,120,252036,2,0,P|376:188|320:276,1,150,2|2,0:0|0:0,0:0:0:0:
176,104,252547,6,0,L|160:184,1,75,2|0,0:0|0:0,0:0:0:0:
240,340,252888,2,0,L|224:260,1,75,10|0,0:0|0:0,0:0:0:0:
190,30,253229,2,0,L|176:104,1,75,2|0,0:0|0:0,0:0:0:0:
268,280,253570,2,0,L|252:200,1,75,10|0,0:0|0:0,0:0:0:0:
280,92,253911,1,0,0:0:0:0:
280,92,254593,1,0,0:0:0:0:
204,160,254934,6,0,L|104:140,1,75
264,124,255275,6,0,P|244:172|232:260,1,112.5,6|0,0:0|0:0,0:0:0:0:
264,272,255616,1,8,0:0:0:0:
360,168,255786,1,2,0:0:0:0:
264,124,255956,1,0,0:0:0:0:
264,272,256127,1,0,0:0:0:0:
264,124,256297,2,0,P|264:64|256:24,1,75,2|0,0:0|0:0,0:0:0:0:
76,80,256638,2,0,P|64:144|80:224,1,112.5,2|0,0:0|0:0,0:0:0:0:
112,224,256979,2,0,L|200:248,1,75,8|2,0:0|0:0,0:0:0:0:
400,160,257320,2,0,L|290:130,1,112.5
288,16,257661,2,0,L|264:104,1,75,10|0,0:0|0:0,0:0:0:0:
200,184,258002,5,2,0:0:0:0:
252,264,258172,1,0,0:0:0:0:
344,236,258343,2,0,P|396:236|428:220,1,75,8|2,0:0|0:0,0:0:0:0:
264,136,258684,1,0,0:0:0:0:
184,188,258854,1,0,0:0:0:0:
212,280,259025,1,10,0:0:0:0:
292,96,259195,1,0,0:0:0:0:
92,118,259366,1,2,0:0:0:0:
212,280,259536,2,0,P|212:224|204:172,1,75,2|8,0:0|0:0,0:0:0:0:
280,320,259877,2,0,P|288:272|284:196,1,112.5,2|0,0:0|0:0,0:0:0:0:
248,144,260218,2,0,P|248:88|256:36,2,75,2|8|0,0:0|0:0|0:0,0:0:0:0:
428,264,260729,5,6,0:0:0:0:
356,152,260900,1,0,0:0:0:0:
356,152,260985,1,0,0:0:0:0:
356,152,261070,1,8,0:0:0:0:
208,240,261241,2,0,P|140:212|116:184,1,112.5,2|0,0:0|0:0,0:0:0:0:
144,64,261581,2,0,L|124:144,1,75,2|10,0:0|0:0,0:0:0:0:
88,288,261922,1,0,0:0:0:0:
208,240,262093,1,6,0:0:0:0:
32,172,262263,2,0,P|12:116|8:80,1,75,0|8,0:0|0:0,0:0:0:0:
128,16,262604,2,0,P|212:36|248:72,1,112.5,2|0,0:0|0:0,0:0:0:0:
280,112,262945,2,0,L|272:212,2,75,2|10|0,0:0|0:0|0:0,0:0:0:0:
352,24,263456,5,6,0:0:0:0:
204,152,263627,1,0,0:0:0:0:
204,152,263712,1,0,0:0:0:0:
204,152,263797,1,8,0:0:0:0:
346,222,263968,2,0,L|352:148,1,75,2|0,0:0|0:0,0:0:0:0:
240,0,264309,2,0,L|245:74,1,75,2|10,0:0|0:0,0:0:0:0:
112,308,264650,2,0,P|96:216|96:204,1,75,2|0,0:0|0:0,0:0:0:0:
168,56,264991,1,2,0:0:0:0:
256,216,265161,1,8,0:0:0:0:
160,188,265331,2,0,P|213:111|222:103,1,75,2|0,0:0|0:0,0:0:0:0:
300,68,265672,2,0,P|316:100|392:128,1,112.500004291535,2|2,0:0|0:0,0:0:0:0:
352,4,266184,6,0,P|256:0|208:16,1,112.5,6|0,0:0|0:0,0:0:0:0:
208,48,266525,1,8,0:0:0:0:
256,180,266695,1,2,0:0:0:0:
208,48,266866,1,0,0:0:0:0:
108,148,267036,1,0,0:0:0:0:
136,152,267121,1,0,0:0:0:0:
164,156,267206,1,10,0:0:0:0:
208,48,267377,1,0,0:0:0:0:
44,84,267547,6,0,P|20:132|24:220,1,112.5,2|0,0:0|0:0,0:0:0:0:
46,294,267888,2,0,L|40:220,1,75,8|2,0:0|0:0,0:0:0:0:
116,72,268229,2,0,P|232:64|252:72,1,112.5
328,88,268570,2,0,P|246:93|232:88,1,75,10|0,0:0|0:0,0:0:0:0:
128,192,268911,1,2,0:0:0:0:
136,284,269081,1,0,0:0:0:0:
219,323,269252,1,8,0:0:0:0:
294,270,269422,1,2,0:0:0:0:
136,284,269593,1,0,0:0:0:0:
202,140,269763,1,0,0:0:0:0:
236,132,269848,1,0,0:0:0:0:
270,124,269934,1,10,0:0:0:0:
176,216,270104,1,0,0:0:0:0:
124,88,270275,6,0,P|124:36|136:4,1,75,2|0,0:0|0:0,0:0:0:0:
270,124,270616,1,8,0:0:0:0:
176,216,270786,1,2,0:0:0:0:
208,68,270956,1,0,0:0:0:0:
344,72,271127,2,0,P|336:124|272:216,1,150,2|0,0:0|0:0,0:0:0:0:
77,150,271638,2,0,P|141:115|208:144,1,150,6|8,0:0|0:0,0:0:0:0:
272,244,272150,1,2,0:0:0:0:
167,306,272320,2,0,P|145:255|143:199,1,112.5,2|0,0:0|0:0,0:0:0:0:
207,143,272661,2,0,L|208:60,1,75,10|0,0:0|0:0,0:0:0:0:
207,143,273002,5,2,0:0:0:0:
304,84,273172,2,0,P|360:88|420:104,1,112.5,2|0,0:0|0:0,0:0:0:0:
390,142,273513,2,0,P|382:179|388:216,1,75,2|0,0:0|0:0,0:0:0:0:
488,32,273854,1,0,0:0:0:0:
428,228,274025,2,0,L|396:328,1,75,10|0,0:0|0:0,0:0:0:0:
280,332,274366,2,0,P|176:304|152:280,1,112.5,6|0,0:0|0:0,0:0:0:0:
144,240,274706,2,0,L|168:132,2,75,10|6|0,0:0|0:0|0:0,0:0:0:0:
68,288,275218,1,2,0:0:0:0:
216,268,275388,1,8,0:0:0:0:
304,204,275559,6,0,L|320:112,1,75,2|0,0:0|0:0,0:0:0:0:
144,240,275900,2,0,L|131:313,1,75,2|8,0:0|0:0,0:0:0:0:
392,136,276241,2,0,L|408:44,1,75,2|0,0:0|0:0,0:0:0:0:
232,172,276581,2,0,L|219:245,1,75,2|8,0:0|0:0,0:0:0:0:
300,328,276922,1,0,0:0:0:0:
312,168,277093,2,0,P|244:132|160:140,1,150,6|8,0:0|0:0,0:0:0:0:
104,224,277604,1,2,0:0:0:0:
232,172,277775,1,0,0:0:0:0:
100,104,277945,1,0,0:0:0:0:
100,104,278030,1,0,0:0:0:0:
100,104,278116,1,10,0:0:0:0:
104,224,278286,1,0,0:0:0:0:
172,72,278456,6,0,P|177:31|176:-12,2,75,2|0|8,0:0|0:0|0:0,0:0:0:0:
360,252,278968,1,2,0:0:0:0:
232,172,279138,1,2,0:0:0:0:
192,352,279309,2,0,P|240:312|252:276,1,75,2|8,0:0|0:0,0:0:0:0:
12,136,279650,2,0,P|52:180|168:212,1,150,2|0,0:0|0:0,0:0:0:0:
232,172,280161,1,10,0:0:0:0:
294,88,280331,1,0,0:0:0:0:
393,120,280502,1,2,0:0:0:0:
393,225,280672,1,0,0:0:0:0:
293,257,280843,1,10,0:0:0:0:
232,172,281013,1,0,0:0:0:0:
294,88,281184,5,2,0:3:0:0:
293,257,281354,1,2,0:3:0:0:
393,120,281525,1,2,0:3:0:0:
393,225,281695,1,2,0:3:0:0:
294,88,281866,1,2,0:3:0:0:
293,257,282036,1,2,0:3:0:0:
195,56,282206,1,2,0:3:0:0:
193,289,282377,1,2,0:3:0:0:
144,136,283229,6,0,P|96:144|40:192,1,112.5,6|0,0:0|0:0,0:0:0:0:
176,156,283569,2,0,L|260:144,1,75,10|2,0:0|0:0,0:0:0:0:
384,128,283910,1,2,0:0:0:0:
280,232,284081,1,0,0:0:0:0:
241,89,284251,1,10,0:0:0:0:
368,216,284422,1,0,0:0:0:0:
194,262,284592,2,0,P|164:200|160:148,1,112.5,2|0,0:0|0:0,0:0:0:0:
184,116,284933,1,10,0:0:0:0:
304,160,285104,1,2,0:0:0:0:
116,204,285274,1,2,0:0:0:0:
171,19,285444,1,0,0:0:0:0:
254,93,285615,2,0,P|220:110|184:116,1,75,10|0,0:0|0:0,0:0:0:0:
320,12,285956,5,2,0:0:0:0:
352,100,286126,1,0,0:0:0:0:
254,93,286297,2,0,P|220:110|184:116,1,75,10|2,0:0|0:0,0:0:0:0:
88,72,286638,1,2,0:0:0:0:
148,196,286808,1,0,0:0:0:0:
148,196,286893,1,0,0:0:0:0:
148,196,286979,1,10,0:0:0:0:
264,184,287149,1,0,0:0:0:0:
356,248,287319,2,0,L|430:236,1,75,2|0,0:0|0:0,0:0:0:0:
472,136,287660,2,0,L|396:148,1,75,10|2,0:0|0:0,0:0:0:0:
264,184,288001,1,2,0:0:0:0:
148,116,288172,1,0,0:0:0:0:
148,116,288257,1,0,0:0:0:0:
148,116,288342,1,10,0:0:0:0:
32,124,288513,1,0,0:0:0:0:
40,228,288683,6,0,P|112:216|208:240,1,150,6|10,0:0|0:0,0:0:0:0:
472,156,289194,2,0,P|400:168|304:144,1,150,2|2,0:0|0:0,0:0:0:0:
256,84,289706,1,10,0:0:0:0:
308,0,289876,1,0,0:0:0:0:
325,153,290047,2,0,B|296:212|296:212|296:312,1,150,6|10,0:0|0:0,0:0:0:0:
192,168,290558,2,0,B|221:109|221:109|221:9,1,150,2|2,0:0|0:0,0:0:0:0:
192,168,291069,2,0,L|192:260,1,75,10|0,0:0|0:0,0:0:0:0:
276,344,291410,6,0,P|338:307|354:236,1,150,6|10,0:0|0:0,0:0:0:0:
236,40,291922,1,2,0:0:0:0:
236,40,292092,2,0,P|173:76|157:147,1,150,2|10,0:0|0:0,0:0:0:0:
256,192,292604,1,0,0:0:0:0:
328,128,292774,2,0,L|416:112,1,75,2|0,0:0|0:0,0:0:0:0:
256,192,293115,1,10,0:0:0:0:
184,256,293285,2,0,L|96:272,1,75,2|0,0:0|0:0,0:0:0:0:
328,128,293626,1,2,0:0:0:0:
184,256,293797,1,10,0:0:0:0:
328,128,293967,1,2,0:0:0:0:
208,148,294138,6,0,P|160:144|92:76,1,112.5,6|0,0:0|0:0,0:0:0:0:
194,74,294479,2,0,L|208:148,1,75,10|2,0:0|0:0,0:0:0:0:
256,244,294819,1,2,0:0:0:0:
317,74,294990,2,0,L|304:148,1,75,0|10,0:0|0:0,0:0:0:0:
256,280,295331,1,0,0:0:0:0:
256,116,295501,2,0,P|212:124|140:164,1,112.5,2|0,0:0|0:0,0:0:0:0:
144,192,295842,1,10,0:0:0:0:
368,192,296013,2,0,P|380:152|376:108,1,75,2|2,0:0|0:0,0:0:0:0:
133,119,296354,1,0,0:0:0:0:
133,119,296524,2,0,P|132:156|144:192,1,75,10|0,0:0|0:0,0:0:0:0:
196,264,296865,6,0,P|231:252|268:253,1,75,2|0,0:0|0:0,0:0:0:0:
376,296,297206,1,10,0:0:0:0:
240,320,297376,1,2,0:0:0:0:
244,184,297547,1,2,0:0:0:0:
340,120,297717,1,0,0:0:0:0:
340,120,297802,1,0,0:0:0:0:
340,120,297888,1,10,0:0:0:0:
328,224,298058,1,0,0:0:0:0:
156,208,298229,2,0,P|136:168|144:120,1,75,2|0,0:0|0:0,0:0:0:0:
356,176,298569,2,0,P|376:216|368:264,1,75,10|2,0:0|0:0,0:0:0:0:
156,208,298910,1,2,0:0:0:0:
240,112,299081,1,0,0:0:0:0:
240,112,299166,1,0,0:0:0:0:
240,112,299251,1,10,0:0:0:0:
236,236,299422,1,0,0:0:0:0:
104,272,299592,6,0,P|72:224|112:136,1,150,6|10,0:0|0:0,0:0:0:0:
410,142,300104,2,0,P|441:208|408:272,1,150,2|10,0:0|0:0,0:0:0:0:
256,192,300615,1,2,0:0:0:0:
256,192,300785,1,0,0:0:0:0:
184,48,300956,2,0,B|256:24|256:24|328:48,1,150,6|10,0:0|0:0,0:0:0:0:
328,336,301467,2,0,B|256:360|256:360|184:336,1,150,2|10,0:0|0:0,0:0:0:0:
256,228,301979,1,2,0:0:0:0:
256,228,302149,1,0,0:0:0:0:
180,128,302319,6,0,P|152:180|148:280,1,150,6|10,0:1|0:0,0:0:0:0:
332,128,302831,1,0,0:0:0:0:
332,128,303001,2,0,P|360:180|364:280,1,150,2|10,0:0|0:0,0:0:0:0:
256,192,303513,1,0,0:0:0:0:
180,128,303683,2,0,L|160:36,1,75,2|0,0:0|0:0,0:0:0:0:
332,128,304024,2,0,L|352:36,1,75,10|0,0:0|0:0,0:0:0:0:
164,200,304365,1,2,0:0:0:0:
256,148,304535,1,2,0:0:0:0:
348,200,304706,2,0,L|328:304,1,75,10|2,0:0|0:0,0:0:0:0:
212,272,305047,6,0,L|164:272,15,37.5,2|0|0|0|8|0|2|0|0|0|0|0|10|0|0|0,0:0|0:0|0:0|0:0|0:0|0:0|0:0|0:0|0:0|0:0|0:0|0:0|0:0|0:0|0:0|0:0,0:0:0:0:
164,200,306410,2,0,L|140:158,15,37.5,2|0|0|0|8|0|2|0|0|0|0|0|10|0|0|0,0:0|0:0|0:0|0:0|0:0|0:0|0:0|0:0|0:0|0:0|0:0|0:0|0:0|0:0|0:0|0:0,0:0:0:0:
110,132,307774,5,2,0:0:0:0:
122,117,307859,1,0,0:0:0:0:
136,104,307944,1,0,0:0:0:0:
151,94,308030,1,0,0:0:0:0:
167,85,308115,1,8,0:0:0:0:
185,78,308200,1,0,0:0:0:0:
203,74,308285,1,2,0:0:0:0:
222,73,308371,1,0,0:0:0:0:
241,73,308456,1,0,0:0:0:0:
259,77,308541,1,0,0:0:0:0:
277,82,308626,1,0,0:0:0:0:
294,90,308711,1,0,0:0:0:0:
310,100,308797,1,10,0:0:0:0:
324,112,308882,1,0,0:0:0:0:
336,126,308967,1,0,0:0:0:0:
347,142,309052,1,0,0:0:0:0:
356,158,309138,5,2,0:0:0:0:
337,210,309223,1,0,0:0:0:0:
300,252,309308,1,0,0:0:0:0:
250,276,309393,1,0,0:0:0:0:
194,278,309479,1,8,0:0:0:0:
141,259,309564,1,0,0:0:0:0:
101,220,309649,1,2,0:0:0:0:
78,169,309734,1,0,0:0:0:0:
77,113,309819,2,0,L|80:84,7,18.75
168,164,310160,2,0,L|170:193,7,18.75
156,224,310501,1,4,0:0:0:0:
256,264,310672,5,0,0:0:0:0:
283,260,310757,1,0,0:0:0:0:
316,256,310842,2,0,L|316:200,1,37.5,8|0,0:0|0:0,0:0:0:0:
336,108,311013,2,0,P|325:143|302:173,1,75
136,52,311354,1,0,0:0:0:0:
148,80,311439,1,0,0:0:0:0:
136,108,311524,2,0,L|116:148,1,37.5,8|0,0:0|0:0,0:0:0:0:
52,132,311694,2,0,P|68:172|60:232,1,75
208,40,312035,5,0,0:0:0:0:
231,55,312121,1,0,0:0:0:0:
249,76,312206,1,8,0:0:0:0:
259,102,312291,1,0,0:0:0:0:
261,130,312376,2,0,P|256:192|264:232,1,75
399,249,312717,1,0,0:0:0:0:
384,272,312802,1,0,0:0:0:0:
363,290,312888,1,8,0:0:0:0:
337,300,312973,1,0,0:0:0:0:
309,302,313058,2,0,P|247:297|207:305,1,75
48,248,313399,5,0,0:0:0:0:
60,264,313484,1,0,0:0:0:0:
72,280,313569,2,0,L|120:264,1,37.5,8|0,0:0|0:0,0:0:0:0:
136,208,313740,2,0,P|184:204|232:212,1,75
196,336,314081,1,0,0:0:0:0:
180,324,314166,1,0,0:0:0:0:
164,312,314251,2,0,L|180:264,1,37.5,8|0,0:0|0:0,0:0:0:0:
224,204,314422,2,0,P|232:156|228:104,1,75
148,16,314763,5,0,0:0:0:0:
168,35,314848,1,0,0:0:0:0:
194,44,314933,1,8,0:0:0:0:
222,42,315018,1,0,0:0:0:0:
247,28,315104,2,0,L|328:48,1,75
453,90,315444,1,0,0:0:0:0:
452,118,315530,1,0,0:0:0:0:
443,145,315615,1,8,0:0:0:0:
426,167,315700,1,0,0:0:0:0:
404,184,315785,2,0,L|323:164,1,75
200,136,316126,5,0,0:0:0:0:
174,147,316211,1,0,0:0:0:0:
163,172,316297,1,8,0:0:0:0:
172,198,316382,1,0,0:0:0:0:
196,211,316467,2,0,B|236:200|236:200|288:208,1,75
84,180,316808,1,0,0:0:0:0:
90,207,316893,1,0,0:0:0:0:
102,232,316979,1,8,0:0:0:0:
118,255,317064,1,0,0:0:0:0:
139,274,317149,2,0,B|178:285|178:285|230:277,1,75
324,132,317490,5,0,0:0:0:0:
324,132,317575,1,0,0:0:0:0:
324,132,317660,2,0,L|328:180,1,37.5,8|0,0:0|0:0,0:0:0:0:
360,208,317831,2,0,P|344:244|304:292,1,75
188,132,318172,1,0,0:0:0:0:
188,132,318257,1,0,0:0:0:0:
188,132,318342,2,0,L|184:180,1,37.5,8|0,0:0|0:0,0:0:0:0:
152,208,318513,2,0,P|168:244|208:292,1,75
248,40,318854,5,0,0:0:0:0:
248,40,318939,1,0,0:0:0:0:
248,40,319024,2,0,L|251:77,1,37.5,8|0,0:0|0:0,0:0:0:0:
256,152,319194,2,0,P|260:192|256:232,1,75
184,320,319535,1,0,0:0:0:0:
160,304,319621,1,0,0:0:0:0:
143,282,319706,1,8,0:0:0:0:
133,255,319791,1,0,0:0:0:0:
132,228,319876,2,0,L|172:136,1,75
168,32,320217,5,0,0:0:0:0:
181,56,320302,1,0,0:0:0:0:
201,76,320388,1,8,0:0:0:0:
225,89,320473,1,0,0:0:0:0:
253,96,320558,2,0,L|352:80,1,75
452,24,320899,1,0,0:0:0:0:
440,49,320984,1,0,0:0:0:0:
434,76,321069,1,8,0:0:0:0:
434,104,321155,1,0,0:0:0:0:
440,132,321240,1,0,0:0:0:0:
360,196,321410,1,4,0:2:0:0:
388,300,321581,5,0,0:0:0:0:
363,313,321666,1,0,0:0:0:0:
336,320,321751,1,8,0:0:0:0:
308,322,321836,1,0,0:0:0:0:
280,317,321922,2,0,P|236:312|196:312,1,75
96,212,322263,1,0,0:0:0:0:
75,230,322348,1,0,0:0:0:0:
67,257,322433,1,8,0:0:0:0:
76,283,322518,1,0,0:0:0:0:
98,300,322604,2,0,P|140:264|156:232,1,75
160,56,322944,5,0,0:0:0:0:
160,56,323030,1,0,0:0:0:0:
160,56,323115,2,0,L|168:112,1,37.5,8|0,0:0|0:0,0:0:0:0:
208,108,323285,2,0,P|220:160|224:216,1,75
216,320,323626,1,0,0:0:0:0:
216,320,323711,1,0,0:0:0:0:
216,320,323797,2,0,L|208:264,1,37.5,8|0,0:0|0:0,0:0:0:0:
168,268,323967,2,0,P|156:216|152:160,1,75
204,64,324308,5,0,0:0:0:0:
232,63,324393,1,0,0:0:0:0:
260,66,324479,1,8,0:0:0:0:
287,72,324564,1,0,0:0:0:0:
313,81,324649,2,0,L|336:184,1,75
201,241,324990,1,0,0:0:0:0:
187,216,325075,1,0,0:0:0:0:
175,190,325160,1,8,0:0:0:0:
167,164,325246,1,0,0:0:0:0:
162,137,325331,2,0,L|239:67,1,75
392,216,325672,5,0,0:0:0:0:
392,216,325757,1,0,0:0:0:0:
392,216,325842,2,0,L|332:204,1,37.5,8|0,0:0|0:0,0:0:0:0:
296,256,326013,2,0,L|196:268,1,75
284,128,326354,1,0,0:0:0:0:
284,128,326439,1,0,0:0:0:0:
284,128,326524,2,0,L|224:140,1,37.5,8|0,0:0|0:0,0:0:0:0:
188,88,326694,2,0,L|88:76,1,75
16,176,327035,5,0,0:0:0:0:
7,202,327121,1,0,0:0:0:0:
3,230,327206,1,8,0:0:0:0:
3,258,327291,1,0,0:0:0:0:
7,286,327376,2,0,L|56:352,1,75
145,276,327717,1,0,0:0:0:0:
172,268,327802,1,0,0:0:0:0:
200,264,327888,1,8,0:0:0:0:
228,264,327973,1,0,0:0:0:0:
256,268,328058,2,0,L|321:316,1,75
436,256,328399,5,0,0:0:0:0:
436,256,328484,1,0,0:0:0:0:
436,256,328569,2,0,L|444:208,1,37.5,8|0,0:0|0:0,0:0:0:0:
416,148,328740,2,0,P|404:104|404:56,1,75
280,40,329081,1,0,0:0:0:0:
252,35,329166,1,0,0:0:0:0:
224,38,329251,1,8,0:0:0:0:
198,49,329336,1,0,0:0:0:0:
175,65,329422,1,0,0:0:0:0:
144,168,329592,5,0,3:0:0:0:
264,112,329763,1,0,3:0:0:0:
264,112,329848,1,0,3:0:0:0:
264,112,329933,1,0,3:0:0:0:
80,84,330104,1,0,3:0:0:0:
80,84,330189,1,0,3:0:0:0:
80,84,330274,1,0,3:0:0:0:
147,257,330444,1,0,3:0:0:0:
147,257,330530,1,0,3:0:0:0:
147,257,330615,1,0,3:0:0:0:
264,112,330785,1,0,3:0:0:0:
264,112,330871,1,0,3:0:0:0:
264,112,330956,1,0,3:0:0:0:
147,257,331126,1,0,3:0:0:0:
186,239,331211,1,0,3:0:0:0:
229,228,331297,1,0,3:0:0:0:
272,225,331382,1,0,3:0:0:0:
316,229,331467,1,0,3:0:0:0:
358,241,331552,1,0,3:0:0:0:
397,260,331638,2,0,L|404:296,7,18.75,0|0|0|0|0|0|0|0,3:0|3:0|3:0|3:0|3:0|3:0|3:0|3:0,0:0:0:0:
428,228,331979,2,0,L|434:192,7,18.75,0|0|0|0|0|0|0|0,3:0|3:0|3:0|3:0|3:0|3:0|3:0|3:0,0:0:0:0:
456,260,332319,5,4,0:2:0:0:
376,140,332490,1,0,0:0:0:0:
376,140,332575,1,0,0:0:0:0:
376,140,332660,2,0,P|360:88|360:40,1,75,8|0,0:0|0:0,0:0:0:0:
264,8,333001,2,0,P|248:60|248:108,1,75
132,156,333342,2,0,P|184:172|232:172,1,75,8|0,0:0|0:0,0:0:0:0:
380,228,333683,2,0,P|328:212|280:212,1,75
248,376,334024,2,0,P|264:324|264:276,1,75,8|0,0:0|0:0,0:0:0:0:
132,156,334365,2,0,L|144:248,1,75
380,228,334706,2,0,L|368:136,1,75,8|0,0:0|0:0,0:0:0:0:
248,56,335047,6,0,P|228:100|228:152,1,75
264,328,335388,2,0,P|284:284|284:232,1,75,8|0,0:0|0:0,0:0:0:0:
120,200,335729,2,0,P|164:220|216:220,1,75
392,184,336070,2,0,P|348:164|296:164,1,75,8|0,0:0|0:0,0:0:0:0:
216,192,336410,2,0,L|204:100,1,75
296,192,336751,2,0,L|308:284,1,75,8|0,0:0|0:0,0:0:0:0:
168,116,337092,2,0,L|156:24,1,75
344,268,337433,2,0,L|356:360,1,75,8|0,0:0|0:0,0:0:0:0:
192,328,337774,2,0,P|172:292|168:248,1,75
320,56,338115,2,0,P|340:92|344:136,1,75,8|0,0:0|0:0,0:0:0:0:
120,128,338456,2,0,P|156:108|200:104,1,75
392,256,338797,2,0,P|356:276|244:256,1,150,8|0,0:0|0:0,0:0:0:0:
256,192,339223,12,0,340246,2:0:0:70:normal-sliderslide100.wav
256,192,340331,12,0,346893,2:0:0:70:normal-sliderslide100.wav
256,192,346979,12,0,352433,2:0:0:70:normal-sliderslide100.wav
