osu file format v5

[General]
AudioFilename: Byakko - Asian Mixture.mp3
AudioLeadIn: 2000
PreviewTime: -1
Countdown: 0
SampleSet: Normal
StackLeniency: 0.3
Mode: 0
LetterboxInBreaks: 1
EditorBookmarks: 370,69726

[Metadata]
Title:Kachoufuusetsu
Artist:Tatsh
Creator:Al-Azif
Version:Hard
Source:beatmania IIDX13
Tags:

[Difficulty]
HPDrainRate:3
CircleSize:4
OverallDifficulty:5
SliderMultiplier:1
SliderTickRate:2

[Events]
//Background and Video events
0,0,"bg.jpg"
//Break Periods
2,69172,72747
//Storyboard Layer 0 (Background)
//Storyboard Layer 1 (Failing)
//Storyboard Layer 2 (Passing)
//Storyboard Layer 3 (Foreground)
//Storyboard Sound Samples
//Background Colour Transformations
3,100,0,0,0

[TimingPoints]
380,301.507537688442,4,1,0,70,1

[Colours]
Combo1 : 255,0,128
Combo2 : 255,255,128
Combo3 : 128,255,255

[HitObjects]
256,280,380,1,0
256,280,681,1,0
256,280,832,1,0
256,280,983,2,0,L|360:280,1,100
408,192,1586,2,0,L|288:192,1,100
208,192,2189,1,0
208,192,2339,2,0,L|128:192,2,50,0|8|0
256,104,2942,5,0
256,104,3093,1,8
256,104,3244,1,0
256,104,3395,2,0,B|120:104,1,100
72,160,3998,2,0,L|88:208|168:256,1,100
232,232,4601,1,0
328,232,4902,1,8
328,232,5053,1,0
328,232,5204,1,4
256,192,5354,12,0,7465
136,104,7766,6,0,B|176:136,3,50,0|8|0|8
256,192,8520,1,0
256,192,8671,1,0
256,192,8822,1,8
336,248,9123,2,0,B|400:296,5,50,0|0|8|0|8|8
63,67,11234,5,4
208,64,11686,2,0,B|376:64,1,150,4|8
456,176,12591,2,0,B|280:176|304:176,1,150,4|8
208,176,13344,1,8
104,176,13646,1,4
48,312,14098,1,4
200,312,14550,1,8
352,312,15003,6,0,B|424:232|352:144,1,150,0|4
272,176,15756,1,8
168,176,16058,1,4
64,64,16510,2,0,B|224:64,1,150,4|8
360,64,17415,5,4
472,160,17867,1,8
368,160,18168,1,8
264,160,18470,2,0,B|88:160|104:160,2,150,4|0|8
256,192,19827,12,0,20882
400,80,21334,6,0,B|224:80|208:80,1,150,0|8
136,176,22239,2,0,B|304:176,1,150,0|8
384,176,22993,1,8
480,176,23294,1,4
432,320,23746,1,4
280,320,24199,1,8
128,320,24651,2,0,B|56:320|40:320,7,50,0|8|0|0|0|8|0|0
80,168,26158,5,4
232,168,26611,1,8
360,240,27063,2,0,B|416:160|344:88,1,150,4|0
256,72,27817,1,8
152,72,28118,6,0,B|80:72|96:72,4,50,0|0|8|0|0
152,168,29023,2,0,B|152:232,4,50,0|0|8|0|8
248,168,29927,1,8
296,168,30078,1,0
344,168,30229,1,8
256,192,30530,12,0,31736
256,144,32339,5,4
256,240,32641,1,8
256,192,32942,12,0,34148
184,288,34751,6,0,B|248:240|312:344|384:272,1,200,4|0
448,216,35656,1,8
376,144,35957,2,0,B|312:96|248:200|176:128,1,200,4|0
96,80,36862,1,8
96,176,37163,1,0
96,272,37465,1,8
192,304,37766,6,0,B|280:344|352:296,1,150
416,248,38520,1,0
416,248,38671,1,8
416,144,38972,2,0,B|416:88,4,50,0|0|8|0|8
256,192,39877,12,0,41083
256,144,41385,6,0,B|256:80,4,50,0|0|8|0|8
256,240,42289,1,0
256,192,42591,12,0,43496
160,192,43797,6,0,B|104:192,2,50,0|0|8
256,192,44400,2,0,B|256:256,2,50,0|0|8
352,192,45003,5,0
352,88,45304,1,8
248,88,45606,1,0
200,88,45756,1,0
152,88,45907,1,8
120,184,46209,5,0
216,184,46510,1,8
264,184,46661,1,0
312,184,46812,1,0
360,184,46962,2,0,L|432:184|432:192,2,50,0|8|0
256,192,47565,12,0,48319
120,136,48621,6,0,B|56:136,2,50,0|0|8
216,136,49224,2,0,B|336:136,1,100,0|8
416,136,49827,5,0
416,136,49977,1,0
416,136,50128,1,8
416,232,50430,1,0
416,232,50581,1,0
416,232,50731,1,8
312,232,51033,6,0,B|192:232,1,100,0|8
136,160,51636,2,0,B|272:160,1,100,0|8
328,120,52239,2,0,B|328:64,2,50,0|0|8
328,216,52842,2,0,B|328:272,2,50,0|0|8
416,168,53445,5,0
416,120,53596,1,0
416,72,53746,1,8
312,72,54048,1,8
264,72,54199,1,0
216,72,54349,1,8
112,72,54651,5,4
112,168,54952,1,8
112,264,55254,1,8
208,264,55555,1,8
304,264,55857,5,4
304,264,56008,1,4
304,264,56158,1,4
304,264,56309,1,0
304,264,56460,1,8
400,264,56761,1,8
456,184,57063,5,4
416,96,57364,1,8
368,184,57666,1,8
320,96,57967,1,8
272,184,58269,1,4
216,96,58570,1,8
115,99,58872,1,8
115,99,59023,1,0
115,99,59173,1,8
160,192,59475,5,4
208,280,59776,1,8
304,280,60078,1,4
360,192,60380,1,8
304,104,60681,1,4
208,104,60983,1,8
255,194,61284,5,4
255,194,61435,1,4
255,194,61586,1,8
368,312,61887,6,0,B|464:232|448:88|352:32,1,300
136,48,63093,2,0,B|40:128|56:272|152:328,1,300,0|0
232,320,64299,5,4
296,240,64601,1,4
224,168,64902,1,4
288,96,65204,1,4
384,96,65505,2,0,B|456:96,2,50,0|0|8
280,96,66108,6,0,B|104:96|112:96,1,150
80,96,66711,1,4
80,192,67013,1,0
136,272,67314,1,4
224,312,67616,1,0
320,288,67917,1,4
384,216,68219,1,4
384,112,68520,5,4
384,112,68671,1,0
384,112,68822,1,8
384,112,68972,1,4
400,56,73947,6,0,B|288:56,1,100,4|8
248,56,74400,1,0
248,56,74550,2,0,B|176:48|168:120,1,100,4|8
256,152,75153,2,0,B|272:208|208:240,1,100,0|8
217,234,75606,1,0
168,240,75756,2,0,B|96:240,2,50,0|0|8
216,328,76359,6,0,B|320:328|336:328,1,100,0|8
416,328,76962,1,4
456,296,77113,1,0
456,248,77264,1,8
456,144,77565,2,0,B|456:88|384:64|384:72,1,100,4|8
288,72,78168,1,4
240,72,78319,1,4
192,72,78470,1,8
88,72,78771,2,0,B|24:176|184:192|72:320,1,250
85,303,79676,5,8
184,304,79977,1,4
280,304,80279,1,8
376,304,80581,1,4
440,224,80882,5,8
440,224,81033,1,0
440,224,81184,2,0,B|440:80,1,100,0|8
360,56,81787,2,0,B|232:56,1,100,4|8
192,128,82390,2,0,B|192:232,1,100,4|8
192,328,82993,2,0,B|256:328,2,50,8|0|8
136,240,83596,6,0,B|56:240,2,50,0|0|8
184,240,84048,1,0
280,240,84349,1,0
328,240,84500,1,8
424,240,84802,2,0,B|496:240,3,50,0|0|8|0
424,152,85555,1,0
376,152,85706,1,8
256,192,86008,12,0,86912
80,48,87214,5,4
176,48,87515,1,8
224,48,87666,1,0
320,48,87967,1,0
368,48,88118,1,8
464,48,88420,6,0,B|472:144|392:160|360:160,1,150,4|0
288,160,89173,1,0
288,160,89324,1,8
240,160,89475,2,0,B|144:152|128:264,1,150,0|8
128,288,90078,1,0
224,288,90380,5,0
224,288,90530,1,8
224,288,90681,1,0
272,288,90832,2,0,B|352:288,3,50,0|0|8|0
424,288,91586,1,0
424,288,91736,1,8
424,288,91887,1,0
424,288,92038,1,0
424,184,92339,1,8
320,184,92641,2,0,B|264:184,4,50,8|0|8|8|4
360,88,93545,5,8
264,48,93847,1,4
171,86,94148,1,8
128,176,94450,1,4
169,263,94751,1,8
257,309,95053,1,4
344,264,95354,1,8
256,192,95656,12,0,96560
256,192,96711,12,0,97766
408,232,98068,6,0,B|288:232,1,100,0|8
256,144,98671,2,0,B|360:144,1,100,0|8
408,56,99274,2,0,B|288:56,1,100,0|8
208,56,99877,2,0,B|176:56,8,25
208,152,100782,1,8
208,200,100932,1,0
160,288,101234,6,0,B|104:288,2,50,0|8|0
208,288,101686,2,0,B|360:288,1,150
408,200,102440,2,0,B|472:200,2,50,0|8|0
360,200,102892,2,0,B|192:200,1,150
160,112,103646,2,0,B|104:112,2,50,0|8|0
208,112,104098,2,0,B|384:112,1,150
408,112,104701,1,0
408,112,104852,1,0
408,112,105003,1,8
408,208,105304,5,0
256,208,105756,1,0
328,336,106209,1,0
176,336,106661,1,0
96,208,107113,5,0
160,136,107415,1,0
256,136,107716,1,0
