osu file format v5

[General]
AudioFilename: Byakko - Asian Mixture.mp3
AudioLeadIn: 2000
PreviewTime: -1
Countdown: 0
SampleSet: Normal
StackLeniency: 0.3
Mode: 0
LetterboxInBreaks: 1
EditorBookmarks: 370,69415,108008

[Metadata]
Title:Kachoufuusetsu
Artist:Tatsh
Creator:Al-Azif
Version:Another
Source:beatmania IIDX13
Tags:

[Difficulty]
HPDrainRate:7
CircleSize:5
OverallDifficulty:7
SliderMultiplier:1.4
SliderTickRate:1

[Events]
//Background and Video events
0,0,"bg.jpg"
//Break Periods
2,69162,72285
//Storyboard Layer 0 (Background)
//Storyboard Layer 1 (Failing)
//Storyboard Layer 2 (Passing)
//Storyboard Layer 3 (Foreground)
//Storyboard Sound Samples
//Background Colour Transformations
3,100,0,0,0

[TimingPoints]
380,301.507537688442,4,1,0,70,1

[Colours]
Combo1 : 255,0,128
Combo2 : 255,255,128
Combo3 : 128,255,255

[HitObjects]
256,296,380,5,4
112,296,681,5,0
59,249,832,1,0
114,205,983,1,0
95,137,1133,1,0
161,115,1284,1,0
195,53,1435,1,0
258,83,1586,1,0
320,52,1736,1,0
351,114,1887,1,0
417,135,2038,1,0
401,203,2189,1,0
450,251,2339,1,0
394,294,2490,1,0
394,294,2641,1,0
264,344,2942,5,0
192,344,3093,1,0
152,280,3244,1,0
192,224,3395,1,0
264,224,3545,1,0
312,168,3696,1,0
264,112,3847,1,0
192,112,3998,1,0
264,112,4148,1,0
192,112,4299,1,0
120,112,4450,1,0
48,112,4601,1,0
48,184,4751,1,0
48,112,4902,1,0
48,40,5053,1,0
184,40,5354,5,4
256,40,5505,2,0,L|360:40,1,70,8|0
256,40,5807,1,8
224,104,5957,2,0,L|136:104,1,70,0|8
224,104,6259,1,8
296,104,6410,2,0,L|392:104,3,70
432,104,7013,1,8
400,168,7163,2,0,L|400:250,2,70,0|8|8
352,296,7766,5,0
296,248,7917,1,8
240,296,8068,1,0
184,248,8219,1,8
80,152,8520,1,0
120,96,8671,1,0
192,96,8822,1,8
288,192,9123,5,0
344,152,9274,1,0
400,112,9425,1,8
456,152,9575,1,0
400,112,9726,1,8
352,64,9877,1,8
344,296,11234,6,0,B|424:272|432:168,1,140,4|8
428,194,11686,1,0
88,192,11988,1,0
88,192,12138,2,0,B|88:96|176:72,1,140,8|0
224,56,12591,1,0
280,96,12741,1,8
336,56,12892,1,0
392,96,13043,1,0
432,232,13344,6,0,B|344:232,1,70,8|0
291,232,13646,1,4
151,234,13947,2,0,B|47:234,2,70,8|8|0
223,234,14400,1,0
223,234,14550,1,8
72,88,15003,5,0
132,123,15153,1,8
202,124,15304,1,0
261,87,15455,1,4
400,88,15756,2,0,B|488:88,2,70,8|0|8
329,86,16209,1,0
334,225,16510,5,0
291,280,16661,1,0
222,294,16812,1,0
152,294,16962,2,0,B|68:261|83:181,1,140,8|0
88,48,17565,6,0,B|192:48,1,70,8|0
228,48,17867,1,8
298,48,18018,1,8
368,48,18168,2,0,B|464:48,2,70,0|0|8
328,182,18771,2,0,B|328:262,2,70
328,111,19224,1,0
258,111,19374,1,8
102,253,19827,6,0,B|25:189,1,70,0|8
112,181,20128,2,0,B|166:113,1,70,8|0
182,191,20430,2,0,B|253:247,1,70,0|8
176,264,20731,2,0,B|116:338,1,70,0|8
256,144,21334,5,0
299,89,21485,1,0
257,145,21636,1,0
313,185,21787,1,8
369,225,21937,1,0
313,185,22088,1,0
448,192,22390,6,0,B|368:128,1,70,8|0
336,104,22691,1,4
280,56,22842,1,0
224,104,22993,2,0,B|152:168,1,70,8|8
120,192,23294,1,0
120,328,23596,5,8
176,288,23746,1,4
237,322,23897,2,0,B|301:362|381:314,1,140,0|8
408,256,24349,2,0,B|368:224|328:264,1,70,8|0
256,140,24802,6,0,B|187:78,1,70,4|0
272,70,25103,2,0,B|333:10,1,70,8|0
344,87,25405,2,0,B|409:149,1,70
330,164,25706,2,0,B|256:230,1,70,8|0
162,290,26158,5,4
88,170,26460,2,0,B|31:92,2,70,0|8|0
130,225,26912,2,0,B|306:225,1,140,8|0
270,225,27364,1,0
340,224,27515,2,0,B|440:224,2,70,8|0|8
305,163,27967,1,8
305,92,28118,1,0
234,92,28269,1,0
304,92,28420,1,8
373,92,28570,1,0
373,92,28721,1,8
432,216,29023,6,0,B|432:312,1,70
360,288,29324,2,0,B|360:200,2,70,8|0|8
216,288,29927,1,0
160,240,30078,1,0
88,240,30229,1,8
256,192,30380,12,0,30832
256,192,30907,12,0,31435
48,232,31736,6,0,B|104:160,1,70,4|0
135,121,32038,1,8
185,169,32189,2,0,B|249:233,1,70
284,268,32490,1,4
332,318,32641,1,8
380,267,32792,2,0,B|444:187,1,70
465,156,33093,2,0,B|413:95,1,70,0|8
256,192,33395,12,0,33847
256,192,33922,12,0,34450
440,136,34751,6,0,B|320:24,1,140,4|8
224,128,35354,1,4
272,176,35505,1,0
320,224,35656,1,8
216,320,35957,2,0,B|96:208,1,140,4|8
40,104,36560,6,0,B|144:104,1,70,4|0
176,104,36862,1,8
232,152,37013,1,8
288,192,37163,1,0
360,192,37314,2,0,B|456:192,1,70,0|8
400,256,37616,1,0
400,256,37766,6,0,B|296:352,1,140,4|8
192,248,38369,2,0,B|304:144,1,140,4|8
208,48,38972,2,0,B|144:104,1,70
104,144,39274,1,8
48,192,39425,1,0
104,232,39575,1,8
232,176,39877,5,4
304,176,40028,2,0,B|384:176,2,70
232,56,40631,2,0,B|233:137,2,70
160,176,41234,2,0,B|72:176,2,70
232,176,41686,1,8
232,248,41837,1,0
232,320,41988,6,0,B|400:320,1,140,8|0
304,192,42591,2,0,B|144:192,1,140,4|4
112,64,43194,2,0,B|264:64,1,140,4|4
392,64,43797,5,0
432,120,43947,1,0
416,188,44098,1,8
350,213,44249,1,0
282,194,44400,1,0
213,205,44550,1,0
178,266,44701,1,8
201,331,44852,1,8
272,336,45003,6,0,B|322:336,4,35
128,336,45606,2,0,B|81:336,4,35,0|0|0|0|0
128,192,46209,2,0,B|128:88,1,70,4|0
128,48,46510,1,8
384,48,46812,2,0,B|384:136,1,70,4|0
384,192,47113,1,8
456,312,47415,2,0,B|501:312,4,35
312,312,48018,2,0,B|265:312,4,35,0|0|0|0|0
384,312,48470,6,0,B|384:216,1,70,0|0
384,168,48771,1,0
328,120,48922,1,8
280,176,49073,2,0,B|216:240,1,70
176,272,49374,1,0
120,224,49525,1,8
64,176,49676,1,8
64,104,49827,2,0,B|64:56,4,35
64,240,50430,2,0,B|64:288,4,35
64,168,50882,6,0,B|160:168,1,70
200,152,51184,1,0
256,192,51334,1,8
312,152,51485,1,4
368,192,51636,1,0
432,168,51787,2,0,B|504:168,1,70,0|8
256,192,52088,12,0,52540
256,192,52616,12,0,53143
288,224,53445,6,0,B|344:280,1,70
288,160,53746,2,0,B|352:96,1,70,8|8
224,160,54048,2,0,B|168:104,1,70
224,224,54349,2,0,B|168:280,1,70,8|0
128,328,54651,5,4
192,48,54952,1,8
272,328,55254,1,0
384,48,55555,1,8
472,152,55857,5,4
400,152,56008,1,0
328,152,56158,1,4
256,152,56309,1,4
184,152,56460,1,12
112,152,56611,1,0
40,152,56761,1,12
40,288,57063,5,0
88,240,57214,1,0
136,288,57364,1,8
184,240,57515,1,8
232,288,57666,1,0
280,240,57817,1,0
328,288,57967,1,8
384,240,58118,1,0
440,192,58269,1,0
384,240,58420,1,0
336,192,58570,1,8
384,136,58721,1,8
336,80,58872,1,0
288,136,59023,1,0
240,80,59173,1,8
96,80,59475,6,0,B|8:80,1,70
48,144,59776,2,0,B|-8:192,1,70,8|0
56,216,60078,2,0,B|56:288,1,70
120,256,60380,2,0,B|176:312,1,70,8|0
192,240,60681,2,0,B|288:240,1,70
224,176,60983,2,0,B|296:128,1,70,8|0
344,96,61284,1,0
400,136,61435,1,8
344,184,61586,1,8
400,224,61736,1,0
352,352,62038,6,0,B|360:312|400:288,1,70,4|0
389,294,62339,1,8
288,312,62490,2,0,B|312:272|296:240,2,70,8|0|8
216,312,62942,2,0,B|192:264|224:224,2,70,8|0|8
152,344,63395,2,0,B|144:304|104:280,1,70
114,286,63696,1,8
64,232,63847,5,0
112,176,63998,1,8
64,120,64148,1,8
112,72,64299,1,0
160,120,64450,1,0
112,176,64601,1,8
160,224,64751,1,0
208,176,64902,2,0,B|256:144|296:232|368:160,1,140,8|0
384,120,65354,2,0,B|344:96|296:128,2,70,0|8|0
416,184,65807,2,0,B|464:248|352:240|392:312,1,140,8|0
448,336,66259,5,0
448,336,66410,1,8
368,32,66711,1,0
256,336,67013,1,0
144,32,67314,1,0
64,336,67616,1,0
56,192,67917,6,0,B|128:192,1,70
192,192,68219,1,8
192,192,68369,1,8
264,192,68520,2,0,B|360:192,2,70,0|0|8
192,192,68972,1,0
256,152,73495,6,0,B|256:112,4,35
256,224,73947,1,4
328,224,74098,2,0,B|416:224,2,70,0|8|0
256,224,74550,1,0
184,224,74701,2,0,B|80:224,2,70,0|8|0
256,224,75153,2,0,B|256:320,2,70,0|0|8
256,152,75606,2,0,B|256:56,1,70
328,80,75907,1,0
256,82,76058,1,8
184,80,76209,1,0
112,80,76359,6,0,B|24:80,2,70,0|0|8
144,144,76812,2,0,B|144:216,1,70,0|0
144,280,77113,1,0
192,328,77264,1,8
256,296,77415,1,4
312,328,77565,1,0
368,280,77716,1,0
368,208,77867,2,0,B|368:128,1,70,8|0
400,80,78168,2,0,B|488:80,2,70,0|0|8
328,80,78621,5,0
256,80,78771,1,4
184,80,78922,1,0
256,80,79073,2,0,B|256:184,1,70,8|0
256,216,79374,2,0,B|256:312|256:320,2,70,4|0|8
328,216,79827,2,0,B|408:216|416:216,2,70,8|0|0
256,216,80279,1,8
184,216,80430,2,0,B|88:216,2,70
184,288,80882,5,8
184,216,81033,1,0
184,144,81184,2,0,B|184:56,1,70
248,104,81485,2,0,B|336:104,1,70,8|0
280,168,81787,2,0,B|280:240,1,70
344,200,82088,2,0,B|448:200,1,70,8|8
480,200,82390,1,0
480,128,82540,5,0
408,128,82691,1,8
336,128,82842,1,0
264,128,82993,1,0
192,128,83143,1,0
120,128,83294,1,8
48,128,83445,1,0
48,200,83596,6,0,B|88:224|136:184,1,70
112,272,83897,2,0,B|80:296|32:264,1,70,8|0
168,344,84349,2,0,B|208:368|256:328,1,70,0|8
232,272,84651,2,0,B|200:296|152:264,2,70
288,240,85103,1,8
352,272,85254,1,0
472,200,85555,1,0
472,128,85706,1,8
256,192,85857,12,0,86309
256,192,86385,12,0,86912
256,192,87214,5,0
256,264,87364,1,0
256,192,87515,1,8
256,120,87666,1,0
328,120,87817,5,8
256,120,87967,1,0
184,120,88118,1,8
256,120,88269,1,8
256,48,88420,6,0,L|296:40|328:64|392:40,1,140
424,96,88872,2,0,L|456:160|376:208,1,140,8|0
336,232,89324,2,0,B|296:248|256:240,2,70,8|0|0
304,168,89776,1,0
264,112,89927,1,8
200,144,90078,1,0
96,232,90379,5,0
141,285,90530,1,8
208,288,90681,1,0
256,232,90832,1,0
256,160,90983,1,0
296,104,91133,1,8
368,104,91284,1,0
448,216,91586,6,0,B|439:259|371:267,2,70
448,144,92038,1,8
376,144,92189,1,0
448,144,92339,5,8
376,144,92490,1,8
304,144,92641,1,4
232,144,92792,1,0
160,144,92942,1,8
88,144,93093,1,8
88,216,93244,6,0,B|88:368,1,140,4|8
448,168,93847,2,0,B|448:8,1,140,4|8
72,40,94450,1,0
72,344,94751,1,0
440,344,95053,1,0
440,40,95354,1,0
368,160,95656,5,4
320,104,95807,1,0
280,160,95957,2,0,B|232:224,1,70,8|8
200,272,96259,1,0
136,248,96410,1,0
112,184,96560,2,0,B|80:104,1,70,8|0
56,56,96862,1,4
128,64,97013,2,0,B|208:80,1,70,0|8
264,88,97314,1,8
296,144,97465,1,0
328,208,97616,2,0,B|384:296,2,70,0|8|0
264,240,98068,6,0,B|184:288,1,70
192,208,98369,2,0,B|136:152,1,70,8|0
208,128,98671,2,0,B|264:56,1,70
296,120,98972,2,0,B|384:144,1,70,8|0
328,200,99274,2,0,B|336:288,2,70,0|0|8
256,192,99726,5,0
256,192,99877,2,0,B|256:248,8,35
360,120,100782,5,8
288,120,100932,1,0
144,120,101234,2,0,B|48:120,2,70,0|8|0
216,120,101686,1,0
216,192,101837,2,0,B|216:280,2,70,0|8|0
352,192,102440,5,0
424,192,102591,2,0,B|506:192,2,70,8|0|0
352,192,103043,1,0
352,264,103194,2,0,B|352:352,1,70,8|8
280,336,103495,2,0,B|240:336,4,35
280,264,103947,1,0
280,264,104098,2,0,B|280:104,1,140,0|8
256,192,104550,12,0,105304
256,192,105756,5,0
256,192,106209,1,0
256,192,106661,1,0
256,192,107113,5,0
256,192,107415,1,0
256,192,107565,5,4
256,192,107641,1,4
256,192,107716,1,4
112,36,109224,5,0
181,45,109374,1,0
249,58,109525,1,0
317,71,109676,1,0
385,87,109827,1,0
452,105,109977,1,0
393,144,110128,1,0
327,169,110279,1,0
261,193,110430,1,0
196,220,110581,1,0
132,247,110731,1,0
69,279,110882,1,0
132,307,111033,1,0
199,324,111184,1,0
265,345,111334,1,0
408,344,111636,6,0,B|512:344,2,70
336,344,112088,1,0
336,272,112239,2,0,B|336:200,1,70
336,128,112540,5,0
264,128,112691,1,0
192,128,112842,1,0
264,128,112993,1,0
336,128,113143,1,0
408,128,113294,1,0
480,128,113445,2,0,B|480:208,2,70,0|0|0
174,159,114048,6,0,B|222:151|246:111,1,70,0|0
174,87,114349,2,0,B|166:39|110:23,1,70
102,95,114651,2,0,B|54:95|22:151,1,70
94,167,114952,2,0,B|102:215|166:231,1,70
262,211,115254,6,0,B|270:163|310:139,1,70,0|0
334,211,115555,2,0,B|382:219|398:275,1,70
326,283,115857,2,0,B|326:331|270:363,1,70
254,291,116158,2,0,B|206:283|190:219,1,70
165,188,116460,5,0
202,128,116611,1,0
266,102,116761,1,0
332,125,116912,1,0
367,185,117063,1,0
352,253,117214,1,0
297,296,117364,1,0
227,304,117515,1,0
163,274,117666,1,0
115,222,117817,5,0
114,152,117967,1,0
146,89,118118,1,0
207,55,118269,1,0
276,46,118420,1,0
256,192,118721,12,0,119173
256,192,119249,12,0,119776
256,192,119852,12,0,120983
