osu file format v6

[General]
AudioFilename: vocal.mp3
AudioLeadIn: 0
PreviewTime: 58635
Countdown: 0
SampleSet: Soft
StackLeniency: 0.7
Mode: 0
LetterboxInBreaks: 1

[Editor]
DistanceSpacing: 1.5
BeatDivisor: 4
GridSize: 8

[Metadata]
Title:Joker (Vocaloid ver.)
Artist:Tatsh
Creator:happy30
Version:Normal
Source:MUSIC COLLECTION -J-
Tags:hatsune miku evil fast crazy30

[Difficulty]
HPDrainRate:4
CircleSize:3
OverallDifficulty:4
SliderMultiplier:1.2
SliderTickRate:0.5

[Events]
//Background and Video events
0,0,"Konachan.com - 52085 hatsune_miku vocaloid.jpg"
//Break Periods
2,23255,33247
//Storyboard Layer 0 (Background)
//Storyboard Layer 1 (Fail)
//Storyboard Layer 2 (Pass)
//Storyboard Layer 3 (Foreground)
//Storyboard Sound Samples
//Background Colour Transformations
3,100,163,162,255

[TimingPoints]
730,348.837209302326,4,2,0,100,1,0
10497,-200,4,2,1,70,0,0
34216,-200,4,2,1,70,0,0
34740,-200,4,2,1,70,0,0
41805,-200,4,2,1,70,0,0
42154,-200,4,2,1,70,0,0
51658,-200,4,2,1,70,0,0
56892,1395.3488372093,4,2,1,70,1,0
58286,348.837209302326,4,2,1,70,1,0
59332,-100,4,2,1,100,0,1
83402,-100,4,2,1,66,0,1
84448,1395.3488372093,4,2,1,80,1,0

[Colours]
Combo1 : 128,128,255
Combo2 : 0,128,128

[HitObjects]
88,192,11892,2,0,B|216:192,1,120,4|8
424,192,13288,2,0,B|296:192,1,120,4|8
232,248,14334,1,8
288,320,14683,6,0,B|368:352|392:264,1,120,4|8
432,144,16078,1,4
344,144,16427,1,0
256,144,16776,1,8
168,144,17125,1,8
80,144,17474,6,0,B|40:208|96:272,1,120,4|8
432,312,18869,2,0,B|472:248|416:184,1,120,4|8
344,232,19916,1,8
344,232,20264,6,8,B|304:104,1,120,4|8
168,232,21660,2,0,B|192:160,2,60,4|8|8
136,312,22706,1,8
136,312,23055,1,4
256,192,34567,5,8
256,192,34741,1,0
256,328,35264,1,8
256,328,35439,1,0
376,264,35962,1,8
376,264,36136,2,0,B|408:216|384:160,1,90,0|8
390,178,36834,1,8
256,200,37357,5,8
256,200,37532,2,0,B|160:200,1,90,0|8
166,200,38229,1,0
32,192,38753,1,8
32,192,38927,1,0
120,296,39450,1,8
120,296,39625,1,8
120,296,39799,6,0,B|240:328,1,120,4|8
392,216,41195,2,0,B|272:248,1,120,4|8
256,160,42241,1,8
256,160,42416,1,8
256,160,42590,1,4
192,96,42939,5,0
256,32,43288,1,0
320,96,43636,1,8
256,160,43985,2,0,B|288:200|232:208|256:256,1,90,8|8
256,336,44857,1,8
256,336,45032,1,8
256,336,45381,6,0,B|304:280|368:320|416:248,1,180,4|8
344,192,46776,2,0,B|304:152|248:200|168:144,1,180,4|8
56,264,48171,6,0,B|136:264,1,60,8|8
168,336,48869,2,0,B|240:336,1,60,8|8
320,312,49567,6,0,B|368:264|312:232|304:136,1,180,4|8
192,192,50962,5,4
88,256,51311,1,0
32,152,51660,1,8
128,80,52009,1,8
192,192,52357,1,8
192,192,52532,1,8
192,192,52706,1,8
192,192,52881,2,0,B|352:192,1,150,8|4
432,272,54102,5,0
312,280,54450,1,8
208,336,54799,1,8
128,248,55148,1,4
32,320,55497,1,8
32,320,55846,2,0,B|56:272|40:192,1,120,8|8
136,192,56893,6,0,B|272:192,1,120,4|0
376,192,58635,5,8
376,192,58810,1,8
376,192,58984,1,8
376,192,59159,1,8
376,192,59333,6,8,B|416:248|368:312,1,120,12|10
264,248,60031,2,8,B|200:216|144:264,1,120,8|10
64,336,60728,1,8
48,160,61252,1,8
48,160,61426,2,8,B|168:184,1,120,8|10
280,304,62124,6,8,B|160:280,2,120,12|10|8
336,200,63170,1,10
448,248,63519,2,8,B|496:192|456:120,1,120,8|10
416,24,64217,2,8,B|296:48,1,120,8|10
256,168,64914,6,8,B|152:136,2,90,12|10|10
256,168,65612,2,8,B|280:274,2,90,12|10|10
256,168,66310,2,8,B|335:93,2,90,12|10|10
256,168,67007,1,8
344,352,67705,6,8,B|384:296|352:232,1,120,12|10
156,238,68403,2,8,B|128:296|168:352,1,120,8|10
256,272,69100,1,8
256,152,69449,1,10
256,32,69798,1,8
256,32,69973,1,10
256,32,70147,1,10
256,32,70321,1,10
256,32,70496,6,8,B|344:32|368:104,1,120,12|10
432,176,71193,2,8,B|360:200|384:280,1,120,8|10
256,248,71891,2,8,B|256:112,1,120,8|10
256,128,72589,1,8
144,176,72938,1,10
144,176,73112,1,10
144,176,73287,6,8,B|32:104,1,120,12|10
48,232,73984,2,8,B|160:304,1,120,8|10
256,248,74682,1,8
256,72,75205,1,8
256,72,75380,2,8,B|328:72|368:128,1,120,8|10
352,240,76077,1,12
256,312,76426,5,10
256,312,76600,1,8
256,312,76775,1,8
256,312,76949,1,8
256,312,77124,1,10
256,192,77473,2,8,B|256:96,2,90,12|10|10
256,192,78170,1,8
64,336,78868,5,12
168,272,79217,1,10
168,272,79391,1,8
112,104,79914,1,10
224,144,80263,1,8
312,64,80612,1,10
400,144,80961,6,8,B|376:272,1,120,8|10
272,320,81659,2,8,B|296:192,1,120,8|10
320,88,82356,1,8
320,88,82705,1,10
200,88,83054,1,14
256,320,83577,5,8
256,320,83752,1,8
256,320,83926,1,8
256,320,84100,1,10
256,320,84275,1,8
256,320,84449,2,0,B|256:176,1,120,4|0
