osu file format v14

[General]
AudioFilename: IMAGE.mp3
AudioLeadIn: 0
PreviewTime: -1
Countdown: 1
SampleSet: None
StackLeniency: 0.7
Mode: 0
LetterboxInBreaks: 1
WidescreenStoryboard: 0

[Editor]
DistanceSpacing: 1.2
BeatDivisor: 4
GridSize: 4
TimelineZoom: 1

[Metadata]
Title:IMAGE-MATERIAL
TitleUnicode:IMAGE-MATERIAL
Artist:Tatsh
ArtistUnicode:Tatsh
Creator:[Japinha CPM22]
Version:Cookiezi
Source:IMAGE-MATERIAL
Tags:Renard Blue Dragon 0108
BeatmapID:731613
BeatmapSetID:330057

[Difficulty]
HPDrainRate:7
CircleSize:4
OverallDifficulty:8
ApproachRate:9
SliderMultiplier:1.8
SliderTickRate:1

[Events]
//Background and Video events
0,0,"zujp6a.jpg",0,0
//Break Periods
//Storyboard Layer 0 (Background)
//Storyboard Layer 1 (Fail)
//Storyboard Layer 2 (Pass)
//Storyboard Layer 3 (Foreground)
//Storyboard Sound Samples

[TimingPoints]
49051,230.769230769231,4,2,0,100,1,0

[HitObjects]
112,60,56435,5,8,1:1:0:0:
128,60,56493,1,0,1:1:0:0:
148,60,56550,1,0,1:1:0:0:
168,60,56608,1,0,1:1:0:0:
188,60,56666,1,0,1:1:0:0:
208,60,56724,1,0,1:1:0:0:
228,60,56781,1,0,1:1:0:0:
248,60,56839,5,0,1:1:0:0:
268,60,56897,1,8,1:1:0:0:
288,60,56954,1,0,1:1:0:0:
308,60,57012,1,0,1:1:0:0:
328,60,57070,1,0,1:1:0:0:
348,60,57127,1,0,1:1:0:0:
368,60,57185,1,0,1:1:0:0:
400,60,57243,1,0,1:1:0:0:
400,76,57301,1,0,1:1:0:0:
400,96,57358,1,0,1:1:0:0:
400,116,57416,1,0,1:1:0:0:
400,136,57474,1,0,1:1:0:0:
400,156,57532,1,0,1:1:0:0:
400,176,57589,1,0,1:1:0:0:
400,196,57647,5,0,1:1:0:0:
400,216,57705,1,0,1:1:0:0:
400,236,57762,1,0,1:1:0:0:
400,256,57820,1,0,1:1:0:0:
400,276,57878,1,0,1:1:0:0:
400,296,57935,1,0,1:1:0:0:
400,316,57993,1,0,1:1:0:0:
372,316,58050,1,0,1:1:0:0:
356,316,58108,1,0,1:1:0:0:
336,316,58165,1,0,1:1:0:0:
316,316,58223,1,0,1:1:0:0:
296,316,58281,1,0,1:1:0:0:
276,316,58339,1,0,1:1:0:0:
256,316,58396,1,0,1:1:0:0:
236,316,58454,5,0,1:1:0:0:
216,316,58512,1,0,1:1:0:0:
196,316,58569,1,0,1:1:0:0:
176,316,58627,1,0,1:1:0:0:
156,316,58685,1,0,1:1:0:0:
136,316,58742,1,0,1:1:0:0:
116,316,58800,1,0,1:1:0:0:
92,316,58858,1,0,1:1:0:0:
92,300,58916,1,0,1:1:0:0:
92,280,58973,1,0,1:1:0:0:
92,260,59031,1,0,1:1:0:0:
92,240,59089,1,0,1:1:0:0:
92,220,59147,1,0,1:1:0:0:
92,200,59204,1,0,1:1:0:0:
92,180,59262,5,0,1:1:0:0:
92,160,59320,1,0,1:1:0:0:
92,140,59377,1,0,1:1:0:0:
92,120,59435,1,0,1:1:0:0:
92,100,59493,1,0,1:1:0:0:
92,80,59550,1,0,1:1:0:0:
92,60,59608,1,0,1:1:0:0:
112,60,59665,1,0,1:1:0:0:
128,60,59723,1,0,1:1:0:0:
148,60,59780,1,0,1:1:0:0:
168,60,59838,1,0,1:1:0:0:
188,60,59896,1,0,1:1:0:0:
208,60,59954,1,0,1:1:0:0:
228,60,60011,1,0,1:1:0:0:
248,60,60069,5,0,1:1:0:0:
268,60,60127,1,0,1:1:0:0:
288,60,60184,1,0,1:1:0:0:
308,60,60242,1,0,1:1:0:0:
328,60,60300,1,0,1:1:0:0:
348,60,60357,1,0,1:1:0:0:
368,60,60415,1,0,1:1:0:0:
400,60,60473,1,0,1:1:0:0:
400,76,60531,1,0,1:1:0:0:
400,96,60588,1,0,1:1:0:0:
400,116,60646,1,0,1:1:0:0:
400,136,60704,1,0,1:1:0:0:
400,156,60762,1,0,1:1:0:0:
400,176,60819,1,0,1:1:0:0:
400,196,60877,5,0,1:1:0:0:
400,216,60935,1,0,1:1:0:0:
400,236,60992,1,0,1:1:0:0:
400,256,61050,1,0,1:1:0:0:
400,276,61108,1,0,1:1:0:0:
400,296,61165,1,0,1:1:0:0:
400,316,61223,1,0,1:1:0:0:
372,316,61280,1,0,1:1:0:0:
356,316,61338,1,0,1:1:0:0:
336,316,61395,1,0,1:1:0:0:
316,316,61453,1,0,1:1:0:0:
296,316,61511,1,0,1:1:0:0:
276,316,61569,1,0,1:1:0:0:
256,316,61626,1,0,1:1:0:0:
236,316,61684,5,0,1:1:0:0:
216,316,61742,1,0,1:1:0:0:
196,316,61799,1,0,1:1:0:0:
176,316,61857,1,0,1:1:0:0:
156,316,61915,1,0,1:1:0:0:
136,316,61972,1,0,1:1:0:0:
116,316,62030,1,0,1:1:0:0:
92,316,62088,1,0,1:1:0:0:
92,300,62146,1,0,1:1:0:0:
92,280,62203,1,0,1:1:0:0:
92,260,62261,1,0,1:1:0:0:
92,240,62319,1,0,1:1:0:0:
92,220,62377,1,0,1:1:0:0:
92,200,62434,1,0,1:1:0:0:
92,180,62492,5,0,1:1:0:0:
92,160,62550,1,0,1:1:0:0:
92,140,62607,1,0,1:1:0:0:
92,120,62665,1,0,1:1:0:0:
92,100,62723,1,0,1:1:0:0:
92,80,62780,1,0,1:1:0:0:
92,60,62838,1,0,1:1:0:0:
112,60,62897,1,0,1:1:0:0:
128,60,62955,1,0,1:1:0:0:
148,60,63012,1,0,1:1:0:0:
168,60,63070,1,0,1:1:0:0:
188,60,63128,1,0,1:1:0:0:
208,60,63186,1,0,1:1:0:0:
228,60,63243,1,0,1:1:0:0:
248,60,63301,5,0,1:1:0:0:
268,60,63359,1,0,1:1:0:0:
288,60,63416,1,0,1:1:0:0:
308,60,63474,1,0,1:1:0:0:
328,60,63532,1,0,1:1:0:0:
348,60,63589,1,0,1:1:0:0:
368,60,63647,1,0,1:1:0:0:
400,60,63705,1,0,1:1:0:0:
400,76,63763,1,0,1:1:0:0:
400,96,63820,1,0,1:1:0:0:
400,116,63878,1,0,1:1:0:0:
400,136,63936,1,0,1:1:0:0:
400,156,63994,1,0,1:1:0:0:
400,176,64051,1,0,1:1:0:0:
400,196,64109,5,0,1:1:0:0:
400,216,64167,1,0,1:1:0:0:
400,236,64224,1,0,1:1:0:0:
400,256,64282,1,0,1:1:0:0:
400,276,64340,1,0,1:1:0:0:
400,296,64397,1,0,1:1:0:0:
400,316,64455,1,0,1:1:0:0:
372,316,64512,1,0,1:1:0:0:
356,316,64570,1,0,1:1:0:0:
336,316,64627,1,0,1:1:0:0:
316,316,64685,1,0,1:1:0:0:
296,316,64743,1,0,1:1:0:0:
276,316,64801,1,0,1:1:0:0:
256,316,64858,1,0,1:1:0:0:
236,316,64916,5,0,1:1:0:0:
216,316,64974,1,0,1:1:0:0:
196,316,65031,1,0,1:1:0:0:
176,316,65089,1,0,1:1:0:0:
156,316,65147,1,0,1:1:0:0:
136,316,65204,1,0,1:1:0:0:
116,316,65262,1,0,1:1:0:0:
92,316,65320,1,0,1:1:0:0:
92,300,65378,1,0,1:1:0:0:
92,280,65435,1,0,1:1:0:0:
92,260,65493,1,0,1:1:0:0:
92,240,65551,1,0,1:1:0:0:
92,220,65609,1,0,1:1:0:0:
92,200,65666,1,0,1:1:0:0:
92,180,65724,5,0,1:1:0:0:
92,160,65782,1,0,1:1:0:0:
92,140,65839,1,0,1:1:0:0:
92,120,65897,1,0,1:1:0:0:
92,100,65955,1,0,1:1:0:0:
92,80,66012,1,0,1:1:0:0:
92,60,66070,1,0,1:1:0:0:
112,60,66127,1,0,1:1:0:0:
128,60,66185,1,0,1:1:0:0:
148,60,66242,1,0,1:1:0:0:
168,60,66300,1,0,1:1:0:0:
188,60,66358,1,0,1:1:0:0:
208,60,66416,1,0,1:1:0:0:
228,60,66473,1,0,1:1:0:0:
248,60,66531,5,0,1:1:0:0:
268,60,66589,1,0,1:1:0:0:
288,60,66646,1,0,1:1:0:0:
308,60,66704,1,0,1:1:0:0:
328,60,66762,1,0,1:1:0:0:
348,60,66819,1,0,1:1:0:0:
368,60,66877,1,0,1:1:0:0:
400,60,66935,1,0,1:1:0:0:
400,76,66993,1,0,1:1:0:0:
400,96,67050,1,0,1:1:0:0:
400,116,67108,1,0,1:1:0:0:
400,136,67166,1,0,1:1:0:0:
400,156,67224,1,0,1:1:0:0:
400,176,67281,1,0,1:1:0:0:
400,196,67339,5,0,1:1:0:0:
400,216,67397,1,0,1:1:0:0:
400,236,67454,1,0,1:1:0:0:
400,256,67512,1,0,1:1:0:0:
400,276,67570,1,0,1:1:0:0:
400,296,67627,1,0,1:1:0:0:
400,316,67685,1,0,1:1:0:0:
372,316,67742,1,0,1:1:0:0:
356,316,67800,1,0,1:1:0:0:
336,316,67857,1,0,1:1:0:0:
316,316,67915,1,0,1:1:0:0:
296,316,67973,1,0,1:1:0:0:
276,316,68031,1,0,1:1:0:0:
256,316,68088,1,0,1:1:0:0:
236,316,68146,5,0,1:1:0:0:
216,316,68204,1,0,1:1:0:0:
196,316,68261,1,0,1:1:0:0:
176,316,68319,1,0,1:1:0:0:
156,316,68377,1,0,1:1:0:0:
136,316,68434,1,0,1:1:0:0:
116,316,68492,1,0,1:1:0:0:
92,316,68550,1,0,1:1:0:0:
92,300,68608,1,0,1:1:0:0:
92,280,68665,1,0,1:1:0:0:
92,260,68723,1,0,1:1:0:0:
92,240,68781,1,0,1:1:0:0:
92,220,68839,1,0,1:1:0:0:
92,200,68896,1,0,1:1:0:0:
92,180,68954,5,0,1:1:0:0:
92,160,69012,1,0,1:1:0:0:
92,140,69069,1,0,1:1:0:0:
92,120,69127,1,0,1:1:0:0:
92,100,69185,1,0,1:1:0:0:
92,80,69242,1,0,1:1:0:0:
92,60,69300,1,0,1:1:0:0:
112,60,69358,1,0,1:1:0:0:
128,60,69416,1,0,1:1:0:0:
148,60,69473,1,0,1:1:0:0:
168,60,69531,1,0,1:1:0:0:
188,60,69589,1,0,1:1:0:0:
208,60,69647,1,0,1:1:0:0:
228,60,69704,1,0,1:1:0:0:
248,60,69762,5,0,1:1:0:0:
268,60,69820,1,0,1:1:0:0:
288,60,69877,1,0,1:1:0:0:
308,60,69935,1,0,1:1:0:0:
328,60,69993,1,0,1:1:0:0:
348,60,70050,1,0,1:1:0:0:
368,60,70108,1,0,1:1:0:0:
400,60,70166,1,0,1:1:0:0:
400,76,70224,1,0,1:1:0:0:
400,96,70281,1,0,1:1:0:0:
400,116,70339,1,0,1:1:0:0:
400,136,70397,1,0,1:1:0:0:
400,156,70455,1,0,1:1:0:0:
400,176,70512,1,0,1:1:0:0:
400,196,70570,5,0,1:1:0:0:
400,216,70628,1,0,1:1:0:0:
400,236,70685,1,0,1:1:0:0:
400,256,70743,1,0,1:1:0:0:
400,276,70801,1,0,1:1:0:0:
400,296,70858,1,0,1:1:0:0:
400,316,70916,1,0,1:1:0:0:
372,316,70973,1,0,1:1:0:0:
356,316,71031,1,0,1:1:0:0:
336,316,71088,1,0,1:1:0:0:
316,316,71146,1,0,1:1:0:0:
296,316,71204,1,0,1:1:0:0:
276,316,71262,1,0,1:1:0:0:
256,316,71319,1,0,1:1:0:0:
236,316,71377,5,0,1:1:0:0:
216,316,71435,1,0,1:1:0:0:
196,316,71492,1,0,1:1:0:0:
176,316,71550,1,0,1:1:0:0:
156,316,71608,1,0,1:1:0:0:
136,316,71665,1,0,1:1:0:0:
116,316,71723,1,0,1:1:0:0:
92,316,71781,1,0,1:1:0:0:
92,300,71839,1,0,1:1:0:0:
92,280,71896,1,0,1:1:0:0:
92,260,71954,1,0,1:1:0:0:
92,240,72012,1,0,1:1:0:0:
92,220,72070,1,0,1:1:0:0:
92,200,72127,1,0,1:1:0:0:
92,180,72185,5,0,1:1:0:0:
92,160,72243,1,0,1:1:0:0:
92,140,72300,1,0,1:1:0:0:
92,120,72358,1,0,1:1:0:0:
92,100,72416,1,0,1:1:0:0:
92,80,72473,1,0,1:1:0:0:
92,60,72531,1,0,1:1:0:0:
112,60,72589,1,0,1:1:0:0:
128,60,72647,1,0,1:1:0:0:
148,60,72704,1,0,1:1:0:0:
168,60,72762,1,0,1:1:0:0:
188,60,72820,1,0,1:1:0:0:
208,60,72878,1,0,1:1:0:0:
228,60,72935,1,0,1:1:0:0:
248,60,72993,5,0,1:1:0:0:
268,60,73051,1,0,1:1:0:0:
288,60,73108,1,0,1:1:0:0:
308,60,73166,1,0,1:1:0:0:
328,60,73224,1,0,1:1:0:0:
348,60,73281,1,0,1:1:0:0:
368,60,73339,1,0,1:1:0:0:
400,60,73397,1,0,1:1:0:0:
400,76,73455,1,0,1:1:0:0:
400,96,73512,1,0,1:1:0:0:
400,116,73570,1,0,1:1:0:0:
400,136,73628,1,0,1:1:0:0:
400,156,73686,1,0,1:1:0:0:
400,176,73743,1,0,1:1:0:0:
400,196,73801,5,0,1:1:0:0:
400,216,73859,1,0,1:1:0:0:
400,236,73916,1,0,1:1:0:0:
400,256,73974,1,0,1:1:0:0:
400,276,74032,1,0,1:1:0:0:
400,296,74089,1,0,1:1:0:0:
400,316,74147,1,0,1:1:0:0:
372,316,74204,1,0,1:1:0:0:
356,316,74262,1,0,1:1:0:0:
336,316,74319,1,0,1:1:0:0:
316,316,74377,1,0,1:1:0:0:
296,316,74435,1,0,1:1:0:0:
276,316,74493,1,0,1:1:0:0:
256,316,74550,1,0,1:1:0:0:
236,316,74608,5,0,1:1:0:0:
216,316,74666,1,0,1:1:0:0:
196,316,74723,1,0,1:1:0:0:
176,316,74781,1,0,1:1:0:0:
156,316,74839,1,0,1:1:0:0:
136,316,74896,1,0,1:1:0:0:
116,316,74954,1,0,1:1:0:0:
92,316,75012,1,0,1:1:0:0:
92,300,75070,1,0,1:1:0:0:
92,280,75127,1,0,1:1:0:0:
92,260,75185,1,0,1:1:0:0:
92,240,75243,1,0,1:1:0:0:
92,220,75301,1,0,1:1:0:0:
92,200,75358,1,0,1:1:0:0:
92,180,75416,5,0,1:1:0:0:
92,160,75474,1,0,1:1:0:0:
92,140,75531,1,0,1:1:0:0:
92,120,75589,1,0,1:1:0:0:
92,100,75647,1,0,1:1:0:0:
92,80,75704,1,0,1:1:0:0:
92,60,75762,1,0,1:1:0:0:
112,60,75820,1,0,1:1:0:0:
128,60,75878,1,0,1:1:0:0:
148,60,75935,1,0,1:1:0:0:
168,60,75993,1,0,1:1:0:0:
188,60,76051,1,0,1:1:0:0:
208,60,76109,1,0,1:1:0:0:
228,60,76166,1,0,1:1:0:0:
248,60,76224,5,0,1:1:0:0:
268,60,76282,1,0,1:1:0:0:
288,60,76339,1,0,1:1:0:0:
308,60,76397,1,0,1:1:0:0:
328,60,76455,1,0,1:1:0:0:
348,60,76512,1,0,1:1:0:0:
368,60,76570,1,0,1:1:0:0:
400,60,76628,1,0,1:1:0:0:
400,76,76686,1,0,1:1:0:0:
400,96,76743,1,0,1:1:0:0:
400,116,76801,1,0,1:1:0:0:
400,136,76859,1,0,1:1:0:0:
400,156,76917,1,0,1:1:0:0:
400,176,76974,1,0,1:1:0:0:
400,196,77032,5,0,1:1:0:0:
400,216,77090,1,0,1:1:0:0:
400,236,77147,1,0,1:1:0:0:
400,256,77205,1,0,1:1:0:0:
400,276,77263,1,0,1:1:0:0:
400,296,77320,1,0,1:1:0:0:
400,316,77378,1,0,1:1:0:0:
372,316,77435,1,0,1:1:0:0:
356,316,77493,1,0,1:1:0:0:
336,316,77550,1,0,1:1:0:0:
316,316,77608,1,0,1:1:0:0:
296,316,77666,1,0,1:1:0:0:
276,316,77724,1,0,1:1:0:0:
256,316,77781,1,0,1:1:0:0:
236,316,77839,5,0,1:1:0:0:
216,316,77897,1,0,1:1:0:0:
196,316,77954,1,0,1:1:0:0:
176,316,78012,1,0,1:1:0:0:
156,316,78070,1,0,1:1:0:0:
136,316,78127,1,0,1:1:0:0:
116,316,78185,1,0,1:1:0:0:
92,316,78243,1,0,1:1:0:0:
92,300,78301,1,0,1:1:0:0:
92,280,78358,1,0,1:1:0:0:
92,260,78416,1,0,1:1:0:0:
92,240,78474,1,0,1:1:0:0:
92,220,78532,1,0,1:1:0:0:
92,200,78589,1,0,1:1:0:0:
92,180,78647,5,0,1:1:0:0:
92,160,78705,1,0,1:1:0:0:
92,140,78762,1,0,1:1:0:0:
92,120,78820,1,0,1:1:0:0:
92,100,78878,1,0,1:1:0:0:
92,80,78935,1,0,1:1:0:0:
92,60,78993,1,0,1:1:0:0:
112,60,79050,1,0,1:1:0:0:
128,60,79108,1,0,1:1:0:0:
148,60,79165,1,0,1:1:0:0:
168,60,79223,1,0,1:1:0:0:
188,60,79281,1,0,1:1:0:0:
208,60,79339,1,0,1:1:0:0:
228,60,79396,1,0,1:1:0:0:
248,60,79454,5,0,1:1:0:0:
268,60,79512,1,0,1:1:0:0:
288,60,79569,1,0,1:1:0:0:
308,60,79627,1,0,1:1:0:0:
328,60,79685,1,0,1:1:0:0:
348,60,79742,1,0,1:1:0:0:
368,60,79800,1,0,1:1:0:0:
400,60,79858,1,0,1:1:0:0:
400,76,79916,1,0,1:1:0:0:
400,96,79973,1,0,1:1:0:0:
400,116,80031,1,0,1:1:0:0:
400,136,80089,1,0,1:1:0:0:
400,156,80147,1,0,1:1:0:0:
400,176,80204,1,0,1:1:0:0:
400,196,80262,5,0,1:1:0:0:
400,216,80320,1,0,1:1:0:0:
400,236,80377,1,0,1:1:0:0:
400,256,80435,1,0,1:1:0:0:
400,276,80493,1,0,1:1:0:0:
400,296,80550,1,0,1:1:0:0:
400,316,80608,1,0,1:1:0:0:
372,316,80665,1,0,1:1:0:0:
356,316,80723,1,0,1:1:0:0:
336,316,80780,1,0,1:1:0:0:
316,316,80838,1,0,1:1:0:0:
296,316,80896,1,0,1:1:0:0:
276,316,80954,1,0,1:1:0:0:
256,316,81011,1,0,1:1:0:0:
236,316,81069,5,0,1:1:0:0:
216,316,81127,1,0,1:1:0:0:
196,316,81184,1,0,1:1:0:0:
176,316,81242,1,0,1:1:0:0:
156,316,81300,1,0,1:1:0:0:
136,316,81357,1,0,1:1:0:0:
116,316,81415,1,0,1:1:0:0:
92,316,81473,1,0,1:1:0:0:
92,300,81531,1,0,1:1:0:0:
92,280,81588,1,0,1:1:0:0:
92,260,81646,1,0,1:1:0:0:
92,240,81704,1,0,1:1:0:0:
92,220,81762,1,0,1:1:0:0:
92,200,81819,1,0,1:1:0:0:
92,180,81877,5,0,1:1:0:0:
92,160,81935,1,0,1:1:0:0:
92,140,81992,1,0,1:1:0:0:
92,120,82050,1,0,1:1:0:0:
92,100,82108,1,0,1:1:0:0:
92,80,82165,1,0,1:1:0:0:
92,60,82223,1,0,1:1:0:0:
112,60,82282,1,0,1:1:0:0:
128,60,82340,1,0,1:1:0:0:
148,60,82397,1,0,1:1:0:0:
168,60,82455,1,0,1:1:0:0:
188,60,82513,1,0,1:1:0:0:
208,60,82571,1,0,1:1:0:0:
228,60,82628,1,0,1:1:0:0:
248,60,82686,5,0,1:1:0:0:
268,60,82744,1,0,1:1:0:0:
288,60,82801,1,0,1:1:0:0:
308,60,82859,1,0,1:1:0:0:
328,60,82917,1,0,1:1:0:0:
348,60,82974,1,0,1:1:0:0:
368,60,83032,1,0,1:1:0:0:
400,60,83090,1,0,1:1:0:0:
400,76,83148,1,0,1:1:0:0:
400,96,83205,1,0,1:1:0:0:
400,116,83263,1,0,1:1:0:0:
400,136,83321,1,0,1:1:0:0:
400,156,83379,1,0,1:1:0:0:
400,176,83436,1,0,1:1:0:0:
400,196,83494,5,0,1:1:0:0:
400,216,83552,1,0,1:1:0:0:
400,236,83609,1,0,1:1:0:0:
400,256,83667,1,0,1:1:0:0:
400,276,83725,1,0,1:1:0:0:
400,296,83782,1,0,1:1:0:0:
400,316,83840,1,0,1:1:0:0:
372,316,83897,1,0,1:1:0:0:
356,316,83955,1,0,1:1:0:0:
336,316,84012,1,0,1:1:0:0:
316,316,84070,1,0,1:1:0:0:
296,316,84128,1,0,1:1:0:0:
276,316,84186,1,0,1:1:0:0:
256,316,84243,1,0,1:1:0:0:
236,316,84301,5,0,1:1:0:0:
216,316,84359,1,0,1:1:0:0:
196,316,84416,1,0,1:1:0:0:
176,316,84474,1,0,1:1:0:0:
156,316,84532,1,0,1:1:0:0:
136,316,84589,1,0,1:1:0:0:
116,316,84647,1,0,1:1:0:0:
92,316,84705,1,0,1:1:0:0:
92,300,84763,1,0,1:1:0:0:
92,280,84820,1,0,1:1:0:0:
92,260,84878,1,0,1:1:0:0:
92,240,84936,1,0,1:1:0:0:
92,220,84994,1,0,1:1:0:0:
92,200,85051,1,0,1:1:0:0:
92,180,85109,5,0,1:1:0:0:
92,160,85167,1,0,1:1:0:0:
92,140,85224,1,0,1:1:0:0:
92,120,85282,1,0,1:1:0:0:
92,100,85340,1,0,1:1:0:0:
92,80,85397,1,0,1:1:0:0:
92,60,85455,1,0,1:1:0:0:
112,60,85512,1,0,1:1:0:0:
128,60,85570,1,0,1:1:0:0:
148,60,85627,1,0,1:1:0:0:
168,60,85685,1,0,1:1:0:0:
188,60,85743,1,0,1:1:0:0:
208,60,85801,1,0,1:1:0:0:
228,60,85858,1,0,1:1:0:0:
248,60,85916,5,0,1:1:0:0:
268,60,85974,1,0,1:1:0:0:
288,60,86031,1,0,1:1:0:0:
308,60,86089,1,0,1:1:0:0:
328,60,86147,1,0,1:1:0:0:
348,60,86204,1,0,1:1:0:0:
368,60,86262,1,0,1:1:0:0:
400,60,86320,1,0,1:1:0:0:
400,76,86378,1,0,1:1:0:0:
400,96,86435,1,0,1:1:0:0:
400,116,86493,1,0,1:1:0:0:
400,136,86551,1,0,1:1:0:0:
400,156,86609,1,0,1:1:0:0:
400,176,86666,1,0,1:1:0:0:
400,196,86724,5,0,1:1:0:0:
400,216,86782,1,0,1:1:0:0:
400,236,86839,1,0,1:1:0:0:
400,256,86897,1,0,1:1:0:0:
400,276,86955,1,0,1:1:0:0:
400,296,87012,1,0,1:1:0:0:
400,316,87070,1,0,1:1:0:0:
372,316,87127,1,0,1:1:0:0:
356,316,87185,1,0,1:1:0:0:
336,316,87242,1,0,1:1:0:0:
316,316,87300,1,0,1:1:0:0:
296,316,87358,1,0,1:1:0:0:
276,316,87416,1,0,1:1:0:0:
256,316,87473,1,0,1:1:0:0:
236,316,87531,5,0,1:1:0:0:
216,316,87589,1,0,1:1:0:0:
196,316,87646,1,0,1:1:0:0:
176,316,87704,1,0,1:1:0:0:
156,316,87762,1,0,1:1:0:0:
136,316,87819,1,0,1:1:0:0:
116,316,87877,1,0,1:1:0:0:
92,316,87935,1,0,1:1:0:0:
92,300,87993,1,0,1:1:0:0:
92,280,88050,1,0,1:1:0:0:
92,260,88108,1,0,1:1:0:0:
92,240,88166,1,0,1:1:0:0:
92,220,88224,1,0,1:1:0:0:
92,200,88281,1,0,1:1:0:0:
92,180,88339,5,0,1:1:0:0:
92,160,88397,1,0,1:1:0:0:
92,140,88454,1,0,1:1:0:0:
92,120,88512,1,0,1:1:0:0:
92,100,88570,1,0,1:1:0:0:
92,80,88627,1,0,1:1:0:0:
92,60,88685,1,0,1:1:0:0:
112,60,88743,1,0,1:1:0:0:
128,60,88801,1,0,1:1:0:0:
148,60,88858,1,0,1:1:0:0:
168,60,88916,1,0,1:1:0:0:
188,60,88974,1,0,1:1:0:0:
208,60,89032,1,0,1:1:0:0:
228,60,89089,1,0,1:1:0:0:
248,60,89147,5,0,1:1:0:0:
268,60,89205,1,0,1:1:0:0:
288,60,89262,1,0,1:1:0:0:
308,60,89320,1,0,1:1:0:0:
328,60,89378,1,0,1:1:0:0:
348,60,89435,1,0,1:1:0:0:
368,60,89493,1,0,1:1:0:0:
400,60,89551,1,0,1:1:0:0:
400,76,89609,1,0,1:1:0:0:
400,96,89666,1,0,1:1:0:0:
400,116,89724,1,0,1:1:0:0:
400,136,89782,1,0,1:1:0:0:
400,156,89840,1,0,1:1:0:0:
400,176,89897,1,0,1:1:0:0:
400,196,89955,5,0,1:1:0:0:
400,216,90013,1,0,1:1:0:0:
400,236,90070,1,0,1:1:0:0:
400,256,90128,1,0,1:1:0:0:
400,276,90186,1,0,1:1:0:0:
400,296,90243,1,0,1:1:0:0:
400,316,90301,1,0,1:1:0:0:
372,316,90358,1,0,1:1:0:0:
356,316,90416,1,0,1:1:0:0:
336,316,90473,1,0,1:1:0:0:
316,316,90531,1,0,1:1:0:0:
296,316,90589,1,0,1:1:0:0:
276,316,90647,1,0,1:1:0:0:
256,316,90704,1,0,1:1:0:0:
236,316,90762,5,0,1:1:0:0:
216,316,90820,1,0,1:1:0:0:
196,316,90877,1,0,1:1:0:0:
176,316,90935,1,0,1:1:0:0:
156,316,90993,1,0,1:1:0:0:
136,316,91050,1,0,1:1:0:0:
116,316,91108,1,0,1:1:0:0:
92,316,91166,1,0,1:1:0:0:
92,300,91224,1,0,1:1:0:0:
92,280,91281,1,0,1:1:0:0:
92,260,91339,1,0,1:1:0:0:
92,240,91397,1,0,1:1:0:0:
92,220,91455,1,0,1:1:0:0:
92,200,91512,1,0,1:1:0:0:
92,180,91570,5,0,1:1:0:0:
92,160,91628,1,0,1:1:0:0:
92,140,91685,1,0,1:1:0:0:
92,120,91743,1,0,1:1:0:0:
92,100,91801,1,0,1:1:0:0:
92,80,91858,1,0,1:1:0:0:
92,60,91916,1,0,1:1:0:0:
112,60,91974,1,0,1:1:0:0:
128,60,92032,1,0,1:1:0:0:
148,60,92089,1,0,1:1:0:0:
168,60,92147,1,0,1:1:0:0:
188,60,92205,1,0,1:1:0:0:
208,60,92263,1,0,1:1:0:0:
228,60,92320,1,0,1:1:0:0:
248,60,92378,5,0,1:1:0:0:
268,60,92436,1,0,1:1:0:0:
288,60,92493,1,0,1:1:0:0:
308,60,92551,1,0,1:1:0:0:
328,60,92609,1,0,1:1:0:0:
348,60,92666,1,0,1:1:0:0:
368,60,92724,1,0,1:1:0:0:
400,60,92782,1,0,1:1:0:0:
400,76,92840,1,0,1:1:0:0:
400,96,92897,1,0,1:1:0:0:
400,116,92955,1,0,1:1:0:0:
400,136,93013,1,0,1:1:0:0:
400,156,93071,1,0,1:1:0:0:
400,176,93128,1,0,1:1:0:0:
400,196,93186,5,0,1:1:0:0:
400,216,93244,1,0,1:1:0:0:
400,236,93301,1,0,1:1:0:0:
400,256,93359,1,0,1:1:0:0:
400,276,93417,1,0,1:1:0:0:
400,296,93474,1,0,1:1:0:0:
400,316,93532,1,0,1:1:0:0:
372,316,93589,1,0,1:1:0:0:
356,316,93647,1,0,1:1:0:0:
336,316,93704,1,0,1:1:0:0:
316,316,93762,1,0,1:1:0:0:
296,316,93820,1,0,1:1:0:0:
276,316,93878,1,0,1:1:0:0:
256,316,93935,1,0,1:1:0:0:
236,316,93993,5,0,1:1:0:0:
216,316,94051,1,0,1:1:0:0:
196,316,94108,1,0,1:1:0:0:
176,316,94166,1,0,1:1:0:0:
156,316,94224,1,0,1:1:0:0:
136,316,94281,1,0,1:1:0:0:
116,316,94339,1,0,1:1:0:0:
92,316,94397,1,0,1:1:0:0:
92,300,94455,1,0,1:1:0:0:
92,280,94512,1,0,1:1:0:0:
92,260,94570,1,0,1:1:0:0:
92,240,94628,1,0,1:1:0:0:
92,220,94686,1,0,1:1:0:0:
92,200,94743,1,0,1:1:0:0:
92,180,94801,5,0,1:1:0:0:
92,160,94859,1,0,1:1:0:0:
92,140,94916,1,0,1:1:0:0:
92,120,94974,1,0,1:1:0:0:
92,100,95032,1,0,1:1:0:0:
92,80,95089,1,0,1:1:0:0:
92,60,95147,1,0,1:1:0:0:
112,60,95204,1,0,1:1:0:0:
128,60,95262,1,0,1:1:0:0:
148,60,95319,1,0,1:1:0:0:
168,60,95377,1,0,1:1:0:0:
188,60,95435,1,0,1:1:0:0:
208,60,95493,1,0,1:1:0:0:
228,60,95550,1,0,1:1:0:0:
248,60,95608,5,0,1:1:0:0:
268,60,95666,1,0,1:1:0:0:
288,60,95723,1,0,1:1:0:0:
308,60,95781,1,0,1:1:0:0:
328,60,95839,1,0,1:1:0:0:
348,60,95896,1,0,1:1:0:0:
368,60,95954,1,0,1:1:0:0:
400,60,96012,1,0,1:1:0:0:
400,76,96070,1,0,1:1:0:0:
400,96,96127,1,0,1:1:0:0:
400,116,96185,1,0,1:1:0:0:
400,136,96243,1,0,1:1:0:0:
400,156,96301,1,0,1:1:0:0:
400,176,96358,1,0,1:1:0:0:
400,196,96416,5,0,1:1:0:0:
400,216,96474,1,0,1:1:0:0:
400,236,96531,1,0,1:1:0:0:
400,256,96589,1,0,1:1:0:0:
400,276,96647,1,0,1:1:0:0:
400,296,96704,1,0,1:1:0:0:
400,316,96762,1,0,1:1:0:0:
372,316,96819,1,0,1:1:0:0:
356,316,96877,1,0,1:1:0:0:
336,316,96934,1,0,1:1:0:0:
316,316,96992,1,0,1:1:0:0:
296,316,97050,1,0,1:1:0:0:
276,316,97108,1,0,1:1:0:0:
256,316,97165,1,0,1:1:0:0:
236,316,97223,5,0,1:1:0:0:
216,316,97281,1,0,1:1:0:0:
196,316,97338,1,0,1:1:0:0:
176,316,97396,1,0,1:1:0:0:
156,316,97454,1,0,1:1:0:0:
136,316,97511,1,0,1:1:0:0:
116,316,97569,1,0,1:1:0:0:
92,316,97627,1,0,1:1:0:0:
92,300,97685,1,0,1:1:0:0:
92,280,97742,1,0,1:1:0:0:
92,260,97800,1,0,1:1:0:0:
92,240,97858,1,0,1:1:0:0:
92,220,97916,1,0,1:1:0:0:
92,200,97973,1,0,1:1:0:0:
92,180,98031,5,0,1:1:0:0:
92,160,98089,1,0,1:1:0:0:
92,140,98146,1,0,1:1:0:0:
92,120,98204,1,0,1:1:0:0:
92,100,98262,1,0,1:1:0:0:
92,80,98319,1,0,1:1:0:0:
92,60,98377,1,0,1:1:0:0:
112,60,98434,1,0,1:1:0:0:
128,60,98492,1,0,1:1:0:0:
148,60,98549,1,0,1:1:0:0:
168,60,98607,1,0,1:1:0:0:
188,60,98665,1,0,1:1:0:0:
208,60,98723,1,0,1:1:0:0:
228,60,98780,1,0,1:1:0:0:
248,60,98838,5,0,1:1:0:0:
268,60,98896,1,0,1:1:0:0:
288,60,98953,1,0,1:1:0:0:
308,60,99011,1,0,1:1:0:0:
328,60,99069,1,0,1:1:0:0:
348,60,99126,1,0,1:1:0:0:
368,60,99184,1,0,1:1:0:0:
400,60,99242,1,0,1:1:0:0:
400,76,99300,1,0,1:1:0:0:
400,96,99357,1,0,1:1:0:0:
400,116,99415,1,0,1:1:0:0:
400,136,99473,1,0,1:1:0:0:
400,156,99531,1,0,1:1:0:0:
400,176,99588,1,0,1:1:0:0:
400,196,99646,5,0,1:1:0:0:
400,216,99704,1,0,1:1:0:0:
400,236,99761,1,0,1:1:0:0:
400,256,99819,1,0,1:1:0:0:
400,276,99877,1,0,1:1:0:0:
400,296,99934,1,0,1:1:0:0:
400,316,99992,1,0,1:1:0:0:
372,316,100049,1,0,1:1:0:0:
356,316,100107,1,0,1:1:0:0:
336,316,100164,1,0,1:1:0:0:
316,316,100222,1,0,1:1:0:0:
296,316,100280,1,0,1:1:0:0:
276,316,100338,1,0,1:1:0:0:
256,316,100395,1,0,1:1:0:0:
236,316,100453,5,0,1:1:0:0:
216,316,100511,1,0,1:1:0:0:
196,316,100568,1,0,1:1:0:0:
176,316,100626,1,0,1:1:0:0:
156,316,100684,1,0,1:1:0:0:
136,316,100741,1,0,1:1:0:0:
116,316,100799,1,0,1:1:0:0:
92,316,100857,1,0,1:1:0:0:
92,300,100915,1,0,1:1:0:0:
92,280,100972,1,0,1:1:0:0:
92,260,101030,1,0,1:1:0:0:
92,240,101088,1,0,1:1:0:0:
92,220,101146,1,0,1:1:0:0:
92,200,101203,1,0,1:1:0:0:
92,180,101261,5,0,1:1:0:0:
92,160,101319,1,0,1:1:0:0:
92,140,101376,1,0,1:1:0:0:
92,120,101434,1,0,1:1:0:0:
92,100,101492,1,0,1:1:0:0:
92,80,101549,1,0,1:1:0:0:
92,60,101607,1,0,1:1:0:0:
112,60,101666,1,0,1:1:0:0:
128,60,101724,1,0,1:1:0:0:
148,60,101781,1,0,1:1:0:0:
168,60,101839,1,0,1:1:0:0:
188,60,101897,1,0,1:1:0:0:
208,60,101955,1,0,1:1:0:0:
228,60,102012,1,0,1:1:0:0:
248,60,102070,5,0,1:1:0:0:
268,60,102128,1,0,1:1:0:0:
288,60,102185,1,0,1:1:0:0:
308,60,102243,1,0,1:1:0:0:
328,60,102301,1,0,1:1:0:0:
348,60,102358,1,0,1:1:0:0:
368,60,102416,1,0,1:1:0:0:
400,60,102474,1,0,1:1:0:0:
400,76,102532,1,0,1:1:0:0:
400,96,102589,1,0,1:1:0:0:
400,116,102647,1,0,1:1:0:0:
400,136,102705,1,0,1:1:0:0:
400,156,102763,1,0,1:1:0:0:
400,176,102820,1,0,1:1:0:0:
400,196,102878,5,0,1:1:0:0:
400,216,102936,1,0,1:1:0:0:
400,236,102993,1,0,1:1:0:0:
400,256,103051,1,0,1:1:0:0:
400,276,103109,1,0,1:1:0:0:
400,296,103166,1,0,1:1:0:0:
400,316,103224,1,0,1:1:0:0:
372,316,103281,1,0,1:1:0:0:
356,316,103339,1,0,1:1:0:0:
336,316,103396,1,0,1:1:0:0:
316,316,103454,1,0,1:1:0:0:
296,316,103512,1,0,1:1:0:0:
276,316,103570,1,0,1:1:0:0:
256,316,103627,1,0,1:1:0:0:
236,316,103685,5,0,1:1:0:0:
216,316,103743,1,0,1:1:0:0:
196,316,103800,1,0,1:1:0:0:
176,316,103858,1,0,1:1:0:0:
156,316,103916,1,0,1:1:0:0:
136,316,103973,1,0,1:1:0:0:
116,316,104031,1,0,1:1:0:0:
92,316,104089,1,0,1:1:0:0:
92,300,104147,1,0,1:1:0:0:
92,280,104204,1,0,1:1:0:0:
92,260,104262,1,0,1:1:0:0:
92,240,104320,1,0,1:1:0:0:
92,220,104378,1,0,1:1:0:0:
92,200,104435,1,0,1:1:0:0:
92,180,104493,5,0,1:1:0:0:
92,160,104551,1,0,1:1:0:0:
92,140,104608,1,0,1:1:0:0:
92,120,104666,1,0,1:1:0:0:
92,100,104724,1,0,1:1:0:0:
92,80,104781,1,0,1:1:0:0:
92,60,104839,1,0,1:1:0:0:
112,60,104896,1,0,1:1:0:0:
128,60,104954,1,0,1:1:0:0:
148,60,105011,1,0,1:1:0:0:
168,60,105069,1,0,1:1:0:0:
188,60,105127,1,0,1:1:0:0:
208,60,105185,1,0,1:1:0:0:
228,60,105242,1,0,1:1:0:0:
248,60,105300,5,0,1:1:0:0:
268,60,105358,1,0,1:1:0:0:
288,60,105415,1,0,1:1:0:0:
308,60,105473,1,0,1:1:0:0:
328,60,105531,1,0,1:1:0:0:
348,60,105588,1,0,1:1:0:0:
368,60,105646,1,0,1:1:0:0:
400,60,105704,1,0,1:1:0:0:
400,76,105762,1,0,1:1:0:0:
400,96,105819,1,0,1:1:0:0:
400,116,105877,1,0,1:1:0:0:
400,136,105935,1,0,1:1:0:0:
400,156,105993,1,0,1:1:0:0:
400,176,106050,1,0,1:1:0:0:
400,196,106108,5,0,1:1:0:0:
400,216,106166,1,0,1:1:0:0:
400,236,106223,1,0,1:1:0:0:
400,256,106281,1,0,1:1:0:0:
400,276,106339,1,0,1:1:0:0:
400,296,106396,1,0,1:1:0:0:
400,316,106454,1,0,1:1:0:0:
372,316,106511,1,0,1:1:0:0:
356,316,106569,1,0,1:1:0:0:
336,316,106626,1,0,1:1:0:0:
316,316,106684,1,0,1:1:0:0:
296,316,106742,1,0,1:1:0:0:
276,316,106800,1,0,1:1:0:0:
256,316,106857,1,0,1:1:0:0:
236,316,106915,5,0,1:1:0:0:
216,316,106973,1,0,1:1:0:0:
196,316,107030,1,0,1:1:0:0:
176,316,107088,1,0,1:1:0:0:
156,316,107146,1,0,1:1:0:0:
136,316,107203,1,0,1:1:0:0:
116,316,107261,1,0,1:1:0:0:
92,316,107319,1,0,1:1:0:0:
92,300,107377,1,0,1:1:0:0:
92,280,107434,1,0,1:1:0:0:
92,260,107492,1,0,1:1:0:0:
92,240,107550,1,0,1:1:0:0:
92,220,107608,1,0,1:1:0:0:
92,200,107665,1,0,1:1:0:0:
92,180,107723,5,0,1:1:0:0:
92,160,107781,1,0,1:1:0:0:
92,140,107838,1,0,1:1:0:0:
92,120,107896,1,0,1:1:0:0:
92,100,107954,1,0,1:1:0:0:
92,80,108011,1,0,1:1:0:0:
92,60,108069,1,0,1:1:0:0:
112,60,108127,1,0,1:1:0:0:
128,60,108185,1,0,1:1:0:0:
148,60,108242,1,0,1:1:0:0:
168,60,108300,1,0,1:1:0:0:
188,60,108358,1,0,1:1:0:0:
208,60,108416,1,0,1:1:0:0:
228,60,108473,1,0,1:1:0:0:
248,60,108531,5,0,1:1:0:0:
268,60,108589,1,0,1:1:0:0:
288,60,108646,1,0,1:1:0:0:
308,60,108704,1,0,1:1:0:0:
328,60,108762,1,0,1:1:0:0:
348,60,108819,1,0,1:1:0:0:
368,60,108877,1,0,1:1:0:0:
400,60,108935,1,0,1:1:0:0:
400,76,108993,1,0,1:1:0:0:
400,96,109050,1,0,1:1:0:0:
400,116,109108,1,0,1:1:0:0:
400,136,109166,1,0,1:1:0:0:
400,156,109224,1,0,1:1:0:0:
400,176,109281,1,0,1:1:0:0:
400,196,109339,5,0,1:1:0:0:
400,216,109397,1,0,1:1:0:0:
400,236,109454,1,0,1:1:0:0:
400,256,109512,1,0,1:1:0:0:
400,276,109570,1,0,1:1:0:0:
400,296,109627,1,0,1:1:0:0:
400,316,109685,1,0,1:1:0:0:
372,316,109742,1,0,1:1:0:0:
356,316,109800,1,0,1:1:0:0:
336,316,109857,1,0,1:1:0:0:
316,316,109915,1,0,1:1:0:0:
296,316,109973,1,0,1:1:0:0:
276,316,110031,1,0,1:1:0:0:
256,316,110088,1,0,1:1:0:0:
236,316,110146,5,0,1:1:0:0:
216,316,110204,1,0,1:1:0:0:
196,316,110261,1,0,1:1:0:0:
176,316,110319,1,0,1:1:0:0:
156,316,110377,1,0,1:1:0:0:
136,316,110434,1,0,1:1:0:0:
116,316,110492,1,0,1:1:0:0:
92,316,110550,1,0,1:1:0:0:
92,300,110608,1,0,1:1:0:0:
92,280,110665,1,0,1:1:0:0:
92,260,110723,1,0,1:1:0:0:
92,240,110781,1,0,1:1:0:0:
92,220,110839,1,0,1:1:0:0:
92,200,110896,1,0,1:1:0:0:
92,180,110954,5,0,1:1:0:0:
92,160,111012,1,0,1:1:0:0:
92,140,111069,1,0,1:1:0:0:
92,120,111127,1,0,1:1:0:0:
92,100,111185,1,0,1:1:0:0:
92,80,111242,1,0,1:1:0:0:
92,60,111300,1,0,1:1:0:0:
112,60,111358,1,0,1:1:0:0:
128,60,111416,1,0,1:1:0:0:
148,60,111473,1,0,1:1:0:0:
168,60,111531,1,0,1:1:0:0:
188,60,111589,1,0,1:1:0:0:
208,60,111647,1,0,1:1:0:0:
228,60,111704,1,0,1:1:0:0:
248,60,111762,5,0,1:1:0:0:
268,60,111820,1,0,1:1:0:0:
288,60,111877,1,0,1:1:0:0:
308,60,111935,1,0,1:1:0:0:
328,60,111993,1,0,1:1:0:0:
348,60,112050,1,0,1:1:0:0:
368,60,112108,1,0,1:1:0:0:
400,60,112166,1,0,1:1:0:0:
400,76,112224,1,0,1:1:0:0:
400,96,112281,1,0,1:1:0:0:
400,116,112339,1,0,1:1:0:0:
400,136,112397,1,0,1:1:0:0:
400,156,112455,1,0,1:1:0:0:
400,176,112512,1,0,1:1:0:0:
400,196,112570,5,0,1:1:0:0:
400,216,112628,1,0,1:1:0:0:
400,236,112685,1,0,1:1:0:0:
400,256,112743,1,0,1:1:0:0:
400,276,112801,1,0,1:1:0:0:
400,296,112858,1,0,1:1:0:0:
400,316,112916,1,0,1:1:0:0:
372,316,112973,1,0,1:1:0:0:
356,316,113031,1,0,1:1:0:0:
336,316,113088,1,0,1:1:0:0:
316,316,113146,1,0,1:1:0:0:
296,316,113204,1,0,1:1:0:0:
276,316,113262,1,0,1:1:0:0:
256,316,113319,1,0,1:1:0:0:
236,316,113377,5,0,1:1:0:0:
216,316,113435,1,0,1:1:0:0:
196,316,113492,1,0,1:1:0:0:
176,316,113550,1,0,1:1:0:0:
156,316,113608,1,0,1:1:0:0:
136,316,113665,1,0,1:1:0:0:
116,316,113723,1,0,1:1:0:0:
92,316,113781,1,0,1:1:0:0:
92,300,113839,1,0,1:1:0:0:
92,280,113896,1,0,1:1:0:0:
92,260,113954,1,0,1:1:0:0:
92,240,114012,1,0,1:1:0:0:
92,220,114070,1,0,1:1:0:0:
92,200,114127,1,0,1:1:0:0:
92,180,114185,5,0,1:1:0:0:
92,160,114243,1,0,1:1:0:0:
92,140,114300,1,0,1:1:0:0:
92,120,114358,1,0,1:1:0:0:
92,100,114416,1,0,1:1:0:0:
92,80,114473,1,0,1:1:0:0:
92,60,114531,1,0,1:1:0:0:
112,60,114589,1,0,1:1:0:0:
128,60,114647,1,0,1:1:0:0:
148,60,114704,1,0,1:1:0:0:
168,60,114762,1,0,1:1:0:0:
188,60,114820,1,0,1:1:0:0:
208,60,114878,1,0,1:1:0:0:
228,60,114935,1,0,1:1:0:0:
248,60,114993,5,0,1:1:0:0:
268,60,115051,1,0,1:1:0:0:
288,60,115108,1,0,1:1:0:0:
308,60,115166,1,0,1:1:0:0:
328,60,115224,1,0,1:1:0:0:
348,60,115281,1,0,1:1:0:0:
368,60,115339,1,0,1:1:0:0:
400,60,115397,1,0,1:1:0:0:
400,76,115455,1,0,1:1:0:0:
400,96,115512,1,0,1:1:0:0:
400,116,115570,1,0,1:1:0:0:
400,136,115628,1,0,1:1:0:0:
400,156,115686,1,0,1:1:0:0:
400,176,115743,1,0,1:1:0:0:
400,196,115801,5,0,1:1:0:0:
400,216,115859,1,0,1:1:0:0:
400,236,115916,1,0,1:1:0:0:
400,256,115974,1,0,1:1:0:0:
400,276,116032,1,0,1:1:0:0:
400,296,116089,1,0,1:1:0:0:
400,316,116147,1,0,1:1:0:0:
372,316,116204,1,0,1:1:0:0:
356,316,116262,1,0,1:1:0:0:
336,316,116319,1,0,1:1:0:0:
316,316,116377,1,0,1:1:0:0:
296,316,116435,1,0,1:1:0:0:
276,316,116493,1,0,1:1:0:0:
256,316,116550,1,0,1:1:0:0:
236,316,116608,5,0,1:1:0:0:
216,316,116666,1,0,1:1:0:0:
196,316,116723,1,0,1:1:0:0:
176,316,116781,1,0,1:1:0:0:
156,316,116839,1,0,1:1:0:0:
136,316,116896,1,0,1:1:0:0:
116,316,116954,1,0,1:1:0:0:
92,316,117012,1,0,1:1:0:0:
92,300,117070,1,0,1:1:0:0:
92,280,117127,1,0,1:1:0:0:
92,260,117185,1,0,1:1:0:0:
92,240,117243,1,0,1:1:0:0:
92,220,117301,1,0,1:1:0:0:
92,200,117358,1,0,1:1:0:0:
92,180,117416,5,0,1:1:0:0:
92,160,117474,1,0,1:1:0:0:
92,140,117531,1,0,1:1:0:0:
92,120,117589,1,0,1:1:0:0:
92,100,117647,1,0,1:1:0:0:
92,80,117704,1,0,1:1:0:0:
92,60,117762,1,0,1:1:0:0:
112,60,117819,1,0,1:1:0:0:
128,60,117877,1,0,1:1:0:0:
148,60,117934,1,0,1:1:0:0:
168,60,117992,1,0,1:1:0:0:
188,60,118050,1,0,1:1:0:0:
208,60,118108,1,0,1:1:0:0:
228,60,118165,1,0,1:1:0:0:
248,60,118223,5,0,1:1:0:0:
268,60,118281,1,0,1:1:0:0:
288,60,118338,1,0,1:1:0:0:
308,60,118396,1,0,1:1:0:0:
328,60,118454,1,0,1:1:0:0:
348,60,118511,1,0,1:1:0:0:
368,60,118569,1,0,1:1:0:0:
400,60,118627,1,0,1:1:0:0:
400,76,118685,1,0,1:1:0:0:
400,96,118742,1,0,1:1:0:0:
400,116,118800,1,0,1:1:0:0:
400,136,118858,1,0,1:1:0:0:
400,156,118916,1,0,1:1:0:0:
400,176,118973,1,0,1:1:0:0:
400,196,119031,5,0,1:1:0:0:
400,216,119089,1,0,1:1:0:0:
400,236,119146,1,0,1:1:0:0:
400,256,119204,1,0,1:1:0:0:
400,276,119262,1,0,1:1:0:0:
400,296,119319,1,0,1:1:0:0:
400,316,119377,1,0,1:1:0:0:
372,316,119434,1,0,1:1:0:0:
356,316,119492,1,0,1:1:0:0:
336,316,119549,1,0,1:1:0:0:
316,316,119607,1,0,1:1:0:0:
296,316,119665,1,0,1:1:0:0:
276,316,119723,1,0,1:1:0:0:
256,316,119780,1,0,1:1:0:0:
236,316,119838,5,0,1:1:0:0:
216,316,119896,1,0,1:1:0:0:
196,316,119953,1,0,1:1:0:0:
176,316,120011,1,0,1:1:0:0:
156,316,120069,1,0,1:1:0:0:
136,316,120126,1,0,1:1:0:0:
116,316,120184,1,0,1:1:0:0:
92,316,120242,1,0,1:1:0:0:
92,300,120300,1,0,1:1:0:0:
92,280,120357,1,0,1:1:0:0:
92,260,120415,1,0,1:1:0:0:
92,240,120473,1,0,1:1:0:0:
92,220,120531,1,0,1:1:0:0:
92,200,120588,1,0,1:1:0:0:
92,180,120646,5,0,1:1:0:0:
92,160,120704,1,0,1:1:0:0:
92,140,120761,1,0,1:1:0:0:
92,120,120819,1,0,1:1:0:0:
92,100,120877,1,0,1:1:0:0:
92,80,120934,1,0,1:1:0:0:
92,60,120992,1,0,1:1:0:0:
112,60,121051,1,0,1:1:0:0:
128,60,121109,1,0,1:1:0:0:
148,60,121166,1,0,1:1:0:0:
168,60,121224,1,0,1:1:0:0:
188,60,121282,1,0,1:1:0:0:
208,60,121340,1,0,1:1:0:0:
228,60,121397,1,0,1:1:0:0:
248,60,121455,5,0,1:1:0:0:
268,60,121513,1,0,1:1:0:0:
288,60,121570,1,0,1:1:0:0:
308,60,121628,1,0,1:1:0:0:
328,60,121686,1,0,1:1:0:0:
348,60,121743,1,0,1:1:0:0:
368,60,121801,1,0,1:1:0:0:
400,60,121859,1,0,1:1:0:0:
400,76,121917,1,0,1:1:0:0:
400,96,121974,1,0,1:1:0:0:
400,116,122032,1,0,1:1:0:0:
400,136,122090,1,0,1:1:0:0:
400,156,122148,1,0,1:1:0:0:
400,176,122205,1,0,1:1:0:0:
400,196,122263,5,0,1:1:0:0:
400,216,122321,1,0,1:1:0:0:
400,236,122378,1,0,1:1:0:0:
400,256,122436,1,0,1:1:0:0:
400,276,122494,1,0,1:1:0:0:
400,296,122551,1,0,1:1:0:0:
400,316,122609,1,0,1:1:0:0:
372,316,122666,1,0,1:1:0:0:
356,316,122724,1,0,1:1:0:0:
336,316,122781,1,0,1:1:0:0:
316,316,122839,1,0,1:1:0:0:
296,316,122897,1,0,1:1:0:0:
276,316,122955,1,0,1:1:0:0:
256,316,123012,1,0,1:1:0:0:
236,316,123070,5,0,1:1:0:0:
216,316,123128,1,0,1:1:0:0:
196,316,123185,1,0,1:1:0:0:
176,316,123243,1,0,1:1:0:0:
156,316,123301,1,0,1:1:0:0:
136,316,123358,1,0,1:1:0:0:
116,316,123416,1,0,1:1:0:0:
92,316,123474,1,0,1:1:0:0:
92,300,123532,1,0,1:1:0:0:
92,280,123589,1,0,1:1:0:0:
92,260,123647,1,0,1:1:0:0:
92,240,123705,1,0,1:1:0:0:
92,220,123763,1,0,1:1:0:0:
92,200,123820,1,0,1:1:0:0:
92,180,123878,5,0,1:1:0:0:
92,160,123936,1,0,1:1:0:0:
92,140,123993,1,0,1:1:0:0:
92,120,124051,1,0,1:1:0:0:
92,100,124109,1,0,1:1:0:0:
92,80,124166,1,0,1:1:0:0:
92,60,124224,1,0,1:1:0:0:
112,60,124281,1,0,1:1:0:0:
128,60,124339,1,0,1:1:0:0:
148,60,124396,1,0,1:1:0:0:
168,60,124454,1,0,1:1:0:0:
188,60,124512,1,0,1:1:0:0:
208,60,124570,1,0,1:1:0:0:
228,60,124627,1,0,1:1:0:0:
248,60,124685,5,0,1:1:0:0:
268,60,124743,1,0,1:1:0:0:
288,60,124800,1,0,1:1:0:0:
308,60,124858,1,0,1:1:0:0:
328,60,124916,1,0,1:1:0:0:
348,60,124973,1,0,1:1:0:0:
368,60,125031,1,0,1:1:0:0:
400,60,125089,1,0,1:1:0:0:
400,76,125147,1,0,1:1:0:0:
400,96,125204,1,0,1:1:0:0:
400,116,125262,1,0,1:1:0:0:
400,136,125320,1,0,1:1:0:0:
400,156,125378,1,0,1:1:0:0:
400,176,125435,1,0,1:1:0:0:
400,196,125493,5,0,1:1:0:0:
400,216,125551,1,0,1:1:0:0:
400,236,125608,1,0,1:1:0:0:
400,256,125666,1,0,1:1:0:0:
400,276,125724,1,0,1:1:0:0:
400,296,125781,1,0,1:1:0:0:
400,316,125839,1,0,1:1:0:0:
372,316,125896,1,0,1:1:0:0:
356,316,125954,1,0,1:1:0:0:
336,316,126011,1,0,1:1:0:0:
316,316,126069,1,0,1:1:0:0:
296,316,126127,1,0,1:1:0:0:
276,316,126185,1,0,1:1:0:0:
256,316,126242,1,0,1:1:0:0:
236,316,126300,5,0,1:1:0:0:
216,316,126358,1,0,1:1:0:0:
196,316,126415,1,0,1:1:0:0:
176,316,126473,1,0,1:1:0:0:
156,316,126531,1,0,1:1:0:0:
136,316,126588,1,0,1:1:0:0:
116,316,126646,1,0,1:1:0:0:
92,316,126704,1,0,1:1:0:0:
92,300,126762,1,0,1:1:0:0:
92,280,126819,1,0,1:1:0:0:
92,260,126877,1,0,1:1:0:0:
92,240,126935,1,0,1:1:0:0:
92,220,126993,1,0,1:1:0:0:
92,200,127050,1,0,1:1:0:0:
92,180,127108,5,0,1:1:0:0:
92,160,127166,1,0,1:1:0:0:
92,140,127223,1,0,1:1:0:0:
92,120,127281,1,0,1:1:0:0:
92,100,127339,1,0,1:1:0:0:
92,80,127396,1,0,1:1:0:0:
92,60,127454,1,0,1:1:0:0:
112,60,127512,1,0,1:1:0:0:
128,60,127570,1,0,1:1:0:0:
148,60,127627,1,0,1:1:0:0:
168,60,127685,1,0,1:1:0:0:
188,60,127743,1,0,1:1:0:0:
208,60,127801,1,0,1:1:0:0:
228,60,127858,1,0,1:1:0:0:
248,60,127916,5,0,1:1:0:0:
268,60,127974,1,0,1:1:0:0:
288,60,128031,1,0,1:1:0:0:
308,60,128089,1,0,1:1:0:0:
328,60,128147,1,0,1:1:0:0:
348,60,128204,1,0,1:1:0:0:
368,60,128262,1,0,1:1:0:0:
400,60,128320,1,0,1:1:0:0:
400,76,128378,1,0,1:1:0:0:
400,96,128435,1,0,1:1:0:0:
400,116,128493,1,0,1:1:0:0:
400,136,128551,1,0,1:1:0:0:
400,156,128609,1,0,1:1:0:0:
400,176,128666,1,0,1:1:0:0:
400,196,128724,5,0,1:1:0:0:
400,216,128782,1,0,1:1:0:0:
400,236,128839,1,0,1:1:0:0:
400,256,128897,1,0,1:1:0:0:
400,276,128955,1,0,1:1:0:0:
400,296,129012,1,0,1:1:0:0:
400,316,129070,1,0,1:1:0:0:
372,316,129127,1,0,1:1:0:0:
356,316,129185,1,0,1:1:0:0:
336,316,129242,1,0,1:1:0:0:
316,316,129300,1,0,1:1:0:0:
296,316,129358,1,0,1:1:0:0:
276,316,129416,1,0,1:1:0:0:
256,316,129473,1,0,1:1:0:0:
236,316,129531,5,0,1:1:0:0:
216,316,129589,1,0,1:1:0:0:
196,316,129646,1,0,1:1:0:0:
176,316,129704,1,0,1:1:0:0:
156,316,129762,1,0,1:1:0:0:
136,316,129819,1,0,1:1:0:0:
116,316,129877,1,0,1:1:0:0:
92,316,129935,1,0,1:1:0:0:
92,300,129993,1,0,1:1:0:0:
92,280,130050,1,0,1:1:0:0:
92,260,130108,1,0,1:1:0:0:
92,240,130166,1,0,1:1:0:0:
92,220,130224,1,0,1:1:0:0:
92,200,130281,1,0,1:1:0:0:
92,180,130339,5,0,1:1:0:0:
92,160,130397,1,0,1:1:0:0:
92,140,130454,1,0,1:1:0:0:
92,120,130512,1,0,1:1:0:0:
92,100,130570,1,0,1:1:0:0:
92,80,130627,1,0,1:1:0:0:
92,60,130685,1,0,1:1:0:0:
112,60,130743,1,0,1:1:0:0:
128,60,130801,1,0,1:1:0:0:
148,60,130858,1,0,1:1:0:0:
168,60,130916,1,0,1:1:0:0:
188,60,130974,1,0,1:1:0:0:
208,60,131032,1,0,1:1:0:0:
228,60,131089,1,0,1:1:0:0:
248,60,131147,5,0,1:1:0:0:
268,60,131205,1,0,1:1:0:0:
288,60,131262,1,0,1:1:0:0:
308,60,131320,1,0,1:1:0:0:
328,60,131378,1,0,1:1:0:0:
348,60,131435,1,0,1:1:0:0:
368,60,131493,1,0,1:1:0:0:
400,60,131551,1,0,1:1:0:0:
400,76,131609,1,0,1:1:0:0:
400,96,131666,1,0,1:1:0:0:
400,116,131724,1,0,1:1:0:0:
400,136,131782,1,0,1:1:0:0:
400,156,131840,1,0,1:1:0:0:
400,176,131897,1,0,1:1:0:0:
400,196,131955,5,0,1:1:0:0:
400,216,132013,1,0,1:1:0:0:
400,236,132070,1,0,1:1:0:0:
400,256,132128,1,0,1:1:0:0:
400,276,132186,1,0,1:1:0:0:
400,296,132243,1,0,1:1:0:0:
400,316,132301,1,0,1:1:0:0:
372,316,132358,1,0,1:1:0:0:
356,316,132416,1,0,1:1:0:0:
336,316,132473,1,0,1:1:0:0:
316,316,132531,1,0,1:1:0:0:
296,316,132589,1,0,1:1:0:0:
276,316,132647,1,0,1:1:0:0:
256,316,132704,1,0,1:1:0:0:
236,316,132762,5,0,1:1:0:0:
216,316,132820,1,0,1:1:0:0:
196,316,132877,1,0,1:1:0:0:
176,316,132935,1,0,1:1:0:0:
156,316,132993,1,0,1:1:0:0:
136,316,133050,1,0,1:1:0:0:
116,316,133108,1,0,1:1:0:0:
92,316,133166,1,0,1:1:0:0:
92,300,133224,1,0,1:1:0:0:
92,280,133281,1,0,1:1:0:0:
92,260,133339,1,0,1:1:0:0:
92,240,133397,1,0,1:1:0:0:
92,220,133455,1,0,1:1:0:0:
92,200,133512,1,0,1:1:0:0:
92,180,133570,5,0,1:1:0:0:
92,160,133628,1,0,1:1:0:0:
92,140,133685,1,0,1:1:0:0:
92,120,133743,1,0,1:1:0:0:
92,100,133801,1,0,1:1:0:0:
92,80,133858,1,0,1:1:0:0:
92,60,133916,1,0,1:1:0:0:
112,60,133974,1,0,1:1:0:0:
128,60,134032,1,0,1:1:0:0:
148,60,134089,1,0,1:1:0:0:
168,60,134147,1,0,1:1:0:0:
188,60,134205,1,0,1:1:0:0:
208,60,134263,1,0,1:1:0:0:
228,60,134320,1,0,1:1:0:0:
248,60,134378,5,0,1:1:0:0:
268,60,134436,1,0,1:1:0:0:
288,60,134493,1,0,1:1:0:0:
308,60,134551,1,0,1:1:0:0:
328,60,134609,1,0,1:1:0:0:
348,60,134666,1,0,1:1:0:0:
368,60,134724,1,0,1:1:0:0:
400,60,134782,1,0,1:1:0:0:
400,76,134840,1,0,1:1:0:0:
400,96,134897,1,0,1:1:0:0:
400,116,134955,1,0,1:1:0:0:
400,136,135013,1,0,1:1:0:0:
400,156,135071,1,0,1:1:0:0:
400,176,135128,1,0,1:1:0:0:
400,196,135186,5,0,1:1:0:0:
400,216,135244,1,0,1:1:0:0:
400,236,135301,1,0,1:1:0:0:
400,256,135359,1,0,1:1:0:0:
400,276,135417,1,0,1:1:0:0:
400,296,135474,1,0,1:1:0:0:
400,316,135532,1,0,1:1:0:0:
372,316,135589,1,0,1:1:0:0:
356,316,135647,1,0,1:1:0:0:
336,316,135704,1,0,1:1:0:0:
316,316,135762,1,0,1:1:0:0:
296,316,135820,1,0,1:1:0:0:
276,316,135878,1,0,1:1:0:0:
256,316,135935,1,0,1:1:0:0:
236,316,135993,5,0,1:1:0:0:
216,316,136051,1,0,1:1:0:0:
196,316,136108,1,0,1:1:0:0:
176,316,136166,1,0,1:1:0:0:
156,316,136224,1,0,1:1:0:0:
136,316,136281,1,0,1:1:0:0:
116,316,136339,1,0,1:1:0:0:
92,316,136397,1,0,1:1:0:0:
92,300,136455,1,0,1:1:0:0:
92,280,136512,1,0,1:1:0:0:
92,260,136570,1,0,1:1:0:0:
92,240,136628,1,0,1:1:0:0:
92,220,136686,1,0,1:1:0:0:
92,200,136743,1,0,1:1:0:0:
92,180,136801,5,0,1:1:0:0:
92,160,136859,1,0,1:1:0:0:
92,140,136916,1,0,1:1:0:0:
92,120,136974,1,0,1:1:0:0:
92,100,137032,1,0,1:1:0:0:
92,80,137089,1,0,1:1:0:0:
92,60,137147,1,0,1:1:0:0:
112,60,137204,1,0,1:1:0:0:
128,60,137262,1,0,1:1:0:0:
148,60,137319,1,0,1:1:0:0:
168,60,137377,1,0,1:1:0:0:
188,60,137435,1,0,1:1:0:0:
208,60,137493,1,0,1:1:0:0:
228,60,137550,1,0,1:1:0:0:
248,60,137608,5,0,1:1:0:0:
268,60,137666,1,0,1:1:0:0:
288,60,137723,1,0,1:1:0:0:
308,60,137781,1,0,1:1:0:0:
328,60,137839,1,0,1:1:0:0:
348,60,137896,1,0,1:1:0:0:
368,60,137954,1,0,1:1:0:0:
400,60,138012,1,0,1:1:0:0:
400,76,138070,1,0,1:1:0:0:
400,96,138127,1,0,1:1:0:0:
400,116,138185,1,0,1:1:0:0:
400,136,138243,1,0,1:1:0:0:
400,156,138301,1,0,1:1:0:0:
400,176,138358,1,0,1:1:0:0:
400,196,138416,5,0,1:1:0:0:
400,216,138474,1,0,1:1:0:0:
400,236,138531,1,0,1:1:0:0:
400,256,138589,1,0,1:1:0:0:
400,276,138647,1,0,1:1:0:0:
400,296,138704,1,0,1:1:0:0:
400,316,138762,1,0,1:1:0:0:
372,316,138819,1,0,1:1:0:0:
356,316,138877,1,0,1:1:0:0:
336,316,138934,1,0,1:1:0:0:
316,316,138992,1,0,1:1:0:0:
296,316,139050,1,0,1:1:0:0:
276,316,139108,1,0,1:1:0:0:
256,316,139165,1,0,1:1:0:0:
236,316,139223,5,0,1:1:0:0:
216,316,139281,1,0,1:1:0:0:
196,316,139338,1,0,1:1:0:0:
176,316,139396,1,0,1:1:0:0:
156,316,139454,1,0,1:1:0:0:
136,316,139511,1,0,1:1:0:0:
116,316,139569,1,0,1:1:0:0:
92,316,139627,1,0,1:1:0:0:
92,300,139685,1,0,1:1:0:0:
92,280,139742,1,0,1:1:0:0:
92,260,139800,1,0,1:1:0:0:
92,240,139858,1,0,1:1:0:0:
92,220,139916,1,0,1:1:0:0:
92,200,139973,1,0,1:1:0:0:
92,180,140031,5,0,1:1:0:0:
92,160,140089,1,0,1:1:0:0:
92,140,140146,1,0,1:1:0:0:
92,120,140204,1,0,1:1:0:0:
92,100,140262,1,0,1:1:0:0:
92,80,140319,1,0,1:1:0:0:
92,60,140377,1,0,1:1:0:0:
112,60,140436,1,0,1:1:0:0:
128,60,140494,1,0,1:1:0:0:
148,60,140551,1,0,1:1:0:0:
168,60,140609,1,0,1:1:0:0:
188,60,140667,1,0,1:1:0:0:
208,60,140725,1,0,1:1:0:0:
228,60,140782,1,0,1:1:0:0:
248,60,140840,5,0,1:1:0:0:
268,60,140898,1,0,1:1:0:0:
288,60,140955,1,0,1:1:0:0:
308,60,141013,1,0,1:1:0:0:
328,60,141071,1,0,1:1:0:0:
348,60,141128,1,0,1:1:0:0:
368,60,141186,1,0,1:1:0:0:
400,60,141244,1,0,1:1:0:0:
400,76,141302,1,0,1:1:0:0:
400,96,141359,1,0,1:1:0:0:
400,116,141417,1,0,1:1:0:0:
400,136,141475,1,0,1:1:0:0:
400,156,141533,1,0,1:1:0:0:
400,176,141590,1,0,1:1:0:0:
400,196,141648,5,0,1:1:0:0:
400,216,141706,1,0,1:1:0:0:
400,236,141763,1,0,1:1:0:0:
400,256,141821,1,0,1:1:0:0:
400,276,141879,1,0,1:1:0:0:
400,296,141936,1,0,1:1:0:0:
400,316,141994,1,0,1:1:0:0:
372,316,142051,1,0,1:1:0:0:
356,316,142109,1,0,1:1:0:0:
336,316,142166,1,0,1:1:0:0:
316,316,142224,1,0,1:1:0:0:
296,316,142282,1,0,1:1:0:0:
276,316,142340,1,0,1:1:0:0:
256,316,142397,1,0,1:1:0:0:
236,316,142455,5,0,1:1:0:0:
216,316,142513,1,0,1:1:0:0:
196,316,142570,1,0,1:1:0:0:
176,316,142628,1,0,1:1:0:0:
156,316,142686,1,0,1:1:0:0:
136,316,142743,1,0,1:1:0:0:
116,316,142801,1,0,1:1:0:0:
92,316,142859,1,0,1:1:0:0:
92,300,142917,1,0,1:1:0:0:
92,280,142974,1,0,1:1:0:0:
92,260,143032,1,0,1:1:0:0:
92,240,143090,1,0,1:1:0:0:
92,220,143148,1,0,1:1:0:0:
92,200,143205,1,0,1:1:0:0:
92,180,143263,5,0,1:1:0:0:
92,160,143321,1,0,1:1:0:0:
92,140,143378,1,0,1:1:0:0:
92,120,143436,1,0,1:1:0:0:
92,100,143494,1,0,1:1:0:0:
92,80,143551,1,0,1:1:0:0:
92,60,143609,1,0,1:1:0:0:
112,60,143666,1,0,1:1:0:0:
128,60,143724,1,0,1:1:0:0:
148,60,143781,1,0,1:1:0:0:
168,60,143839,1,0,1:1:0:0:
188,60,143897,1,0,1:1:0:0:
208,60,143955,1,0,1:1:0:0:
228,60,144012,1,0,1:1:0:0:
248,60,144070,5,0,1:1:0:0:
268,60,144128,1,0,1:1:0:0:
288,60,144185,1,0,1:1:0:0:
308,60,144243,1,0,1:1:0:0:
328,60,144301,1,0,1:1:0:0:
348,60,144358,1,0,1:1:0:0:
368,60,144416,1,0,1:1:0:0:
400,60,144474,1,0,1:1:0:0:
400,76,144532,1,0,1:1:0:0:
400,96,144589,1,0,1:1:0:0:
400,116,144647,1,0,1:1:0:0:
400,136,144705,1,0,1:1:0:0:
400,156,144763,1,0,1:1:0:0:
400,176,144820,1,0,1:1:0:0:
400,196,144878,5,0,1:1:0:0:
400,216,144936,1,0,1:1:0:0:
400,236,144993,1,0,1:1:0:0:
400,256,145051,1,0,1:1:0:0:
400,276,145109,1,0,1:1:0:0:
400,296,145166,1,0,1:1:0:0:
400,316,145224,1,0,1:1:0:0:
372,316,145281,1,0,1:1:0:0:
356,316,145339,1,0,1:1:0:0:
336,316,145396,1,0,1:1:0:0:
316,316,145454,1,0,1:1:0:0:
296,316,145512,1,0,1:1:0:0:
276,316,145570,1,0,1:1:0:0:
256,316,145627,1,0,1:1:0:0:
236,316,145685,5,0,1:1:0:0:
216,316,145743,1,0,1:1:0:0:
196,316,145800,1,0,1:1:0:0:
176,316,145858,1,0,1:1:0:0:
156,316,145916,1,0,1:1:0:0:
136,316,145973,1,0,1:1:0:0:
116,316,146031,1,0,1:1:0:0:
92,316,146089,1,0,1:1:0:0:
92,300,146147,1,0,1:1:0:0:
92,280,146204,1,0,1:1:0:0:
92,260,146262,1,0,1:1:0:0:
92,240,146320,1,0,1:1:0:0:
92,220,146378,1,0,1:1:0:0:
92,200,146435,1,0,1:1:0:0:
92,180,146493,5,0,1:1:0:0:
92,160,146551,1,0,1:1:0:0:
92,140,146608,1,0,1:1:0:0:
92,120,146666,1,0,1:1:0:0:
92,100,146724,1,0,1:1:0:0:
92,80,146781,1,0,1:1:0:0:
92,60,146839,1,0,1:1:0:0:
112,60,146897,1,0,1:1:0:0:
128,60,146955,1,0,1:1:0:0:
148,60,147012,1,0,1:1:0:0:
168,60,147070,1,0,1:1:0:0:
188,60,147128,1,0,1:1:0:0:
208,60,147186,1,0,1:1:0:0:
228,60,147243,1,0,1:1:0:0:
248,60,147301,5,0,1:1:0:0:
268,60,147359,1,0,1:1:0:0:
288,60,147416,1,0,1:1:0:0:
308,60,147474,1,0,1:1:0:0:
328,60,147532,1,0,1:1:0:0:
348,60,147589,1,0,1:1:0:0:
368,60,147647,1,0,1:1:0:0:
400,60,147705,1,0,1:1:0:0:
400,76,147763,1,0,1:1:0:0:
400,96,147820,1,0,1:1:0:0:
400,116,147878,1,0,1:1:0:0:
400,136,147936,1,0,1:1:0:0:
400,156,147994,1,0,1:1:0:0:
400,176,148051,1,0,1:1:0:0:
400,196,148109,5,0,1:1:0:0:
400,216,148167,1,0,1:1:0:0:
400,236,148224,1,0,1:1:0:0:
400,256,148282,1,0,1:1:0:0:
400,276,148340,1,0,1:1:0:0:
400,296,148397,1,0,1:1:0:0:
400,316,148455,1,0,1:1:0:0:
372,316,148512,1,0,1:1:0:0:
356,316,148570,1,0,1:1:0:0:
336,316,148627,1,0,1:1:0:0:
316,316,148685,1,0,1:1:0:0:
296,316,148743,1,0,1:1:0:0:
276,316,148801,1,0,1:1:0:0:
256,316,148858,1,0,1:1:0:0:
236,316,148916,5,0,1:1:0:0:
216,316,148974,1,0,1:1:0:0:
196,316,149031,1,0,1:1:0:0:
176,316,149089,1,0,1:1:0:0:
156,316,149147,1,0,1:1:0:0:
136,316,149204,1,0,1:1:0:0:
116,316,149262,1,0,1:1:0:0:
92,316,149320,1,0,1:1:0:0:
92,300,149378,1,0,1:1:0:0:
92,280,149435,1,0,1:1:0:0:
92,260,149493,1,0,1:1:0:0:
92,240,149551,1,0,1:1:0:0:
92,220,149609,1,0,1:1:0:0:
92,200,149666,1,0,1:1:0:0:
92,180,149724,5,0,1:1:0:0:
92,160,149782,1,0,1:1:0:0:
92,140,149839,1,0,1:1:0:0:
92,120,149897,1,0,1:1:0:0:
92,100,149955,1,0,1:1:0:0:
92,80,150012,1,0,1:1:0:0:
92,60,150070,1,0,1:1:0:0:
112,60,150128,1,0,1:1:0:0:
128,60,150186,1,0,1:1:0:0:
148,60,150243,1,0,1:1:0:0:
168,60,150301,1,0,1:1:0:0:
188,60,150359,1,0,1:1:0:0:
208,60,150417,1,0,1:1:0:0:
228,60,150474,1,0,1:1:0:0:
248,60,150532,5,0,1:1:0:0:
268,60,150590,1,0,1:1:0:0:
288,60,150647,1,0,1:1:0:0:
308,60,150705,1,0,1:1:0:0:
328,60,150763,1,0,1:1:0:0:
348,60,150820,1,0,1:1:0:0:
368,60,150878,1,0,1:1:0:0:
400,60,150936,1,0,1:1:0:0:
400,76,150994,1,0,1:1:0:0:
400,96,151051,1,0,1:1:0:0:
400,116,151109,1,0,1:1:0:0:
400,136,151167,1,0,1:1:0:0:
400,156,151225,1,0,1:1:0:0:
400,176,151282,1,0,1:1:0:0:
400,196,151340,5,0,1:1:0:0:
400,216,151398,1,0,1:1:0:0:
400,236,151455,1,0,1:1:0:0:
400,256,151513,1,0,1:1:0:0:
400,276,151571,1,0,1:1:0:0:
400,296,151628,1,0,1:1:0:0:
400,316,151686,1,0,1:1:0:0:
372,316,151743,1,0,1:1:0:0:
356,316,151801,1,0,1:1:0:0:
336,316,151858,1,0,1:1:0:0:
316,316,151916,1,0,1:1:0:0:
296,316,151974,1,0,1:1:0:0:
276,316,152032,1,0,1:1:0:0:
256,316,152089,1,0,1:1:0:0:
236,316,152147,5,0,1:1:0:0:
216,316,152205,1,0,1:1:0:0:
196,316,152262,1,0,1:1:0:0:
176,316,152320,1,0,1:1:0:0:
156,316,152378,1,0,1:1:0:0:
136,316,152435,1,0,1:1:0:0:
116,316,152493,1,0,1:1:0:0:
92,316,152551,1,0,1:1:0:0:
92,300,152609,1,0,1:1:0:0:
92,280,152666,1,0,1:1:0:0:
92,260,152724,1,0,1:1:0:0:
92,240,152782,1,0,1:1:0:0:
92,220,152840,1,0,1:1:0:0:
92,200,152897,1,0,1:1:0:0:
92,180,152955,5,0,1:1:0:0:
92,160,153013,1,0,1:1:0:0:
92,140,153070,1,0,1:1:0:0:
92,120,153128,1,0,1:1:0:0:
92,100,153186,1,0,1:1:0:0:
92,80,153243,1,0,1:1:0:0:
92,60,153301,1,0,1:1:0:0:
112,60,153359,1,0,1:1:0:0:
128,60,153417,1,0,1:1:0:0:
148,60,153474,1,0,1:1:0:0:
168,60,153532,1,0,1:1:0:0:
188,60,153590,1,0,1:1:0:0:
208,60,153648,1,0,1:1:0:0:
228,60,153705,1,0,1:1:0:0:
248,60,153763,5,0,1:1:0:0:
268,60,153821,1,0,1:1:0:0:
288,60,153878,1,0,1:1:0:0:
308,60,153936,1,0,1:1:0:0:
328,60,153994,1,0,1:1:0:0:
348,60,154051,1,0,1:1:0:0:
368,60,154109,1,0,1:1:0:0:
400,60,154167,1,0,1:1:0:0:
400,76,154225,1,0,1:1:0:0:
400,96,154282,1,0,1:1:0:0:
400,116,154340,1,0,1:1:0:0:
400,136,154398,1,0,1:1:0:0:
400,156,154456,1,0,1:1:0:0:
400,176,154513,1,0,1:1:0:0:
400,196,154571,5,0,1:1:0:0:
400,216,154629,1,0,1:1:0:0:
400,236,154686,1,0,1:1:0:0:
400,256,154744,1,0,1:1:0:0:
400,276,154802,1,0,1:1:0:0:
400,296,154859,1,0,1:1:0:0:
400,316,154917,1,0,1:1:0:0:
372,316,154974,1,0,1:1:0:0:
356,316,155032,1,0,1:1:0:0:
336,316,155089,1,0,1:1:0:0:
316,316,155147,1,0,1:1:0:0:
296,316,155205,1,0,1:1:0:0:
276,316,155263,1,0,1:1:0:0:
256,316,155320,1,0,1:1:0:0:
236,316,155378,5,0,1:1:0:0:
216,316,155436,1,0,1:1:0:0:
196,316,155493,1,0,1:1:0:0:
176,316,155551,1,0,1:1:0:0:
156,316,155609,1,0,1:1:0:0:
136,316,155666,1,0,1:1:0:0:
116,316,155724,1,0,1:1:0:0:
92,316,155782,1,0,1:1:0:0:
92,300,155840,1,0,1:1:0:0:
92,280,155897,1,0,1:1:0:0:
92,260,155955,1,0,1:1:0:0:
92,240,156013,1,0,1:1:0:0:
92,220,156071,1,0,1:1:0:0:
92,200,156128,1,0,1:1:0:0:
92,180,156186,5,0,1:1:0:0:
92,160,156244,1,0,1:1:0:0:
92,140,156301,1,0,1:1:0:0:
92,120,156359,1,0,1:1:0:0:
92,100,156417,1,0,1:1:0:0:
92,80,156474,1,0,1:1:0:0:
92,60,156532,1,0,1:1:0:0:
112,60,156589,1,0,1:1:0:0:
128,60,156647,1,0,1:1:0:0:
148,60,156704,1,0,1:1:0:0:
168,60,156762,1,0,1:1:0:0:
188,60,156820,1,0,1:1:0:0:
208,60,156878,1,0,1:1:0:0:
228,60,156935,1,0,1:1:0:0:
248,60,156993,5,0,1:1:0:0:
268,60,157051,1,0,1:1:0:0:
288,60,157108,1,0,1:1:0:0:
308,60,157166,1,0,1:1:0:0:
328,60,157224,1,0,1:1:0:0:
348,60,157281,1,0,1:1:0:0:
368,60,157339,1,0,1:1:0:0:
400,60,157397,1,0,1:1:0:0:
400,76,157455,1,0,1:1:0:0:
400,96,157512,1,0,1:1:0:0:
400,116,157570,1,0,1:1:0:0:
400,136,157628,1,0,1:1:0:0:
400,156,157686,1,0,1:1:0:0:
400,176,157743,1,0,1:1:0:0:
400,196,157801,5,0,1:1:0:0:
400,216,157859,1,0,1:1:0:0:
400,236,157916,1,0,1:1:0:0:
400,256,157974,1,0,1:1:0:0:
400,276,158032,1,0,1:1:0:0:
400,296,158089,1,0,1:1:0:0:
400,316,158147,1,0,1:1:0:0:
372,316,158204,1,0,1:1:0:0:
356,316,158262,1,0,1:1:0:0:
336,316,158319,1,0,1:1:0:0:
316,316,158377,1,0,1:1:0:0:
296,316,158435,1,0,1:1:0:0:
276,316,158493,1,0,1:1:0:0:
256,316,158550,1,0,1:1:0:0:
236,316,158608,5,0,1:1:0:0:
216,316,158666,1,0,1:1:0:0:
196,316,158723,1,0,1:1:0:0:
176,316,158781,1,0,1:1:0:0:
156,316,158839,1,0,1:1:0:0:
136,316,158896,1,0,1:1:0:0:
116,316,158954,1,0,1:1:0:0:
92,316,159012,1,0,1:1:0:0:
92,300,159070,1,0,1:1:0:0:
92,280,159127,1,0,1:1:0:0:
92,260,159185,1,0,1:1:0:0:
92,240,159243,1,0,1:1:0:0:
92,220,159301,1,0,1:1:0:0:
92,200,159358,1,0,1:1:0:0:
92,180,159416,5,0,1:1:0:0:
92,160,159474,1,0,1:1:0:0:
92,140,159531,1,0,1:1:0:0:
92,120,159589,1,0,1:1:0:0:
92,100,159647,1,0,1:1:0:0:
92,80,159704,1,0,1:1:0:0:
92,60,159762,1,0,1:1:0:0:
112,60,159821,1,0,1:1:0:0:
128,60,159879,1,0,1:1:0:0:
148,60,159936,1,0,1:1:0:0:
168,60,159994,1,0,1:1:0:0:
188,60,160052,1,0,1:1:0:0:
208,60,160110,1,0,1:1:0:0:
228,60,160167,1,0,1:1:0:0:
248,60,160225,5,0,1:1:0:0:
268,60,160283,1,0,1:1:0:0:
288,60,160340,1,0,1:1:0:0:
308,60,160398,1,0,1:1:0:0:
328,60,160456,1,0,1:1:0:0:
348,60,160513,1,0,1:1:0:0:
368,60,160571,1,0,1:1:0:0:
400,60,160629,1,0,1:1:0:0:
400,76,160687,1,0,1:1:0:0:
400,96,160744,1,0,1:1:0:0:
400,116,160802,1,0,1:1:0:0:
400,136,160860,1,0,1:1:0:0:
400,156,160918,1,0,1:1:0:0:
400,176,160975,1,0,1:1:0:0:
400,196,161033,5,0,1:1:0:0:
400,216,161091,1,0,1:1:0:0:
400,236,161148,1,0,1:1:0:0:
400,256,161206,1,0,1:1:0:0:
400,276,161264,1,0,1:1:0:0:
400,296,161321,1,0,1:1:0:0:
400,316,161379,1,0,1:1:0:0:
372,316,161436,1,0,1:1:0:0:
356,316,161494,1,0,1:1:0:0:
336,316,161551,1,0,1:1:0:0:
316,316,161609,1,0,1:1:0:0:
296,316,161667,1,0,1:1:0:0:
276,316,161725,1,0,1:1:0:0:
256,316,161782,1,0,1:1:0:0:
236,316,161840,5,0,1:1:0:0:
216,316,161898,1,0,1:1:0:0:
196,316,161955,1,0,1:1:0:0:
176,316,162013,1,0,1:1:0:0:
156,316,162071,1,0,1:1:0:0:
136,316,162128,1,0,1:1:0:0:
116,316,162186,1,0,1:1:0:0:
92,316,162244,1,0,1:1:0:0:
92,300,162302,1,0,1:1:0:0:
92,280,162359,1,0,1:1:0:0:
92,260,162417,1,0,1:1:0:0:
92,240,162475,1,0,1:1:0:0:
92,220,162533,1,0,1:1:0:0:
92,200,162590,1,0,1:1:0:0:
92,180,162648,5,0,1:1:0:0:
92,160,162706,1,0,1:1:0:0:
92,140,162763,1,0,1:1:0:0:
92,120,162821,1,0,1:1:0:0:
92,100,162879,1,0,1:1:0:0:
92,80,162936,1,0,1:1:0:0:
92,60,162994,1,0,1:1:0:0:
112,60,163051,1,0,1:1:0:0:
128,60,163109,1,0,1:1:0:0:
148,60,163166,1,0,1:1:0:0:
168,60,163224,1,0,1:1:0:0:
188,60,163282,1,0,1:1:0:0:
208,60,163340,1,0,1:1:0:0:
228,60,163397,1,0,1:1:0:0:
248,60,163455,5,0,1:1:0:0:
268,60,163513,1,0,1:1:0:0:
288,60,163570,1,0,1:1:0:0:
308,60,163628,1,0,1:1:0:0:
328,60,163686,1,0,1:1:0:0:
348,60,163743,1,0,1:1:0:0:
368,60,163801,1,0,1:1:0:0:
400,60,163859,1,0,1:1:0:0:
400,76,163917,1,0,1:1:0:0:
400,96,163974,1,0,1:1:0:0:
400,116,164032,1,0,1:1:0:0:
400,136,164090,1,0,1:1:0:0:
400,156,164148,1,0,1:1:0:0:
400,176,164205,1,0,1:1:0:0:
400,196,164263,5,0,1:1:0:0:
400,216,164321,1,0,1:1:0:0:
400,236,164378,1,0,1:1:0:0:
400,256,164436,1,0,1:1:0:0:
400,276,164494,1,0,1:1:0:0:
400,296,164551,1,0,1:1:0:0:
400,316,164609,1,0,1:1:0:0:
372,316,164666,1,0,1:1:0:0:
356,316,164724,1,0,1:1:0:0:
336,316,164781,1,0,1:1:0:0:
316,316,164839,1,0,1:1:0:0:
296,316,164897,1,0,1:1:0:0:
276,316,164955,1,0,1:1:0:0:
256,316,165012,1,0,1:1:0:0:
236,316,165070,5,0,1:1:0:0:
216,316,165128,1,0,1:1:0:0:
196,316,165185,1,0,1:1:0:0:
176,316,165243,1,0,1:1:0:0:
156,316,165301,1,0,1:1:0:0:
136,316,165358,1,0,1:1:0:0:
116,316,165416,1,0,1:1:0:0:
92,316,165474,1,0,1:1:0:0:
92,300,165532,1,0,1:1:0:0:
92,280,165589,1,0,1:1:0:0:
92,260,165647,1,0,1:1:0:0:
92,240,165705,1,0,1:1:0:0:
92,220,165763,1,0,1:1:0:0:
92,200,165820,1,0,1:1:0:0:
92,180,165878,5,0,1:1:0:0:
92,160,165936,1,0,1:1:0:0:
92,140,165993,1,0,1:1:0:0:
92,120,166051,1,0,1:1:0:0:
92,100,166109,1,0,1:1:0:0:
92,80,166166,1,0,1:1:0:0:
92,60,166224,1,0,1:1:0:0:
112,60,166282,1,0,1:1:0:0:
128,60,166340,1,0,1:1:0:0:
148,60,166397,1,0,1:1:0:0:
168,60,166455,1,0,1:1:0:0:
188,60,166513,1,0,1:1:0:0:
208,60,166571,1,0,1:1:0:0:
228,60,166628,1,0,1:1:0:0:
248,60,166686,5,0,1:1:0:0:
268,60,166744,1,0,1:1:0:0:
288,60,166801,1,0,1:1:0:0:
308,60,166859,1,0,1:1:0:0:
328,60,166917,1,0,1:1:0:0:
348,60,166974,1,0,1:1:0:0:
368,60,167032,1,0,1:1:0:0:
400,60,167090,1,0,1:1:0:0:
400,76,167148,1,0,1:1:0:0:
400,96,167205,1,0,1:1:0:0:
400,116,167263,1,0,1:1:0:0:
400,136,167321,1,0,1:1:0:0:
400,156,167379,1,0,1:1:0:0:
400,176,167436,1,0,1:1:0:0:
400,196,167494,5,0,1:1:0:0:
400,216,167552,1,0,1:1:0:0:
400,236,167609,1,0,1:1:0:0:
400,256,167667,1,0,1:1:0:0:
400,276,167725,1,0,1:1:0:0:
400,296,167782,1,0,1:1:0:0:
400,316,167840,1,0,1:1:0:0:
372,316,167897,1,0,1:1:0:0:
356,316,167955,1,0,1:1:0:0:
336,316,168012,1,0,1:1:0:0:
316,316,168070,1,0,1:1:0:0:
296,316,168128,1,0,1:1:0:0:
276,316,168186,1,0,1:1:0:0:
256,316,168243,1,0,1:1:0:0:
236,316,168301,5,0,1:1:0:0:
216,316,168359,1,0,1:1:0:0:
196,316,168416,1,0,1:1:0:0:
176,316,168474,1,0,1:1:0:0:
156,316,168532,1,0,1:1:0:0:
136,316,168589,1,0,1:1:0:0:
116,316,168647,1,0,1:1:0:0:
92,316,168705,1,0,1:1:0:0:
92,300,168763,1,0,1:1:0:0:
92,280,168820,1,0,1:1:0:0:
92,260,168878,1,0,1:1:0:0:
92,240,168936,1,0,1:1:0:0:
92,220,168994,1,0,1:1:0:0:
92,200,169051,1,0,1:1:0:0:
92,180,169109,5,0,1:1:0:0:
92,160,169167,1,0,1:1:0:0:
92,140,169224,1,0,1:1:0:0:
92,120,169282,1,0,1:1:0:0:
92,100,169340,1,0,1:1:0:0:
92,80,169397,1,0,1:1:0:0:
92,60,169455,1,0,1:1:0:0:
112,60,169513,1,0,1:1:0:0:
128,60,169571,1,0,1:1:0:0:
148,60,169628,1,0,1:1:0:0:
168,60,169686,1,0,1:1:0:0:
188,60,169744,1,0,1:1:0:0:
208,60,169802,1,0,1:1:0:0:
228,60,169859,1,0,1:1:0:0:
248,60,169917,5,0,1:1:0:0:
268,60,169975,1,0,1:1:0:0:
288,60,170032,1,0,1:1:0:0:
308,60,170090,1,0,1:1:0:0:
328,60,170148,1,0,1:1:0:0:
348,60,170205,1,0,1:1:0:0:
368,60,170263,1,0,1:1:0:0:
400,60,170321,1,0,1:1:0:0:
400,76,170379,1,0,1:1:0:0:
400,96,170436,1,0,1:1:0:0:
400,116,170494,1,0,1:1:0:0:
400,136,170552,1,0,1:1:0:0:
400,156,170610,1,0,1:1:0:0:
400,176,170667,1,0,1:1:0:0:
400,196,170725,5,0,1:1:0:0:
400,216,170783,1,0,1:1:0:0:
400,236,170840,1,0,1:1:0:0:
400,256,170898,1,0,1:1:0:0:
400,276,170956,1,0,1:1:0:0:
400,296,171013,1,0,1:1:0:0:
400,316,171071,1,0,1:1:0:0:
372,316,171128,1,0,1:1:0:0:
356,316,171186,1,0,1:1:0:0:
336,316,171243,1,0,1:1:0:0:
316,316,171301,1,0,1:1:0:0:
296,316,171359,1,0,1:1:0:0:
276,316,171417,1,0,1:1:0:0:
256,316,171474,1,0,1:1:0:0:
236,316,171532,5,0,1:1:0:0:
216,316,171590,1,0,1:1:0:0:
196,316,171647,1,0,1:1:0:0:
176,316,171705,1,0,1:1:0:0:
156,316,171763,1,0,1:1:0:0:
136,316,171820,1,0,1:1:0:0:
116,316,171878,1,0,1:1:0:0:
92,316,171936,1,0,1:1:0:0:
92,300,171994,1,0,1:1:0:0:
92,280,172051,1,0,1:1:0:0:
92,260,172109,1,0,1:1:0:0:
92,240,172167,1,0,1:1:0:0:
92,220,172225,1,0,1:1:0:0:
92,200,172282,1,0,1:1:0:0:
92,180,172340,5,0,1:1:0:0:
92,160,172398,1,0,1:1:0:0:
92,140,172455,1,0,1:1:0:0:
92,120,172513,1,0,1:1:0:0:
92,100,172571,1,0,1:1:0:0:
92,80,172628,1,0,1:1:0:0:
92,60,172686,1,0,1:1:0:0:
112,60,172743,1,0,1:1:0:0:
128,60,172801,1,0,1:1:0:0:
148,60,172858,1,0,1:1:0:0:
168,60,172916,1,0,1:1:0:0:
188,60,172974,1,0,1:1:0:0:
208,60,173032,1,0,1:1:0:0:
228,60,173089,1,0,1:1:0:0:
248,60,173147,5,0,1:1:0:0:
268,60,173205,1,0,1:1:0:0:
288,60,173262,1,0,1:1:0:0:
308,60,173320,1,0,1:1:0:0:
328,60,173378,1,0,1:1:0:0:
348,60,173435,1,0,1:1:0:0:
368,60,173493,1,0,1:1:0:0:
400,60,173551,1,0,1:1:0:0:
400,76,173609,1,0,1:1:0:0:
400,96,173666,1,0,1:1:0:0:
400,116,173724,1,0,1:1:0:0:
400,136,173782,1,0,1:1:0:0:
400,156,173840,1,0,1:1:0:0:
400,176,173897,1,0,1:1:0:0:
400,196,173955,5,0,1:1:0:0:
400,216,174013,1,0,1:1:0:0:
400,236,174070,1,0,1:1:0:0:
400,256,174128,1,0,1:1:0:0:
400,276,174186,1,0,1:1:0:0:
400,296,174243,1,0,1:1:0:0:
400,316,174301,1,0,1:1:0:0:
372,316,174358,1,0,1:1:0:0:
356,316,174416,1,0,1:1:0:0:
336,316,174473,1,0,1:1:0:0:
316,316,174531,1,0,1:1:0:0:
296,316,174589,1,0,1:1:0:0:
276,316,174647,1,0,1:1:0:0:
256,316,174704,1,0,1:1:0:0:
236,316,174762,5,0,1:1:0:0:
216,316,174820,1,0,1:1:0:0:
196,316,174877,1,0,1:1:0:0:
176,316,174935,1,0,1:1:0:0:
156,316,174993,1,0,1:1:0:0:
136,316,175050,1,0,1:1:0:0:
116,316,175108,1,0,1:1:0:0:
92,316,175166,1,0,1:1:0:0:
92,300,175224,1,0,1:1:0:0:
92,280,175281,1,0,1:1:0:0:
92,260,175339,1,0,1:1:0:0:
92,240,175397,1,0,1:1:0:0:
92,220,175455,1,0,1:1:0:0:
92,200,175512,1,0,1:1:0:0:
92,180,175570,5,0,1:1:0:0:
92,160,175628,1,0,1:1:0:0:
92,140,175685,1,0,1:1:0:0:
92,120,175743,1,0,1:1:0:0:
92,100,175801,1,0,1:1:0:0:
92,80,175858,1,0,1:1:0:0:
92,60,175916,1,0,1:1:0:0:
112,60,175973,1,0,1:1:0:0:
128,60,176031,1,0,1:1:0:0:
148,60,176088,1,0,1:1:0:0:
168,60,176146,1,0,1:1:0:0:
188,60,176204,1,0,1:1:0:0:
208,60,176262,1,0,1:1:0:0:
228,60,176319,1,0,1:1:0:0:
248,60,176377,5,0,1:1:0:0:
268,60,176435,1,0,1:1:0:0:
288,60,176492,1,0,1:1:0:0:
308,60,176550,1,0,1:1:0:0:
328,60,176608,1,0,1:1:0:0:
348,60,176665,1,0,1:1:0:0:
368,60,176723,1,0,1:1:0:0:
400,60,176781,1,0,1:1:0:0:
400,76,176839,1,0,1:1:0:0:
400,96,176896,1,0,1:1:0:0:
400,116,176954,1,0,1:1:0:0:
400,136,177012,1,0,1:1:0:0:
400,156,177070,1,0,1:1:0:0:
400,176,177127,1,0,1:1:0:0:
400,196,177185,5,0,1:1:0:0:
400,216,177243,1,0,1:1:0:0:
400,236,177300,1,0,1:1:0:0:
400,256,177358,1,0,1:1:0:0:
400,276,177416,1,0,1:1:0:0:
400,296,177473,1,0,1:1:0:0:
400,316,177531,1,0,1:1:0:0:
372,316,177588,1,0,1:1:0:0:
356,316,177646,1,0,1:1:0:0:
336,316,177703,1,0,1:1:0:0:
316,316,177761,1,0,1:1:0:0:
296,316,177819,1,0,1:1:0:0:
276,316,177877,1,0,1:1:0:0:
256,316,177934,1,0,1:1:0:0:
236,316,177992,5,0,1:1:0:0:
216,316,178050,1,0,1:1:0:0:
196,316,178107,1,0,1:1:0:0:
176,316,178165,1,0,1:1:0:0:
156,316,178223,1,0,1:1:0:0:
136,316,178280,1,0,1:1:0:0:
116,316,178338,1,0,1:1:0:0:
92,316,178396,1,0,1:1:0:0:
92,300,178454,1,0,1:1:0:0:
92,280,178511,1,0,1:1:0:0:
92,260,178569,1,0,1:1:0:0:
92,240,178627,1,0,1:1:0:0:
92,220,178685,1,0,1:1:0:0:
92,200,178742,1,0,1:1:0:0:
92,180,178800,5,0,1:1:0:0:
92,160,178858,1,0,1:1:0:0:
92,140,178915,1,0,1:1:0:0:
92,120,178973,1,0,1:1:0:0:
92,100,179031,1,0,1:1:0:0:
92,80,179088,1,0,1:1:0:0:
92,60,179146,1,0,1:1:0:0:
112,60,179205,1,0,1:1:0:0:
128,60,179263,1,0,1:1:0:0:
148,60,179320,1,0,1:1:0:0:
168,60,179378,1,0,1:1:0:0:
188,60,179436,1,0,1:1:0:0:
208,60,179494,1,0,1:1:0:0:
228,60,179551,1,0,1:1:0:0:
248,60,179609,5,0,1:1:0:0:
268,60,179667,1,0,1:1:0:0:
288,60,179724,1,0,1:1:0:0:
308,60,179782,1,0,1:1:0:0:
328,60,179840,1,0,1:1:0:0:
348,60,179897,1,0,1:1:0:0:
368,60,179955,1,0,1:1:0:0:
400,60,180013,1,0,1:1:0:0:
400,76,180071,1,0,1:1:0:0:
400,96,180128,1,0,1:1:0:0:
400,116,180186,1,0,1:1:0:0:
400,136,180244,1,0,1:1:0:0:
400,156,180302,1,0,1:1:0:0:
400,176,180359,1,0,1:1:0:0:
400,196,180417,5,0,1:1:0:0:
400,216,180475,1,0,1:1:0:0:
400,236,180532,1,0,1:1:0:0:
400,256,180590,1,0,1:1:0:0:
400,276,180648,1,0,1:1:0:0:
400,296,180705,1,0,1:1:0:0:
400,316,180763,1,0,1:1:0:0:
372,316,180820,1,0,1:1:0:0:
356,316,180878,1,0,1:1:0:0:
336,316,180935,1,0,1:1:0:0:
316,316,180993,1,0,1:1:0:0:
296,316,181051,1,0,1:1:0:0:
276,316,181109,1,0,1:1:0:0:
256,316,181166,1,0,1:1:0:0:
236,316,181224,5,0,1:1:0:0:
216,316,181282,1,0,1:1:0:0:
196,316,181339,1,0,1:1:0:0:
176,316,181397,1,0,1:1:0:0:
156,316,181455,1,0,1:1:0:0:
136,316,181512,1,0,1:1:0:0:
116,316,181570,1,0,1:1:0:0:
92,316,181628,1,0,1:1:0:0:
92,300,181686,1,0,1:1:0:0:
92,280,181743,1,0,1:1:0:0:
92,260,181801,1,0,1:1:0:0:
92,240,181859,1,0,1:1:0:0:
92,220,181917,1,0,1:1:0:0:
92,200,181974,1,0,1:1:0:0:
92,180,182032,5,0,1:1:0:0:
92,160,182090,1,0,1:1:0:0:
92,140,182147,1,0,1:1:0:0:
92,120,182205,1,0,1:1:0:0:
92,100,182263,1,0,1:1:0:0:
92,80,182320,1,0,1:1:0:0:
92,60,182378,1,0,1:1:0:0:
112,60,182435,1,0,1:1:0:0:
128,60,182493,1,0,1:1:0:0:
148,60,182550,1,0,1:1:0:0:
168,60,182608,1,0,1:1:0:0:
188,60,182666,1,0,1:1:0:0:
208,60,182724,1,0,1:1:0:0:
228,60,182781,1,0,1:1:0:0:
248,60,182839,5,0,1:1:0:0:
268,60,182897,1,0,1:1:0:0:
288,60,182954,1,0,1:1:0:0:
308,60,183012,1,0,1:1:0:0:
328,60,183070,1,0,1:1:0:0:
348,60,183127,1,0,1:1:0:0:
368,60,183185,1,0,1:1:0:0:
400,60,183243,1,0,1:1:0:0:
400,76,183301,1,0,1:1:0:0:
400,96,183358,1,0,1:1:0:0:
400,116,183416,1,0,1:1:0:0:
400,136,183474,1,0,1:1:0:0:
400,156,183532,1,0,1:1:0:0:
400,176,183589,1,0,1:1:0:0:
400,196,183647,5,0,1:1:0:0:
400,216,183705,1,0,1:1:0:0:
400,236,183762,1,0,1:1:0:0:
400,256,183820,1,0,1:1:0:0:
400,276,183878,1,0,1:1:0:0:
400,296,183935,1,0,1:1:0:0:
400,316,183993,1,0,1:1:0:0:
372,316,184050,1,0,1:1:0:0:
356,316,184108,1,0,1:1:0:0:
336,316,184165,1,0,1:1:0:0:
316,316,184223,1,0,1:1:0:0:
296,316,184281,1,0,1:1:0:0:
276,316,184339,1,0,1:1:0:0:
256,316,184396,1,0,1:1:0:0:
236,316,184454,5,0,1:1:0:0:
216,316,184512,1,0,1:1:0:0:
196,316,184569,1,0,1:1:0:0:
176,316,184627,1,0,1:1:0:0:
156,316,184685,1,0,1:1:0:0:
136,316,184742,1,0,1:1:0:0:
116,316,184800,1,0,1:1:0:0:
92,316,184858,1,0,1:1:0:0:
92,300,184916,1,0,1:1:0:0:
92,280,184973,1,0,1:1:0:0:
92,260,185031,1,0,1:1:0:0:
92,240,185089,1,0,1:1:0:0:
92,220,185147,1,0,1:1:0:0:
92,200,185204,1,0,1:1:0:0:
92,180,185262,5,0,1:1:0:0:
92,160,185320,1,0,1:1:0:0:
92,140,185377,1,0,1:1:0:0:
92,120,185435,1,0,1:1:0:0:
92,100,185493,1,0,1:1:0:0:
92,80,185550,1,0,1:1:0:0:
92,60,185608,1,0,1:1:0:0:
112,60,185666,1,0,1:1:0:0:
128,60,185724,1,0,1:1:0:0:
148,60,185781,1,0,1:1:0:0:
168,60,185839,1,0,1:1:0:0:
188,60,185897,1,0,1:1:0:0:
208,60,185955,1,0,1:1:0:0:
228,60,186012,1,0,1:1:0:0:
248,60,186070,5,0,1:1:0:0:
268,60,186128,1,0,1:1:0:0:
288,60,186185,1,0,1:1:0:0:
308,60,186243,1,0,1:1:0:0:
328,60,186301,1,0,1:1:0:0:
348,60,186358,1,0,1:1:0:0:
368,60,186416,1,0,1:1:0:0:
400,60,186474,1,0,1:1:0:0:
400,76,186532,1,0,1:1:0:0:
400,96,186589,1,0,1:1:0:0:
400,116,186647,1,0,1:1:0:0:
400,136,186705,1,0,1:1:0:0:
400,156,186763,1,0,1:1:0:0:
400,176,186820,1,0,1:1:0:0:
400,196,186878,5,0,1:1:0:0:
400,216,186936,1,0,1:1:0:0:
400,236,186993,1,0,1:1:0:0:
400,256,187051,1,0,1:1:0:0:
400,276,187109,1,0,1:1:0:0:
400,296,187166,1,0,1:1:0:0:
400,316,187224,1,0,1:1:0:0:
372,316,187281,1,0,1:1:0:0:
356,316,187339,1,0,1:1:0:0:
336,316,187396,1,0,1:1:0:0:
316,316,187454,1,0,1:1:0:0:
296,316,187512,1,0,1:1:0:0:
276,316,187570,1,0,1:1:0:0:
256,316,187627,1,0,1:1:0:0:
236,316,187685,5,0,1:1:0:0:
216,316,187743,1,0,1:1:0:0:
196,316,187800,1,0,1:1:0:0:
176,316,187858,1,0,1:1:0:0:
156,316,187916,1,0,1:1:0:0:
136,316,187973,1,0,1:1:0:0:
116,316,188031,1,0,1:1:0:0:
92,316,188089,1,0,1:1:0:0:
92,300,188147,1,0,1:1:0:0:
92,280,188204,1,0,1:1:0:0:
92,260,188262,1,0,1:1:0:0:
92,240,188320,1,0,1:1:0:0:
92,220,188378,1,0,1:1:0:0:
92,200,188435,1,0,1:1:0:0:
92,180,188493,5,0,1:1:0:0:
92,160,188551,1,0,1:1:0:0:
92,140,188608,1,0,1:1:0:0:
92,120,188666,1,0,1:1:0:0:
92,100,188724,1,0,1:1:0:0:
92,80,188781,1,0,1:1:0:0:
92,60,188839,1,0,1:1:0:0:
112,60,188897,1,0,1:1:0:0:
128,60,188955,1,0,1:1:0:0:
148,60,189012,1,0,1:1:0:0:
168,60,189070,1,0,1:1:0:0:
188,60,189128,1,0,1:1:0:0:
208,60,189186,1,0,1:1:0:0:
228,60,189243,1,0,1:1:0:0:
248,60,189301,5,0,1:1:0:0:
268,60,189359,1,0,1:1:0:0:
288,60,189416,1,0,1:1:0:0:
308,60,189474,1,0,1:1:0:0:
328,60,189532,1,0,1:1:0:0:
348,60,189589,1,0,1:1:0:0:
368,60,189647,1,0,1:1:0:0:
400,60,189705,1,0,1:1:0:0:
400,76,189763,1,0,1:1:0:0:
400,96,189820,1,0,1:1:0:0:
400,116,189878,1,0,1:1:0:0:
400,136,189936,1,0,1:1:0:0:
400,156,189994,1,0,1:1:0:0:
400,176,190051,1,0,1:1:0:0:
400,196,190109,5,0,1:1:0:0:
400,216,190167,1,0,1:1:0:0:
400,236,190224,1,0,1:1:0:0:
400,256,190282,1,0,1:1:0:0:
400,276,190340,1,0,1:1:0:0:
400,296,190397,1,0,1:1:0:0:
400,316,190455,1,0,1:1:0:0:
372,316,190512,1,0,1:1:0:0:
356,316,190570,1,0,1:1:0:0:
336,316,190627,1,0,1:1:0:0:
316,316,190685,1,0,1:1:0:0:
296,316,190743,1,0,1:1:0:0:
276,316,190801,1,0,1:1:0:0:
256,316,190858,1,0,1:1:0:0:
236,316,190916,5,0,1:1:0:0:
216,316,190974,1,0,1:1:0:0:
196,316,191031,1,0,1:1:0:0:
176,316,191089,1,0,1:1:0:0:
156,316,191147,1,0,1:1:0:0:
136,316,191204,1,0,1:1:0:0:
116,316,191262,1,0,1:1:0:0:
92,316,191320,1,0,1:1:0:0:
92,300,191378,1,0,1:1:0:0:
92,280,191435,1,0,1:1:0:0:
92,260,191493,1,0,1:1:0:0:
92,240,191551,1,0,1:1:0:0:
92,220,191609,1,0,1:1:0:0:
92,200,191666,1,0,1:1:0:0:
92,180,191724,5,0,1:1:0:0:
92,160,191782,1,0,1:1:0:0:
92,140,191839,1,0,1:1:0:0:
92,120,191897,1,0,1:1:0:0:
92,100,191955,1,0,1:1:0:0:
92,80,192012,1,0,1:1:0:0:
92,60,192070,1,0,1:1:0:0:
112,60,192128,1,0,1:1:0:0:
128,60,192186,1,0,1:1:0:0:
148,60,192243,1,0,1:1:0:0:
168,60,192301,1,0,1:1:0:0:
188,60,192359,1,0,1:1:0:0:
208,60,192417,1,0,1:1:0:0:
228,60,192474,1,0,1:1:0:0:
248,60,192532,5,0,1:1:0:0:
268,60,192590,1,0,1:1:0:0:
288,60,192647,1,0,1:1:0:0:
308,60,192705,1,0,1:1:0:0:
328,60,192763,1,0,1:1:0:0:
348,60,192820,1,0,1:1:0:0:
368,60,192878,1,0,1:1:0:0:
400,60,192936,1,0,1:1:0:0:
400,76,192994,1,0,1:1:0:0:
400,96,193051,1,0,1:1:0:0:
400,116,193109,1,0,1:1:0:0:
400,136,193167,1,0,1:1:0:0:
400,156,193225,1,0,1:1:0:0:
400,176,193282,1,0,1:1:0:0:
400,196,193340,5,0,1:1:0:0:
400,216,193398,1,0,1:1:0:0:
400,236,193455,1,0,1:1:0:0:
400,256,193513,1,0,1:1:0:0:
400,276,193571,1,0,1:1:0:0:
400,296,193628,1,0,1:1:0:0:
400,316,193686,1,0,1:1:0:0:
372,316,193743,1,0,1:1:0:0:
356,316,193801,1,0,1:1:0:0:
336,316,193858,1,0,1:1:0:0:
316,316,193916,1,0,1:1:0:0:
296,316,193974,1,0,1:1:0:0:
276,316,194032,1,0,1:1:0:0:
256,316,194089,1,0,1:1:0:0:
236,316,194147,5,0,1:1:0:0:
216,316,194205,1,0,1:1:0:0:
196,316,194262,1,0,1:1:0:0:
176,316,194320,1,0,1:1:0:0:
156,316,194378,1,0,1:1:0:0:
136,316,194435,1,0,1:1:0:0:
116,316,194493,1,0,1:1:0:0:
92,316,194551,1,0,1:1:0:0:
92,300,194609,1,0,1:1:0:0:
92,280,194666,1,0,1:1:0:0:
92,260,194724,1,0,1:1:0:0:
92,240,194782,1,0,1:1:0:0:
92,220,194840,1,0,1:1:0:0:
92,200,194897,1,0,1:1:0:0:
92,180,194955,5,0,1:1:0:0:
92,160,195013,1,0,1:1:0:0:
92,140,195070,1,0,1:1:0:0:
92,120,195128,1,0,1:1:0:0:
92,100,195186,1,0,1:1:0:0:
92,80,195243,1,0,1:1:0:0:
92,60,195301,1,0,1:1:0:0:
112,60,195358,1,0,1:1:0:0:
128,60,195416,1,0,1:1:0:0:
148,60,195473,1,0,1:1:0:0:
168,60,195531,1,0,1:1:0:0:
188,60,195589,1,0,1:1:0:0:
208,60,195647,1,0,1:1:0:0:
228,60,195704,1,0,1:1:0:0:
248,60,195762,5,0,1:1:0:0:
268,60,195820,1,0,1:1:0:0:
288,60,195877,1,0,1:1:0:0:
308,60,195935,1,0,1:1:0:0:
328,60,195993,1,0,1:1:0:0:
348,60,196050,1,0,1:1:0:0:
368,60,196108,1,0,1:1:0:0:
400,60,196166,1,0,1:1:0:0:
400,76,196224,1,0,1:1:0:0:
400,96,196281,1,0,1:1:0:0:
400,116,196339,1,0,1:1:0:0:
400,136,196397,1,0,1:1:0:0:
400,156,196455,1,0,1:1:0:0:
400,176,196512,1,0,1:1:0:0:
400,196,196570,5,0,1:1:0:0:
400,216,196628,1,0,1:1:0:0:
400,236,196685,1,0,1:1:0:0:
400,256,196743,1,0,1:1:0:0:
400,276,196801,1,0,1:1:0:0:
400,296,196858,1,0,1:1:0:0:
400,316,196916,1,0,1:1:0:0:
372,316,196973,1,0,1:1:0:0:
356,316,197031,1,0,1:1:0:0:
336,316,197088,1,0,1:1:0:0:
316,316,197146,1,0,1:1:0:0:
296,316,197204,1,0,1:1:0:0:
276,316,197262,1,0,1:1:0:0:
256,316,197319,1,0,1:1:0:0:
236,316,197377,5,0,1:1:0:0:
216,316,197435,1,0,1:1:0:0:
196,316,197492,1,0,1:1:0:0:
176,316,197550,1,0,1:1:0:0:
156,316,197608,1,0,1:1:0:0:
136,316,197665,1,0,1:1:0:0:
116,316,197723,1,0,1:1:0:0:
92,316,197781,1,0,1:1:0:0:
92,300,197839,1,0,1:1:0:0:
92,280,197896,1,0,1:1:0:0:
92,260,197954,1,0,1:1:0:0:
92,240,198012,1,0,1:1:0:0:
92,220,198070,1,0,1:1:0:0:
92,200,198127,1,0,1:1:0:0:
92,180,198185,5,0,1:1:0:0:
92,160,198243,1,0,1:1:0:0:
92,140,198300,1,0,1:1:0:0:
92,120,198358,1,0,1:1:0:0:
92,100,198416,1,0,1:1:0:0:
92,80,198473,1,0,1:1:0:0:
92,60,198531,1,0,1:1:0:0:
112,60,198590,1,0,1:1:0:0:
128,60,198648,1,0,1:1:0:0:
148,60,198705,1,0,1:1:0:0:
168,60,198763,1,0,1:1:0:0:
188,60,198821,1,0,1:1:0:0:
208,60,198879,1,0,1:1:0:0:
228,60,198936,1,0,1:1:0:0:
248,60,198994,5,0,1:1:0:0:
268,60,199052,1,0,1:1:0:0:
288,60,199109,1,0,1:1:0:0:
308,60,199167,1,0,1:1:0:0:
328,60,199225,1,0,1:1:0:0:
348,60,199282,1,0,1:1:0:0:
368,60,199340,1,0,1:1:0:0:
400,60,199398,1,0,1:1:0:0:
400,76,199456,1,0,1:1:0:0:
400,96,199513,1,0,1:1:0:0:
400,116,199571,1,0,1:1:0:0:
400,136,199629,1,0,1:1:0:0:
400,156,199687,1,0,1:1:0:0:
400,176,199744,1,0,1:1:0:0:
400,196,199802,5,0,1:1:0:0:
400,216,199860,1,0,1:1:0:0:
400,236,199917,1,0,1:1:0:0:
400,256,199975,1,0,1:1:0:0:
400,276,200033,1,0,1:1:0:0:
400,296,200090,1,0,1:1:0:0:
400,316,200148,1,0,1:1:0:0:
372,316,200205,1,0,1:1:0:0:
356,316,200263,1,0,1:1:0:0:
336,316,200320,1,0,1:1:0:0:
316,316,200378,1,0,1:1:0:0:
296,316,200436,1,0,1:1:0:0:
276,316,200494,1,0,1:1:0:0:
256,316,200551,1,0,1:1:0:0:
236,316,200609,5,0,1:1:0:0:
216,316,200667,1,0,1:1:0:0:
196,316,200724,1,0,1:1:0:0:
176,316,200782,1,0,1:1:0:0:
156,316,200840,1,0,1:1:0:0:
136,316,200897,1,0,1:1:0:0:
116,316,200955,1,0,1:1:0:0:
92,316,201013,1,0,1:1:0:0:
92,300,201071,1,0,1:1:0:0:
92,280,201128,1,0,1:1:0:0:
92,260,201186,1,0,1:1:0:0:
92,240,201244,1,0,1:1:0:0:
92,220,201302,1,0,1:1:0:0:
92,200,201359,1,0,1:1:0:0:
92,180,201417,5,0,1:1:0:0:
92,160,201475,1,0,1:1:0:0:
92,140,201532,1,0,1:1:0:0:
92,120,201590,1,0,1:1:0:0:
92,100,201648,1,0,1:1:0:0:
92,80,201705,1,0,1:1:0:0:
92,60,201763,1,0,1:1:0:0:
112,60,201820,1,0,1:1:0:0:
128,60,201878,1,0,1:1:0:0:
148,60,201935,1,0,1:1:0:0:
168,60,201993,1,0,1:1:0:0:
188,60,202051,1,0,1:1:0:0:
208,60,202109,1,0,1:1:0:0:
228,60,202166,1,0,1:1:0:0:
248,60,202224,5,0,1:1:0:0:
268,60,202282,1,0,1:1:0:0:
288,60,202339,1,0,1:1:0:0:
308,60,202397,1,0,1:1:0:0:
328,60,202455,1,0,1:1:0:0:
348,60,202512,1,0,1:1:0:0:
368,60,202570,1,0,1:1:0:0:
400,60,202628,1,0,1:1:0:0:
400,76,202686,1,0,1:1:0:0:
400,96,202743,1,0,1:1:0:0:
400,116,202801,1,0,1:1:0:0:
400,136,202859,1,0,1:1:0:0:
400,156,202917,1,0,1:1:0:0:
400,176,202974,1,0,1:1:0:0:
400,196,203032,5,0,1:1:0:0:
400,216,203090,1,0,1:1:0:0:
400,236,203147,1,0,1:1:0:0:
400,256,203205,1,0,1:1:0:0:
400,276,203263,1,0,1:1:0:0:
400,296,203320,1,0,1:1:0:0:
400,316,203378,1,0,1:1:0:0:
372,316,203435,1,0,1:1:0:0:
356,316,203493,1,0,1:1:0:0:
336,316,203550,1,0,1:1:0:0:
316,316,203608,1,0,1:1:0:0:
296,316,203666,1,0,1:1:0:0:
276,316,203724,1,0,1:1:0:0:
256,316,203781,1,0,1:1:0:0:
236,316,203839,5,0,1:1:0:0:
216,316,203897,1,0,1:1:0:0:
196,316,203954,1,0,1:1:0:0:
176,316,204012,1,0,1:1:0:0:
156,316,204070,1,0,1:1:0:0:
136,316,204127,1,0,1:1:0:0:
116,316,204185,1,0,1:1:0:0:
92,316,204243,1,0,1:1:0:0:
92,300,204301,1,0,1:1:0:0:
92,280,204358,1,0,1:1:0:0:
92,260,204416,1,0,1:1:0:0:
92,240,204474,1,0,1:1:0:0:
92,220,204532,1,0,1:1:0:0:
92,200,204589,1,0,1:1:0:0:
92,180,204647,5,0,1:1:0:0:
92,160,204705,1,0,1:1:0:0:
92,140,204762,1,0,1:1:0:0:
92,120,204820,1,0,1:1:0:0:
92,100,204878,1,0,1:1:0:0:
92,80,204935,1,0,1:1:0:0:
92,60,204993,1,0,1:1:0:0:
112,60,205051,1,0,1:1:0:0:
128,60,205109,1,0,1:1:0:0:
148,60,205166,1,0,1:1:0:0:
168,60,205224,1,0,1:1:0:0:
188,60,205282,1,0,1:1:0:0:
208,60,205340,1,0,1:1:0:0:
228,60,205397,1,0,1:1:0:0:
248,60,205455,5,0,1:1:0:0:
268,60,205513,1,0,1:1:0:0:
288,60,205570,1,0,1:1:0:0:
308,60,205628,1,0,1:1:0:0:
328,60,205686,1,0,1:1:0:0:
348,60,205743,1,0,1:1:0:0:
368,60,205801,1,0,1:1:0:0:
400,60,205859,1,0,1:1:0:0:
400,76,205917,1,0,1:1:0:0:
400,96,205974,1,0,1:1:0:0:
400,116,206032,1,0,1:1:0:0:
400,136,206090,1,0,1:1:0:0:
400,156,206148,1,0,1:1:0:0:
400,176,206205,1,0,1:1:0:0:
400,196,206263,5,0,1:1:0:0:
400,216,206321,1,0,1:1:0:0:
400,236,206378,1,0,1:1:0:0:
400,256,206436,1,0,1:1:0:0:
400,276,206494,1,0,1:1:0:0:
400,296,206551,1,0,1:1:0:0:
400,316,206609,1,0,1:1:0:0:
372,316,206666,1,0,1:1:0:0:
356,316,206724,1,0,1:1:0:0:
336,316,206781,1,0,1:1:0:0:
316,316,206839,1,0,1:1:0:0:
296,316,206897,1,0,1:1:0:0:
276,316,206955,1,0,1:1:0:0:
256,316,207012,1,0,1:1:0:0:
236,316,207070,5,0,1:1:0:0:
216,316,207128,1,0,1:1:0:0:
196,316,207185,1,0,1:1:0:0:
176,316,207243,1,0,1:1:0:0:
156,316,207301,1,0,1:1:0:0:
136,316,207358,1,0,1:1:0:0:
116,316,207416,1,0,1:1:0:0:
92,316,207474,1,0,1:1:0:0:
92,300,207532,1,0,1:1:0:0:
92,280,207589,1,0,1:1:0:0:
92,260,207647,1,0,1:1:0:0:
92,240,207705,1,0,1:1:0:0:
92,220,207763,1,0,1:1:0:0:
92,200,207820,1,0,1:1:0:0:
92,180,207878,5,0,1:1:0:0:
92,160,207936,1,0,1:1:0:0:
92,140,207993,1,0,1:1:0:0:
92,120,208051,1,0,1:1:0:0:
92,100,208109,1,0,1:1:0:0:
92,80,208166,1,0,1:1:0:0:
92,60,208224,1,0,1:1:0:0:
112,60,208282,1,0,1:1:0:0:
128,60,208340,1,0,1:1:0:0:
148,60,208397,1,0,1:1:0:0:
168,60,208455,1,0,1:1:0:0:
188,60,208513,1,0,1:1:0:0:
208,60,208571,1,0,1:1:0:0:
228,60,208628,1,0,1:1:0:0:
248,60,208686,5,0,1:1:0:0:
268,60,208744,1,0,1:1:0:0:
288,60,208801,1,0,1:1:0:0:
308,60,208859,1,0,1:1:0:0:
328,60,208917,1,0,1:1:0:0:
348,60,208974,1,0,1:1:0:0:
368,60,209032,1,0,1:1:0:0:
400,60,209090,1,0,1:1:0:0:
400,76,209148,1,0,1:1:0:0:
400,96,209205,1,0,1:1:0:0:
400,116,209263,1,0,1:1:0:0:
400,136,209321,1,0,1:1:0:0:
400,156,209379,1,0,1:1:0:0:
400,176,209436,1,0,1:1:0:0:
400,196,209494,5,0,1:1:0:0:
400,216,209552,1,0,1:1:0:0:
400,236,209609,1,0,1:1:0:0:
400,256,209667,1,0,1:1:0:0:
400,276,209725,1,0,1:1:0:0:
400,296,209782,1,0,1:1:0:0:
400,316,209840,1,0,1:1:0:0:
372,316,209897,1,0,1:1:0:0:
356,316,209955,1,0,1:1:0:0:
336,316,210012,1,0,1:1:0:0:
316,316,210070,1,0,1:1:0:0:
296,316,210128,1,0,1:1:0:0:
276,316,210186,1,0,1:1:0:0:
256,316,210243,1,0,1:1:0:0:
236,316,210301,5,0,1:1:0:0:
216,316,210359,1,0,1:1:0:0:
196,316,210416,1,0,1:1:0:0:
176,316,210474,1,0,1:1:0:0:
156,316,210532,1,0,1:1:0:0:
136,316,210589,1,0,1:1:0:0:
116,316,210647,1,0,1:1:0:0:
92,316,210705,1,0,1:1:0:0:
92,300,210763,1,0,1:1:0:0:
92,280,210820,1,0,1:1:0:0:
92,260,210878,1,0,1:1:0:0:
92,240,210936,1,0,1:1:0:0:
92,220,210994,1,0,1:1:0:0:
92,200,211051,1,0,1:1:0:0:
92,180,211109,5,0,1:1:0:0:
92,160,211167,1,0,1:1:0:0:
92,140,211224,1,0,1:1:0:0:
92,120,211282,1,0,1:1:0:0:
92,100,211340,1,0,1:1:0:0:
92,80,211397,1,0,1:1:0:0:
92,60,211455,1,0,1:1:0:0:
112,60,211512,1,0,1:1:0:0:
128,60,211570,1,0,1:1:0:0:
148,60,211627,1,0,1:1:0:0:
168,60,211685,1,0,1:1:0:0:
188,60,211743,1,0,1:1:0:0:
208,60,211801,1,0,1:1:0:0:
228,60,211858,1,0,1:1:0:0:
248,60,211916,5,0,1:1:0:0:
268,60,211974,1,0,1:1:0:0:
288,60,212031,1,0,1:1:0:0:
308,60,212089,1,0,1:1:0:0:
328,60,212147,1,0,1:1:0:0:
348,60,212204,1,0,1:1:0:0:
368,60,212262,1,0,1:1:0:0:
400,60,212320,1,0,1:1:0:0:
400,76,212378,1,0,1:1:0:0:
400,96,212435,1,0,1:1:0:0:
400,116,212493,1,0,1:1:0:0:
400,136,212551,1,0,1:1:0:0:
400,156,212609,1,0,1:1:0:0:
400,176,212666,1,0,1:1:0:0:
400,196,212724,5,0,1:1:0:0:
400,216,212782,1,0,1:1:0:0:
400,236,212839,1,0,1:1:0:0:
400,256,212897,1,0,1:1:0:0:
400,276,212955,1,0,1:1:0:0:
400,296,213012,1,0,1:1:0:0:
400,316,213070,1,0,1:1:0:0:
372,316,213127,1,0,1:1:0:0:
356,316,213185,1,0,1:1:0:0:
336,316,213242,1,0,1:1:0:0:
316,316,213300,1,0,1:1:0:0:
296,316,213358,1,0,1:1:0:0:
276,316,213416,1,0,1:1:0:0:
256,316,213473,1,0,1:1:0:0:
236,316,213531,5,0,1:1:0:0:
216,316,213589,1,0,1:1:0:0:
196,316,213646,1,0,1:1:0:0:
176,316,213704,1,0,1:1:0:0:
156,316,213762,1,0,1:1:0:0:
136,316,213819,1,0,1:1:0:0:
116,316,213877,1,0,1:1:0:0:
92,316,213935,1,0,1:1:0:0:
92,300,213993,1,0,1:1:0:0:
92,280,214050,1,0,1:1:0:0:
92,260,214108,1,0,1:1:0:0:
92,240,214166,1,0,1:1:0:0:
92,220,214224,1,0,1:1:0:0:
92,200,214281,1,0,1:1:0:0:
92,180,214339,5,0,1:1:0:0:
92,160,214397,1,0,1:1:0:0:
92,140,214454,1,0,1:1:0:0:
92,120,214512,1,0,1:1:0:0:
92,100,214570,1,0,1:1:0:0:
92,80,214627,1,0,1:1:0:0:
92,60,214685,1,0,1:1:0:0:
112,60,214742,1,0,1:1:0:0:
128,60,214800,1,0,1:1:0:0:
148,60,214857,1,0,1:1:0:0:
168,60,214915,1,0,1:1:0:0:
188,60,214973,1,0,1:1:0:0:
208,60,215031,1,0,1:1:0:0:
228,60,215088,1,0,1:1:0:0:
248,60,215146,5,0,1:1:0:0:
268,60,215204,1,0,1:1:0:0:
288,60,215261,1,0,1:1:0:0:
308,60,215319,1,0,1:1:0:0:
328,60,215377,1,0,1:1:0:0:
348,60,215434,1,0,1:1:0:0:
368,60,215492,1,0,1:1:0:0:
400,60,215550,1,0,1:1:0:0:
400,76,215608,1,0,1:1:0:0:
400,96,215665,1,0,1:1:0:0:
400,116,215723,1,0,1:1:0:0:
400,136,215781,1,0,1:1:0:0:
400,156,215839,1,0,1:1:0:0:
400,176,215896,1,0,1:1:0:0:
400,196,215954,5,0,1:1:0:0:
400,216,216012,1,0,1:1:0:0:
400,236,216069,1,0,1:1:0:0:
400,256,216127,1,0,1:1:0:0:
400,276,216185,1,0,1:1:0:0:
400,296,216242,1,0,1:1:0:0:
400,316,216300,1,0,1:1:0:0:
372,316,216357,1,0,1:1:0:0:
356,316,216415,1,0,1:1:0:0:
336,316,216472,1,0,1:1:0:0:
316,316,216530,1,0,1:1:0:0:
296,316,216588,1,0,1:1:0:0:
276,316,216646,1,0,1:1:0:0:
256,316,216703,1,0,1:1:0:0:
236,316,216761,5,0,1:1:0:0:
216,316,216819,1,0,1:1:0:0:
196,316,216876,1,0,1:1:0:0:
176,316,216934,1,0,1:1:0:0:
156,316,216992,1,0,1:1:0:0:
136,316,217049,1,0,1:1:0:0:
116,316,217107,1,0,1:1:0:0:
92,316,217165,1,0,1:1:0:0:
92,300,217223,1,0,1:1:0:0:
92,280,217280,1,0,1:1:0:0:
92,260,217338,1,0,1:1:0:0:
92,240,217396,1,0,1:1:0:0:
92,220,217454,1,0,1:1:0:0:
92,200,217511,1,0,1:1:0:0:
92,180,217569,5,0,1:1:0:0:
92,160,217627,1,0,1:1:0:0:
92,140,217684,1,0,1:1:0:0:
92,120,217742,1,0,1:1:0:0:
92,100,217800,1,0,1:1:0:0:
92,80,217857,1,0,1:1:0:0:
92,60,217915,1,0,1:1:0:0:
112,60,217974,1,0,1:1:0:0:
128,60,218032,1,0,1:1:0:0:
148,60,218089,1,0,1:1:0:0:
168,60,218147,1,0,1:1:0:0:
188,60,218205,1,0,1:1:0:0:
208,60,218263,1,0,1:1:0:0:
228,60,218320,1,0,1:1:0:0:
248,60,218378,5,0,1:1:0:0:
268,60,218436,1,0,1:1:0:0:
288,60,218493,1,0,1:1:0:0:
308,60,218551,1,0,1:1:0:0:
328,60,218609,1,0,1:1:0:0:
348,60,218666,1,0,1:1:0:0:
368,60,218724,1,0,1:1:0:0:
400,60,218782,1,0,1:1:0:0:
400,76,218840,1,0,1:1:0:0:
400,96,218897,1,0,1:1:0:0:
400,116,218955,1,0,1:1:0:0:
400,136,219013,1,0,1:1:0:0:
400,156,219071,1,0,1:1:0:0:
400,176,219128,1,0,1:1:0:0:
400,196,219186,5,0,1:1:0:0:
400,216,219244,1,0,1:1:0:0:
400,236,219301,1,0,1:1:0:0:
400,256,219359,1,0,1:1:0:0:
400,276,219417,1,0,1:1:0:0:
400,296,219474,1,0,1:1:0:0:
400,316,219532,1,0,1:1:0:0:
372,316,219589,1,0,1:1:0:0:
356,316,219647,1,0,1:1:0:0:
336,316,219704,1,0,1:1:0:0:
316,316,219762,1,0,1:1:0:0:
296,316,219820,1,0,1:1:0:0:
276,316,219878,1,0,1:1:0:0:
256,316,219935,1,0,1:1:0:0:
236,316,219993,5,0,1:1:0:0:
216,316,220051,1,0,1:1:0:0:
196,316,220108,1,0,1:1:0:0:
176,316,220166,1,0,1:1:0:0:
156,316,220224,1,0,1:1:0:0:
136,316,220281,1,0,1:1:0:0:
116,316,220339,1,0,1:1:0:0:
92,316,220397,1,0,1:1:0:0:
92,300,220455,1,0,1:1:0:0:
92,280,220512,1,0,1:1:0:0:
92,260,220570,1,0,1:1:0:0:
92,240,220628,1,0,1:1:0:0:
92,220,220686,1,0,1:1:0:0:
92,200,220743,1,0,1:1:0:0:
92,180,220801,5,0,1:1:0:0:
92,160,220859,1,0,1:1:0:0:
92,140,220916,1,0,1:1:0:0:
92,120,220974,1,0,1:1:0:0:
92,100,221032,1,0,1:1:0:0:
92,80,221089,1,0,1:1:0:0:
92,60,221147,1,0,1:1:0:0:
112,60,221204,1,0,1:1:0:0:
128,60,221262,1,0,1:1:0:0:
148,60,221319,1,0,1:1:0:0:
168,60,221377,1,0,1:1:0:0:
188,60,221435,1,0,1:1:0:0:
208,60,221493,1,0,1:1:0:0:
228,60,221550,1,0,1:1:0:0:
248,60,221608,5,0,1:1:0:0:
268,60,221666,1,0,1:1:0:0:
288,60,221723,1,0,1:1:0:0:
308,60,221781,1,0,1:1:0:0:
328,60,221839,1,0,1:1:0:0:
348,60,221896,1,0,1:1:0:0:
368,60,221954,1,0,1:1:0:0:
400,60,222012,1,0,1:1:0:0:
400,76,222070,1,0,1:1:0:0:
400,96,222127,1,0,1:1:0:0:
400,116,222185,1,0,1:1:0:0:
400,136,222243,1,0,1:1:0:0:
400,156,222301,1,0,1:1:0:0:
400,176,222358,1,0,1:1:0:0:
400,196,222416,5,0,1:1:0:0:
400,216,222474,1,0,1:1:0:0:
400,236,222531,1,0,1:1:0:0:
400,256,222589,1,0,1:1:0:0:
400,276,222647,1,0,1:1:0:0:
400,296,222704,1,0,1:1:0:0:
400,316,222762,1,0,1:1:0:0:
372,316,222819,1,0,1:1:0:0:
356,316,222877,1,0,1:1:0:0:
336,316,222934,1,0,1:1:0:0:
316,316,222992,1,0,1:1:0:0:
296,316,223050,1,0,1:1:0:0:
276,316,223108,1,0,1:1:0:0:
256,316,223165,1,0,1:1:0:0:
236,316,223223,5,0,1:1:0:0:
216,316,223281,1,0,1:1:0:0:
196,316,223338,1,0,1:1:0:0:
176,316,223396,1,0,1:1:0:0:
156,316,223454,1,0,1:1:0:0:
136,316,223511,1,0,1:1:0:0:
116,316,223569,1,0,1:1:0:0:
92,316,223627,1,0,1:1:0:0:
92,300,223685,1,0,1:1:0:0:
92,280,223742,1,0,1:1:0:0:
92,260,223800,1,0,1:1:0:0:
92,240,223858,1,0,1:1:0:0:
92,220,223916,1,0,1:1:0:0:
92,200,223973,1,0,1:1:0:0:
92,180,224031,5,0,1:1:0:0:
92,160,224089,1,0,1:1:0:0:
92,140,224146,1,0,1:1:0:0:
92,120,224204,1,0,1:1:0:0:
92,100,224262,1,0,1:1:0:0:
92,80,224319,1,0,1:1:0:0:
92,60,224377,1,0,1:1:0:0:
112,60,224435,1,0,1:1:0:0:
128,60,224493,1,0,1:1:0:0:
148,60,224550,1,0,1:1:0:0:
168,60,224608,1,0,1:1:0:0:
188,60,224666,1,0,1:1:0:0:
208,60,224724,1,0,1:1:0:0:
228,60,224781,1,0,1:1:0:0:
248,60,224839,5,0,1:1:0:0:
268,60,224897,1,0,1:1:0:0:
288,60,224954,1,0,1:1:0:0:
308,60,225012,1,0,1:1:0:0:
328,60,225070,1,0,1:1:0:0:
348,60,225127,1,0,1:1:0:0:
368,60,225185,1,0,1:1:0:0:
400,60,225243,1,0,1:1:0:0:
400,76,225301,1,0,1:1:0:0:
400,96,225358,1,0,1:1:0:0:
400,116,225416,1,0,1:1:0:0:
400,136,225474,1,0,1:1:0:0:
400,156,225532,1,0,1:1:0:0:
400,176,225589,1,0,1:1:0:0:
400,196,225647,5,0,1:1:0:0:
400,216,225705,1,0,1:1:0:0:
400,236,225762,1,0,1:1:0:0:
400,256,225820,1,0,1:1:0:0:
400,276,225878,1,0,1:1:0:0:
400,296,225935,1,0,1:1:0:0:
400,316,225993,1,0,1:1:0:0:
372,316,226050,1,0,1:1:0:0:
356,316,226108,1,0,1:1:0:0:
336,316,226165,1,0,1:1:0:0:
316,316,226223,1,0,1:1:0:0:
296,316,226281,1,0,1:1:0:0:
276,316,226339,1,0,1:1:0:0:
256,316,226396,1,0,1:1:0:0:
236,316,226454,5,0,1:1:0:0:
216,316,226512,1,0,1:1:0:0:
196,316,226569,1,0,1:1:0:0:
176,316,226627,1,0,1:1:0:0:
156,316,226685,1,0,1:1:0:0:
136,316,226742,1,0,1:1:0:0:
116,316,226800,1,0,1:1:0:0:
92,316,226858,1,0,1:1:0:0:
92,300,226916,1,0,1:1:0:0:
92,280,226973,1,0,1:1:0:0:
92,260,227031,1,0,1:1:0:0:
92,240,227089,1,0,1:1:0:0:
92,220,227147,1,0,1:1:0:0:
92,200,227204,1,0,1:1:0:0:
92,180,227262,5,0,1:1:0:0:
92,160,227320,1,0,1:1:0:0:
92,140,227377,1,0,1:1:0:0:
92,120,227435,1,0,1:1:0:0:
92,100,227493,1,0,1:1:0:0:
92,80,227550,1,0,1:1:0:0:
92,60,227608,1,0,1:1:0:0:
112,60,227666,1,0,1:1:0:0:
128,60,227724,1,0,1:1:0:0:
148,60,227781,1,0,1:1:0:0:
168,60,227839,1,0,1:1:0:0:
188,60,227897,1,0,1:1:0:0:
208,60,227955,1,0,1:1:0:0:
228,60,228012,1,0,1:1:0:0:
248,60,228070,5,0,1:1:0:0:
268,60,228128,1,0,1:1:0:0:
288,60,228185,1,0,1:1:0:0:
308,60,228243,1,0,1:1:0:0:
328,60,228301,1,0,1:1:0:0:
348,60,228358,1,0,1:1:0:0:
368,60,228416,1,0,1:1:0:0:
400,60,228474,1,0,1:1:0:0:
400,76,228532,1,0,1:1:0:0:
400,96,228589,1,0,1:1:0:0:
400,116,228647,1,0,1:1:0:0:
400,136,228705,1,0,1:1:0:0:
400,156,228763,1,0,1:1:0:0:
400,176,228820,1,0,1:1:0:0:
400,196,228878,5,0,1:1:0:0:
400,216,228936,1,0,1:1:0:0:
400,236,228993,1,0,1:1:0:0:
400,256,229051,1,0,1:1:0:0:
400,276,229109,1,0,1:1:0:0:
400,296,229166,1,0,1:1:0:0:
400,316,229224,1,0,1:1:0:0:
372,316,229281,1,0,1:1:0:0:
356,316,229339,1,0,1:1:0:0:
336,316,229396,1,0,1:1:0:0:
316,316,229454,1,0,1:1:0:0:
296,316,229512,1,0,1:1:0:0:
276,316,229570,1,0,1:1:0:0:
256,316,229627,1,0,1:1:0:0:
236,316,229685,5,0,1:1:0:0:
216,316,229743,1,0,1:1:0:0:
196,316,229800,1,0,1:1:0:0:
176,316,229858,1,0,1:1:0:0:
156,316,229916,1,0,1:1:0:0:
136,316,229973,1,0,1:1:0:0:
116,316,230031,1,0,1:1:0:0:
92,316,230089,1,0,1:1:0:0:
92,300,230147,1,0,1:1:0:0:
92,280,230204,1,0,1:1:0:0:
92,260,230262,1,0,1:1:0:0:
92,240,230320,1,0,1:1:0:0:
92,220,230378,1,0,1:1:0:0:
92,200,230435,1,0,1:1:0:0:
92,180,230493,5,0,1:1:0:0:
92,160,230551,1,0,1:1:0:0:
92,140,230608,1,0,1:1:0:0:
92,120,230666,1,0,1:1:0:0:
92,100,230724,1,0,1:1:0:0:
92,80,230781,1,0,1:1:0:0:
92,60,230839,1,0,1:1:0:0:
112,60,230897,1,0,1:1:0:0:
128,60,230955,1,0,1:1:0:0:
148,60,231012,1,0,1:1:0:0:
168,60,231070,1,0,1:1:0:0:
188,60,231128,1,0,1:1:0:0:
208,60,231186,1,0,1:1:0:0:
228,60,231243,1,0,1:1:0:0:
248,60,231301,5,0,1:1:0:0:
268,60,231359,1,0,1:1:0:0:
288,60,231416,1,0,1:1:0:0:
308,60,231474,1,0,1:1:0:0:
328,60,231532,1,0,1:1:0:0:
348,60,231589,1,0,1:1:0:0:
368,60,231647,1,0,1:1:0:0:
400,60,231705,1,0,1:1:0:0:
400,76,231763,1,0,1:1:0:0:
400,96,231820,1,0,1:1:0:0:
400,116,231878,1,0,1:1:0:0:
400,136,231936,1,0,1:1:0:0:
400,156,231994,1,0,1:1:0:0:
400,176,232051,1,0,1:1:0:0:
400,196,232109,5,0,1:1:0:0:
400,216,232167,1,0,1:1:0:0:
400,236,232224,1,0,1:1:0:0:
400,256,232282,1,0,1:1:0:0:
400,276,232340,1,0,1:1:0:0:
400,296,232397,1,0,1:1:0:0:
400,316,232455,1,0,1:1:0:0:
372,316,232512,1,0,1:1:0:0:
356,316,232570,1,0,1:1:0:0:
336,316,232627,1,0,1:1:0:0:
316,316,232685,1,0,1:1:0:0:
296,316,232743,1,0,1:1:0:0:
276,316,232801,1,0,1:1:0:0:
256,316,232858,1,0,1:1:0:0:
236,316,232916,5,0,1:1:0:0:
216,316,232974,1,0,1:1:0:0:
196,316,233031,1,0,1:1:0:0:
176,316,233089,1,0,1:1:0:0:
156,316,233147,1,0,1:1:0:0:
136,316,233204,1,0,1:1:0:0:
116,316,233262,1,0,1:1:0:0:
92,316,233320,1,0,1:1:0:0:
92,300,233378,1,0,1:1:0:0:
92,280,233435,1,0,1:1:0:0:
92,260,233493,1,0,1:1:0:0:
92,240,233551,1,0,1:1:0:0:
92,220,233609,1,0,1:1:0:0:
92,200,233666,1,0,1:1:0:0:
92,180,233724,5,0,1:1:0:0:
92,160,233782,1,0,1:1:0:0:
92,140,233839,1,0,1:1:0:0:
92,120,233897,1,0,1:1:0:0:
92,100,233955,1,0,1:1:0:0:
92,80,234012,1,0,1:1:0:0:
92,60,234070,1,0,1:1:0:0:
112,60,234127,1,0,1:1:0:0:
128,60,234185,1,0,1:1:0:0:
148,60,234242,1,0,1:1:0:0:
168,60,234300,1,0,1:1:0:0:
188,60,234358,1,0,1:1:0:0:
208,60,234416,1,0,1:1:0:0:
228,60,234473,1,0,1:1:0:0:
248,60,234531,5,0,1:1:0:0:
268,60,234589,1,0,1:1:0:0:
288,60,234646,1,0,1:1:0:0:
308,60,234704,1,0,1:1:0:0:
328,60,234762,1,0,1:1:0:0:
348,60,234819,1,0,1:1:0:0:
368,60,234877,1,0,1:1:0:0:
400,60,234935,1,0,1:1:0:0:
400,76,234993,1,0,1:1:0:0:
400,96,235050,1,0,1:1:0:0:
400,116,235108,1,0,1:1:0:0:
400,136,235166,1,0,1:1:0:0:
400,156,235224,1,0,1:1:0:0:
400,176,235281,1,0,1:1:0:0:
400,196,235339,5,0,1:1:0:0:
400,216,235397,1,0,1:1:0:0:
400,236,235454,1,0,1:1:0:0:
400,256,235512,1,0,1:1:0:0:
400,276,235570,1,0,1:1:0:0:
400,296,235627,1,0,1:1:0:0:
400,316,235685,1,0,1:1:0:0:
372,316,235742,1,0,1:1:0:0:
356,316,235800,1,0,1:1:0:0:
336,316,235857,1,0,1:1:0:0:
316,316,235915,1,0,1:1:0:0:
296,316,235973,1,0,1:1:0:0:
276,316,236031,1,0,1:1:0:0:
256,316,236088,1,0,1:1:0:0:
236,316,236146,5,0,1:1:0:0:
216,316,236204,1,0,1:1:0:0:
196,316,236261,1,0,1:1:0:0:
176,316,236319,1,0,1:1:0:0:
156,316,236377,1,0,1:1:0:0:
136,316,236434,1,0,1:1:0:0:
116,316,236492,1,0,1:1:0:0:
92,316,236550,1,0,1:1:0:0:
92,300,236608,1,0,1:1:0:0:
92,280,236665,1,0,1:1:0:0:
92,260,236723,1,0,1:1:0:0:
92,240,236781,1,0,1:1:0:0:
92,220,236839,1,0,1:1:0:0:
92,200,236896,1,0,1:1:0:0:
92,180,236954,5,0,1:1:0:0:
92,160,237012,1,0,1:1:0:0:
92,140,237069,1,0,1:1:0:0:
92,120,237127,1,0,1:1:0:0:
92,100,237185,1,0,1:1:0:0:
92,80,237242,1,0,1:1:0:0:
92,60,237300,1,0,1:1:0:0:
112,60,237359,1,0,1:1:0:0:
128,60,237417,1,0,1:1:0:0:
148,60,237474,1,0,1:1:0:0:
168,60,237532,1,0,1:1:0:0:
188,60,237590,1,0,1:1:0:0:
208,60,237648,1,0,1:1:0:0:
228,60,237705,1,0,1:1:0:0:
248,60,237763,5,0,1:1:0:0:
268,60,237821,1,0,1:1:0:0:
288,60,237878,1,0,1:1:0:0:
308,60,237936,1,0,1:1:0:0:
328,60,237994,1,0,1:1:0:0:
348,60,238051,1,0,1:1:0:0:
368,60,238109,1,0,1:1:0:0:
400,60,238167,1,0,1:1:0:0:
400,76,238225,1,0,1:1:0:0:
400,96,238282,1,0,1:1:0:0:
400,116,238340,1,0,1:1:0:0:
400,136,238398,1,0,1:1:0:0:
400,156,238456,1,0,1:1:0:0:
400,176,238513,1,0,1:1:0:0:
400,196,238571,5,0,1:1:0:0:
400,216,238629,1,0,1:1:0:0:
400,236,238686,1,0,1:1:0:0:
400,256,238744,1,0,1:1:0:0:
400,276,238802,1,0,1:1:0:0:
400,296,238859,1,0,1:1:0:0:
400,316,238917,1,0,1:1:0:0:
372,316,238974,1,0,1:1:0:0:
356,316,239032,1,0,1:1:0:0:
336,316,239089,1,0,1:1:0:0:
316,316,239147,1,0,1:1:0:0:
296,316,239205,1,0,1:1:0:0:
276,316,239263,1,0,1:1:0:0:
256,316,239320,1,0,1:1:0:0:
236,316,239378,5,0,1:1:0:0:
216,316,239436,1,0,1:1:0:0:
196,316,239493,1,0,1:1:0:0:
176,316,239551,1,0,1:1:0:0:
156,316,239609,1,0,1:1:0:0:
136,316,239666,1,0,1:1:0:0:
116,316,239724,1,0,1:1:0:0:
92,316,239782,1,0,1:1:0:0:
92,300,239840,1,0,1:1:0:0:
92,280,239897,1,0,1:1:0:0:
92,260,239955,1,0,1:1:0:0:
92,240,240013,1,0,1:1:0:0:
92,220,240071,1,0,1:1:0:0:
92,200,240128,1,0,1:1:0:0:
92,180,240186,5,0,1:1:0:0:
92,160,240244,1,0,1:1:0:0:
92,140,240301,1,0,1:1:0:0:
92,120,240359,1,0,1:1:0:0:
92,100,240417,1,0,1:1:0:0:
92,80,240474,1,0,1:1:0:0:
92,60,240532,1,0,1:1:0:0:
112,60,240589,1,0,1:1:0:0:
128,60,240647,1,0,1:1:0:0:
148,60,240704,1,0,1:1:0:0:
168,60,240762,1,0,1:1:0:0:
188,60,240820,1,0,1:1:0:0:
208,60,240878,1,0,1:1:0:0:
228,60,240935,1,0,1:1:0:0:
248,60,240993,5,0,1:1:0:0:
268,60,241051,1,0,1:1:0:0:
288,60,241108,1,0,1:1:0:0:
308,60,241166,1,0,1:1:0:0:
328,60,241224,1,0,1:1:0:0:
348,60,241281,1,0,1:1:0:0:
368,60,241339,1,0,1:1:0:0:
400,60,241397,1,0,1:1:0:0:
400,76,241455,1,0,1:1:0:0:
400,96,241512,1,0,1:1:0:0:
400,116,241570,1,0,1:1:0:0:
400,136,241628,1,0,1:1:0:0:
400,156,241686,1,0,1:1:0:0:
400,176,241743,1,0,1:1:0:0:
400,196,241801,5,0,1:1:0:0:
400,216,241859,1,0,1:1:0:0:
400,236,241916,1,0,1:1:0:0:
400,256,241974,1,0,1:1:0:0:
400,276,242032,1,0,1:1:0:0:
400,296,242089,1,0,1:1:0:0:
400,316,242147,1,0,1:1:0:0:
372,316,242204,1,0,1:1:0:0:
356,316,242262,1,0,1:1:0:0:
336,316,242319,1,0,1:1:0:0:
316,316,242377,1,0,1:1:0:0:
296,316,242435,1,0,1:1:0:0:
276,316,242493,1,0,1:1:0:0:
256,316,242550,1,0,1:1:0:0:
236,316,242608,5,0,1:1:0:0:
216,316,242666,1,0,1:1:0:0:
196,316,242723,1,0,1:1:0:0:
176,316,242781,1,0,1:1:0:0:
156,316,242839,1,0,1:1:0:0:
136,316,242896,1,0,1:1:0:0:
116,316,242954,1,0,1:1:0:0:
92,316,243012,1,0,1:1:0:0:
92,300,243070,1,0,1:1:0:0:
92,280,243127,1,0,1:1:0:0:
92,260,243185,1,0,1:1:0:0:
92,240,243243,1,0,1:1:0:0:
92,220,243301,1,0,1:1:0:0:
92,200,243358,1,0,1:1:0:0:
92,180,243416,5,0,1:1:0:0:
92,160,243474,1,0,1:1:0:0:
92,140,243531,1,0,1:1:0:0:
92,120,243589,1,0,1:1:0:0:
92,100,243647,1,0,1:1:0:0:
92,80,243704,1,0,1:1:0:0:
92,60,243762,1,0,1:1:0:0:
112,60,243820,1,0,1:1:0:0:
128,60,243878,1,0,1:1:0:0:
148,60,243935,1,0,1:1:0:0:
168,60,243993,1,0,1:1:0:0:
188,60,244051,1,0,1:1:0:0:
208,60,244109,1,0,1:1:0:0:
228,60,244166,1,0,1:1:0:0:
248,60,244224,5,0,1:1:0:0:
268,60,244282,1,0,1:1:0:0:
288,60,244339,1,0,1:1:0:0:
308,60,244397,1,0,1:1:0:0:
328,60,244455,1,0,1:1:0:0:
348,60,244512,1,0,1:1:0:0:
368,60,244570,1,0,1:1:0:0:
400,60,244628,1,0,1:1:0:0:
400,76,244686,1,0,1:1:0:0:
400,96,244743,1,0,1:1:0:0:
400,116,244801,1,0,1:1:0:0:
400,136,244859,1,0,1:1:0:0:
400,156,244917,1,0,1:1:0:0:
400,176,244974,1,0,1:1:0:0:
400,196,245032,5,0,1:1:0:0:
400,216,245090,1,0,1:1:0:0:
400,236,245147,1,0,1:1:0:0:
400,256,245205,1,0,1:1:0:0:
400,276,245263,1,0,1:1:0:0:
400,296,245320,1,0,1:1:0:0:
400,316,245378,1,0,1:1:0:0:
372,316,245435,1,0,1:1:0:0:
356,316,245493,1,0,1:1:0:0:
336,316,245550,1,0,1:1:0:0:
316,316,245608,1,0,1:1:0:0:
296,316,245666,1,0,1:1:0:0:
276,316,245724,1,0,1:1:0:0:
256,316,245781,1,0,1:1:0:0:
236,316,245839,5,0,1:1:0:0:
216,316,245897,1,0,1:1:0:0:
196,316,245954,1,0,1:1:0:0:
176,316,246012,1,0,1:1:0:0:
156,316,246070,1,0,1:1:0:0:
136,316,246127,1,0,1:1:0:0:
116,316,246185,1,0,1:1:0:0:
92,316,246243,1,0,1:1:0:0:
92,300,246301,1,0,1:1:0:0:
92,280,246358,1,0,1:1:0:0:
92,260,246416,1,0,1:1:0:0:
92,240,246474,1,0,1:1:0:0:
92,220,246532,1,0,1:1:0:0:
92,200,246589,1,0,1:1:0:0:
92,180,246647,5,0,1:1:0:0:
92,160,246705,1,0,1:1:0:0:
92,140,246762,1,0,1:1:0:0:
92,120,246820,1,0,1:1:0:0:
92,100,246878,1,0,1:1:0:0:
92,80,246935,1,0,1:1:0:0:
92,60,246993,1,0,1:1:0:0:
112,60,247051,1,0,1:1:0:0:
128,60,247109,1,0,1:1:0:0:
148,60,247166,1,0,1:1:0:0:
168,60,247224,1,0,1:1:0:0:
188,60,247282,1,0,1:1:0:0:
208,60,247340,1,0,1:1:0:0:
228,60,247397,1,0,1:1:0:0:
248,60,247455,5,0,1:1:0:0:
268,60,247513,1,0,1:1:0:0:
288,60,247570,1,0,1:1:0:0:
308,60,247628,1,0,1:1:0:0:
328,60,247686,1,0,1:1:0:0:
348,60,247743,1,0,1:1:0:0:
368,60,247801,1,0,1:1:0:0:
400,60,247859,1,0,1:1:0:0:
400,76,247917,1,0,1:1:0:0:
400,96,247974,1,0,1:1:0:0:
400,116,248032,1,0,1:1:0:0:
400,136,248090,1,0,1:1:0:0:
400,156,248148,1,0,1:1:0:0:
400,176,248205,1,0,1:1:0:0:
400,196,248263,5,0,1:1:0:0:
400,216,248321,1,0,1:1:0:0:
400,236,248378,1,0,1:1:0:0:
400,256,248436,1,0,1:1:0:0:
400,276,248494,1,0,1:1:0:0:
400,296,248551,1,0,1:1:0:0:
400,316,248609,1,0,1:1:0:0:
372,316,248666,1,0,1:1:0:0:
356,316,248724,1,0,1:1:0:0:
336,316,248781,1,0,1:1:0:0:
316,316,248839,1,0,1:1:0:0:
296,316,248897,1,0,1:1:0:0:
276,316,248955,1,0,1:1:0:0:
256,316,249012,1,0,1:1:0:0:
236,316,249070,5,0,1:1:0:0:
216,316,249128,1,0,1:1:0:0:
196,316,249185,1,0,1:1:0:0:
176,316,249243,1,0,1:1:0:0:
156,316,249301,1,0,1:1:0:0:
136,316,249358,1,0,1:1:0:0:
116,316,249416,1,0,1:1:0:0:
92,316,249474,1,0,1:1:0:0:
92,300,249532,1,0,1:1:0:0:
92,280,249589,1,0,1:1:0:0:
92,260,249647,1,0,1:1:0:0:
92,240,249705,1,0,1:1:0:0:
92,220,249763,1,0,1:1:0:0:
92,200,249820,1,0,1:1:0:0:
92,180,249878,5,0,1:1:0:0:
92,160,249936,1,0,1:1:0:0:
92,140,249993,1,0,1:1:0:0:
92,120,250051,1,0,1:1:0:0:
92,100,250109,1,0,1:1:0:0:
92,80,250166,1,0,1:1:0:0:
92,60,250224,1,0,1:1:0:0:
112,60,250281,1,0,1:1:0:0:
128,60,250339,1,0,1:1:0:0:
148,60,250396,1,0,1:1:0:0:
168,60,250454,1,0,1:1:0:0:
188,60,250512,1,0,1:1:0:0:
208,60,250570,1,0,1:1:0:0:
228,60,250627,1,0,1:1:0:0:
248,60,250685,5,0,1:1:0:0:
268,60,250743,1,0,1:1:0:0:
288,60,250800,1,0,1:1:0:0:
308,60,250858,1,0,1:1:0:0:
328,60,250916,1,0,1:1:0:0:
348,60,250973,1,0,1:1:0:0:
368,60,251031,1,0,1:1:0:0:
400,60,251089,1,0,1:1:0:0:
400,76,251147,1,0,1:1:0:0:
400,96,251204,1,0,1:1:0:0:
400,116,251262,1,0,1:1:0:0:
400,136,251320,1,0,1:1:0:0:
400,156,251378,1,0,1:1:0:0:
400,176,251435,1,0,1:1:0:0:
400,196,251493,5,0,1:1:0:0:
400,216,251551,1,0,1:1:0:0:
400,236,251608,1,0,1:1:0:0:
400,256,251666,1,0,1:1:0:0:
400,276,251724,1,0,1:1:0:0:
400,296,251781,1,0,1:1:0:0:
400,316,251839,1,0,1:1:0:0:
372,316,251896,1,0,1:1:0:0:
356,316,251954,1,0,1:1:0:0:
336,316,252011,1,0,1:1:0:0:
316,316,252069,1,0,1:1:0:0:
296,316,252127,1,0,1:1:0:0:
276,316,252185,1,0,1:1:0:0:
256,316,252242,1,0,1:1:0:0:
236,316,252300,5,0,1:1:0:0:
216,316,252358,1,0,1:1:0:0:
196,316,252415,1,0,1:1:0:0:
176,316,252473,1,0,1:1:0:0:
156,316,252531,1,0,1:1:0:0:
136,316,252588,1,0,1:1:0:0:
116,316,252646,1,0,1:1:0:0:
92,316,252704,1,0,1:1:0:0:
92,300,252762,1,0,1:1:0:0:
92,280,252819,1,0,1:1:0:0:
92,260,252877,1,0,1:1:0:0:
92,240,252935,1,0,1:1:0:0:
92,220,252993,1,0,1:1:0:0:
92,200,253050,1,0,1:1:0:0:
92,180,253108,5,0,1:1:0:0:
92,160,253166,1,0,1:1:0:0:
92,140,253223,1,0,1:1:0:0:
92,120,253281,1,0,1:1:0:0:
92,100,253339,1,0,1:1:0:0:
92,80,253396,1,0,1:1:0:0:
92,60,253454,1,0,1:1:0:0:
112,60,253511,1,0,1:1:0:0:
128,60,253569,1,0,1:1:0:0:
148,60,253626,1,0,1:1:0:0:
168,60,253684,1,0,1:1:0:0:
188,60,253742,1,0,1:1:0:0:
208,60,253800,1,0,1:1:0:0:
228,60,253857,1,0,1:1:0:0:
248,60,253915,5,0,1:1:0:0:
268,60,253973,1,0,1:1:0:0:
288,60,254030,1,0,1:1:0:0:
308,60,254088,1,0,1:1:0:0:
328,60,254146,1,0,1:1:0:0:
348,60,254203,1,0,1:1:0:0:
368,60,254261,1,0,1:1:0:0:
400,60,254319,1,0,1:1:0:0:
400,76,254377,1,0,1:1:0:0:
400,96,254434,1,0,1:1:0:0:
400,116,254492,1,0,1:1:0:0:
400,136,254550,1,0,1:1:0:0:
400,156,254608,1,0,1:1:0:0:
400,176,254665,1,0,1:1:0:0:
400,196,254723,5,0,1:1:0:0:
400,216,254781,1,0,1:1:0:0:
400,236,254838,1,0,1:1:0:0:
400,256,254896,1,0,1:1:0:0:
400,276,254954,1,0,1:1:0:0:
400,296,255011,1,0,1:1:0:0:
400,316,255069,1,0,1:1:0:0:
372,316,255126,1,0,1:1:0:0:
356,316,255184,1,0,1:1:0:0:
336,316,255241,1,0,1:1:0:0:
316,316,255299,1,0,1:1:0:0:
296,316,255357,1,0,1:1:0:0:
276,316,255415,1,0,1:1:0:0:
256,316,255472,1,0,1:1:0:0:
236,316,255530,5,0,1:1:0:0:
216,316,255588,1,0,1:1:0:0:
196,316,255645,1,0,1:1:0:0:
176,316,255703,1,0,1:1:0:0:
156,316,255761,1,0,1:1:0:0:
136,316,255818,1,0,1:1:0:0:
116,316,255876,1,0,1:1:0:0:
92,316,255934,1,0,1:1:0:0:
92,300,255992,1,0,1:1:0:0:
92,280,256049,1,0,1:1:0:0:
92,260,256107,1,0,1:1:0:0:
92,240,256165,1,0,1:1:0:0:
92,220,256223,1,0,1:1:0:0:
92,200,256280,1,0,1:1:0:0:
92,180,256338,5,0,1:1:0:0:
92,160,256396,1,0,1:1:0:0:
92,140,256453,1,0,1:1:0:0:
92,120,256511,1,0,1:1:0:0:
92,100,256569,1,0,1:1:0:0:
92,80,256626,1,0,1:1:0:0:
92,60,256684,1,0,1:1:0:0:
112,60,256743,1,0,1:1:0:0:
128,60,256801,1,0,1:1:0:0:
148,60,256858,1,0,1:1:0:0:
168,60,256916,1,0,1:1:0:0:
188,60,256974,1,0,1:1:0:0:
208,60,257032,1,0,1:1:0:0:
228,60,257089,1,0,1:1:0:0:
248,60,257147,5,0,1:1:0:0:
268,60,257205,1,0,1:1:0:0:
288,60,257262,1,0,1:1:0:0:
308,60,257320,1,0,1:1:0:0:
328,60,257378,1,0,1:1:0:0:
348,60,257435,1,0,1:1:0:0:
368,60,257493,1,0,1:1:0:0:
400,60,257551,1,0,1:1:0:0:
400,76,257609,1,0,1:1:0:0:
400,96,257666,1,0,1:1:0:0:
400,116,257724,1,0,1:1:0:0:
400,136,257782,1,0,1:1:0:0:
400,156,257840,1,0,1:1:0:0:
400,176,257897,1,0,1:1:0:0:
400,196,257955,5,0,1:1:0:0:
400,216,258013,1,0,1:1:0:0:
400,236,258070,1,0,1:1:0:0:
400,256,258128,1,0,1:1:0:0:
400,276,258186,1,0,1:1:0:0:
400,296,258243,1,0,1:1:0:0:
400,316,258301,1,0,1:1:0:0:
372,316,258358,1,0,1:1:0:0:
356,316,258416,1,0,1:1:0:0:
336,316,258473,1,0,1:1:0:0:
316,316,258531,1,0,1:1:0:0:
296,316,258589,1,0,1:1:0:0:
276,316,258647,1,0,1:1:0:0:
256,316,258704,1,0,1:1:0:0:
236,316,258762,5,0,1:1:0:0:
216,316,258820,1,0,1:1:0:0:
196,316,258877,1,0,1:1:0:0:
176,316,258935,1,0,1:1:0:0:
156,316,258993,1,0,1:1:0:0:
136,316,259050,1,0,1:1:0:0:
116,316,259108,1,0,1:1:0:0:
92,316,259166,1,0,1:1:0:0:
92,300,259224,1,0,1:1:0:0:
92,280,259281,1,0,1:1:0:0:
92,260,259339,1,0,1:1:0:0:
92,240,259397,1,0,1:1:0:0:
92,220,259455,1,0,1:1:0:0:
92,200,259512,1,0,1:1:0:0:
92,180,259570,5,0,1:1:0:0:
92,160,259628,1,0,1:1:0:0:
92,140,259685,1,0,1:1:0:0:
92,120,259743,1,0,1:1:0:0:
92,100,259801,1,0,1:1:0:0:
92,80,259858,1,0,1:1:0:0:
92,60,259916,1,0,1:1:0:0:
112,60,259973,1,0,1:1:0:0:
128,60,260031,1,0,1:1:0:0:
148,60,260088,1,0,1:1:0:0:
168,60,260146,1,0,1:1:0:0:
188,60,260204,1,0,1:1:0:0:
208,60,260262,1,0,1:1:0:0:
228,60,260319,1,0,1:1:0:0:
248,60,260377,5,0,1:1:0:0:
268,60,260435,1,0,1:1:0:0:
288,60,260492,1,0,1:1:0:0:
308,60,260550,1,0,1:1:0:0:
328,60,260608,1,0,1:1:0:0:
348,60,260665,1,0,1:1:0:0:
368,60,260723,1,0,1:1:0:0:
400,60,260781,1,0,1:1:0:0:
400,76,260839,1,0,1:1:0:0:
400,96,260896,1,0,1:1:0:0:
400,116,260954,1,0,1:1:0:0:
400,136,261012,1,0,1:1:0:0:
400,156,261070,1,0,1:1:0:0:
400,176,261127,1,0,1:1:0:0:
400,196,261185,5,0,1:1:0:0:
400,216,261243,1,0,1:1:0:0:
400,236,261300,1,0,1:1:0:0:
400,256,261358,1,0,1:1:0:0:
400,276,261416,1,0,1:1:0:0:
400,296,261473,1,0,1:1:0:0:
400,316,261531,1,0,1:1:0:0:
372,316,261588,1,0,1:1:0:0:
356,316,261646,1,0,1:1:0:0:
336,316,261703,1,0,1:1:0:0:
316,316,261761,1,0,1:1:0:0:
296,316,261819,1,0,1:1:0:0:
276,316,261877,1,0,1:1:0:0:
256,316,261934,1,0,1:1:0:0:
236,316,261992,5,0,1:1:0:0:
216,316,262050,1,0,1:1:0:0:
196,316,262107,1,0,1:1:0:0:
176,316,262165,1,0,1:1:0:0:
156,316,262223,1,0,1:1:0:0:
136,316,262280,1,0,1:1:0:0:
116,316,262338,1,0,1:1:0:0:
92,316,262396,1,0,1:1:0:0:
92,300,262454,1,0,1:1:0:0:
92,280,262511,1,0,1:1:0:0:
92,260,262569,1,0,1:1:0:0:
92,240,262627,1,0,1:1:0:0:
92,220,262685,1,0,1:1:0:0:
92,200,262742,1,0,1:1:0:0:
92,180,262800,5,0,1:1:0:0:
92,160,262858,1,0,1:1:0:0:
92,140,262915,1,0,1:1:0:0:
92,120,262973,1,0,1:1:0:0:
92,100,263031,1,0,1:1:0:0:
92,80,263088,1,0,1:1:0:0:
92,60,263146,1,0,1:1:0:0:
112,60,263204,1,0,1:1:0:0:
128,60,263262,1,0,1:1:0:0:
148,60,263319,1,0,1:1:0:0:
168,60,263377,1,0,1:1:0:0:
188,60,263435,1,0,1:1:0:0:
208,60,263493,1,0,1:1:0:0:
228,60,263550,1,0,1:1:0:0:
248,60,263608,5,0,1:1:0:0:
268,60,263666,1,0,1:1:0:0:
288,60,263723,1,0,1:1:0:0:
308,60,263781,1,0,1:1:0:0:
328,60,263839,1,0,1:1:0:0:
348,60,263896,1,0,1:1:0:0:
368,60,263954,1,0,1:1:0:0:
400,60,264012,1,0,1:1:0:0:
400,76,264070,1,0,1:1:0:0:
400,96,264127,1,0,1:1:0:0:
400,116,264185,1,0,1:1:0:0:
400,136,264243,1,0,1:1:0:0:
400,156,264301,1,0,1:1:0:0:
400,176,264358,1,0,1:1:0:0:
400,196,264416,5,0,1:1:0:0:
400,216,264474,1,0,1:1:0:0:
400,236,264531,1,0,1:1:0:0:
400,256,264589,1,0,1:1:0:0:
400,276,264647,1,0,1:1:0:0:
400,296,264704,1,0,1:1:0:0:
400,316,264762,1,0,1:1:0:0:
372,316,264819,1,0,1:1:0:0:
356,316,264877,1,0,1:1:0:0:
336,316,264934,1,0,1:1:0:0:
316,316,264992,1,0,1:1:0:0:
296,316,265050,1,0,1:1:0:0:
276,316,265108,1,0,1:1:0:0:
256,316,265165,1,0,1:1:0:0:
236,316,265223,5,0,1:1:0:0:
216,316,265281,1,0,1:1:0:0:
196,316,265338,1,0,1:1:0:0:
176,316,265396,1,0,1:1:0:0:
156,316,265454,1,0,1:1:0:0:
136,316,265511,1,0,1:1:0:0:
116,316,265569,1,0,1:1:0:0:
92,316,265627,1,0,1:1:0:0:
92,300,265685,1,0,1:1:0:0:
92,280,265742,1,0,1:1:0:0:
92,260,265800,1,0,1:1:0:0:
92,240,265858,1,0,1:1:0:0:
92,220,265916,1,0,1:1:0:0:
92,200,265973,1,0,1:1:0:0:
92,180,266031,5,0,1:1:0:0:
92,160,266089,1,0,1:1:0:0:
92,140,266146,1,0,1:1:0:0:
92,120,266204,1,0,1:1:0:0:
92,100,266262,1,0,1:1:0:0:
92,80,266319,1,0,1:1:0:0:
92,60,266377,1,0,1:1:0:0:
112,60,266435,1,0,1:1:0:0:
128,60,266493,1,0,1:1:0:0:
148,60,266550,1,0,1:1:0:0:
168,60,266608,1,0,1:1:0:0:
188,60,266666,1,0,1:1:0:0:
208,60,266724,1,0,1:1:0:0:
228,60,266781,1,0,1:1:0:0:
248,60,266839,5,0,1:1:0:0:
268,60,266897,1,0,1:1:0:0:
288,60,266954,1,0,1:1:0:0:
308,60,267012,1,0,1:1:0:0:
328,60,267070,1,0,1:1:0:0:
348,60,267127,1,0,1:1:0:0:
368,60,267185,1,0,1:1:0:0:
400,60,267243,1,0,1:1:0:0:
400,76,267301,1,0,1:1:0:0:
400,96,267358,1,0,1:1:0:0:
400,116,267416,1,0,1:1:0:0:
400,136,267474,1,0,1:1:0:0:
400,156,267532,1,0,1:1:0:0:
400,176,267589,1,0,1:1:0:0:
400,196,267647,5,0,1:1:0:0:
400,216,267705,1,0,1:1:0:0:
400,236,267762,1,0,1:1:0:0:
400,256,267820,1,0,1:1:0:0:
400,276,267878,1,0,1:1:0:0:
400,296,267935,1,0,1:1:0:0:
400,316,267993,1,0,1:1:0:0:
372,316,268050,1,0,1:1:0:0:
356,316,268108,1,0,1:1:0:0:
336,316,268165,1,0,1:1:0:0:
316,316,268223,1,0,1:1:0:0:
296,316,268281,1,0,1:1:0:0:
276,316,268339,1,0,1:1:0:0:
256,316,268396,1,0,1:1:0:0:
236,316,268454,5,0,1:1:0:0:
216,316,268512,1,0,1:1:0:0:
196,316,268569,1,0,1:1:0:0:
176,316,268627,1,0,1:1:0:0:
156,316,268685,1,0,1:1:0:0:
136,316,268742,1,0,1:1:0:0:
116,316,268800,1,0,1:1:0:0:
92,316,268858,1,0,1:1:0:0:
92,300,268916,1,0,1:1:0:0:
92,280,268973,1,0,1:1:0:0:
92,260,269031,1,0,1:1:0:0:
92,240,269089,1,0,1:1:0:0:
92,220,269147,1,0,1:1:0:0:
92,200,269204,1,0,1:1:0:0:
92,180,269262,5,0,1:1:0:0:
92,160,269320,1,0,1:1:0:0:
92,140,269377,1,0,1:1:0:0:
92,120,269435,1,0,1:1:0:0:
92,100,269493,1,0,1:1:0:0:
92,80,269550,1,0,1:1:0:0:
92,60,269608,1,0,1:1:0:0:
112,60,269666,1,0,1:1:0:0:
128,60,269724,1,0,1:1:0:0:
148,60,269781,1,0,1:1:0:0:
168,60,269839,1,0,1:1:0:0:
188,60,269897,1,0,1:1:0:0:
208,60,269955,1,0,1:1:0:0:
228,60,270012,1,0,1:1:0:0:
248,60,270070,5,0,1:1:0:0:
268,60,270128,1,0,1:1:0:0:
288,60,270185,1,0,1:1:0:0:
308,60,270243,1,0,1:1:0:0:
328,60,270301,1,0,1:1:0:0:
348,60,270358,1,0,1:1:0:0:
368,60,270416,1,0,1:1:0:0:
400,60,270474,1,0,1:1:0:0:
400,76,270532,1,0,1:1:0:0:
400,96,270589,1,0,1:1:0:0:
400,116,270647,1,0,1:1:0:0:
400,136,270705,1,0,1:1:0:0:
400,156,270763,1,0,1:1:0:0:
400,176,270820,1,0,1:1:0:0:
400,196,270878,5,0,1:1:0:0:
400,216,270936,1,0,1:1:0:0:
400,236,270993,1,0,1:1:0:0:
400,256,271051,1,0,1:1:0:0:
400,276,271109,1,0,1:1:0:0:
400,296,271166,1,0,1:1:0:0:
400,316,271224,1,0,1:1:0:0:
372,316,271281,1,0,1:1:0:0:
356,316,271339,1,0,1:1:0:0:
336,316,271396,1,0,1:1:0:0:
316,316,271454,1,0,1:1:0:0:
296,316,271512,1,0,1:1:0:0:
276,316,271570,1,0,1:1:0:0:
256,316,271627,1,0,1:1:0:0:
236,316,271685,5,0,1:1:0:0:
216,316,271743,1,0,1:1:0:0:
196,316,271800,1,0,1:1:0:0:
176,316,271858,1,0,1:1:0:0:
156,316,271916,1,0,1:1:0:0:
136,316,271973,1,0,1:1:0:0:
116,316,272031,1,0,1:1:0:0:
92,316,272089,1,0,1:1:0:0:
92,300,272147,1,0,1:1:0:0:
92,280,272204,1,0,1:1:0:0:
92,260,272262,1,0,1:1:0:0:
92,240,272320,1,0,1:1:0:0:
92,220,272378,1,0,1:1:0:0:
92,200,272435,1,0,1:1:0:0:
92,180,272493,5,0,1:1:0:0:
92,160,272551,1,0,1:1:0:0:
92,140,272608,1,0,1:1:0:0:
92,120,272666,1,0,1:1:0:0:
92,100,272724,1,0,1:1:0:0:
92,80,272781,1,0,1:1:0:0:
92,60,272839,1,0,1:1:0:0:
112,60,272896,1,0,1:1:0:0:
128,60,272954,1,0,1:1:0:0:
148,60,273011,1,0,1:1:0:0:
168,60,273069,1,0,1:1:0:0:
188,60,273127,1,0,1:1:0:0:
208,60,273185,1,0,1:1:0:0:
228,60,273242,1,0,1:1:0:0:
248,60,273300,5,0,1:1:0:0:
268,60,273358,1,0,1:1:0:0:
288,60,273415,1,0,1:1:0:0:
308,60,273473,1,0,1:1:0:0:
328,60,273531,1,0,1:1:0:0:
348,60,273588,1,0,1:1:0:0:
368,60,273646,1,0,1:1:0:0:
400,60,273704,1,0,1:1:0:0:
400,76,273762,1,0,1:1:0:0:
400,96,273819,1,0,1:1:0:0:
400,116,273877,1,0,1:1:0:0:
400,136,273935,1,0,1:1:0:0:
400,156,273993,1,0,1:1:0:0:
400,176,274050,1,0,1:1:0:0:
400,196,274108,5,0,1:1:0:0:
400,216,274166,1,0,1:1:0:0:
400,236,274223,1,0,1:1:0:0:
400,256,274281,1,0,1:1:0:0:
400,276,274339,1,0,1:1:0:0:
400,296,274396,1,0,1:1:0:0:
400,316,274454,1,0,1:1:0:0:
372,316,274511,1,0,1:1:0:0:
356,316,274569,1,0,1:1:0:0:
336,316,274626,1,0,1:1:0:0:
316,316,274684,1,0,1:1:0:0:
296,316,274742,1,0,1:1:0:0:
276,316,274800,1,0,1:1:0:0:
256,316,274857,1,0,1:1:0:0:
236,316,274915,5,0,1:1:0:0:
216,316,274973,1,0,1:1:0:0:
196,316,275030,1,0,1:1:0:0:
176,316,275088,1,0,1:1:0:0:
156,316,275146,1,0,1:1:0:0:
136,316,275203,1,0,1:1:0:0:
116,316,275261,1,0,1:1:0:0:
92,316,275319,1,0,1:1:0:0:
92,300,275377,1,0,1:1:0:0:
92,280,275434,1,0,1:1:0:0:
92,260,275492,1,0,1:1:0:0:
92,240,275550,1,0,1:1:0:0:
92,220,275608,1,0,1:1:0:0:
92,200,275665,1,0,1:1:0:0:
92,180,275723,5,0,1:1:0:0:
92,160,275781,1,0,1:1:0:0:
92,140,275838,1,0,1:1:0:0:
92,120,275896,1,0,1:1:0:0:
92,100,275954,1,0,1:1:0:0:
92,80,276011,1,0,1:1:0:0:
92,60,276069,1,0,1:1:0:0:
112,60,276128,1,0,1:1:0:0:
128,60,276186,1,0,1:1:0:0:
148,60,276243,1,0,1:1:0:0:
168,60,276301,1,0,1:1:0:0:
188,60,276359,1,0,1:1:0:0:
208,60,276417,1,0,1:1:0:0:
228,60,276474,1,0,1:1:0:0:
248,60,276532,5,0,1:1:0:0:
268,60,276590,1,0,1:1:0:0:
288,60,276647,1,0,1:1:0:0:
308,60,276705,1,0,1:1:0:0:
328,60,276763,1,0,1:1:0:0:
348,60,276820,1,0,1:1:0:0:
368,60,276878,1,0,1:1:0:0:
400,60,276936,1,0,1:1:0:0:
400,76,276994,1,0,1:1:0:0:
400,96,277051,1,0,1:1:0:0:
400,116,277109,1,0,1:1:0:0:
400,136,277167,1,0,1:1:0:0:
400,156,277225,1,0,1:1:0:0:
400,176,277282,1,0,1:1:0:0:
400,196,277340,5,0,1:1:0:0:
400,216,277398,1,0,1:1:0:0:
400,236,277455,1,0,1:1:0:0:
400,256,277513,1,0,1:1:0:0:
400,276,277571,1,0,1:1:0:0:
400,296,277628,1,0,1:1:0:0:
400,316,277686,1,0,1:1:0:0:
372,316,277743,1,0,1:1:0:0:
356,316,277801,1,0,1:1:0:0:
336,316,277858,1,0,1:1:0:0:
316,316,277916,1,0,1:1:0:0:
296,316,277974,1,0,1:1:0:0:
276,316,278032,1,0,1:1:0:0:
256,316,278089,1,0,1:1:0:0:
236,316,278147,5,0,1:1:0:0:
216,316,278205,1,0,1:1:0:0:
196,316,278262,1,0,1:1:0:0:
176,316,278320,1,0,1:1:0:0:
156,316,278378,1,0,1:1:0:0:
136,316,278435,1,0,1:1:0:0:
116,316,278493,1,0,1:1:0:0:
92,316,278551,1,0,1:1:0:0:
92,300,278609,1,0,1:1:0:0:
92,280,278666,1,0,1:1:0:0:
92,260,278724,1,0,1:1:0:0:
92,240,278782,1,0,1:1:0:0:
92,220,278840,1,0,1:1:0:0:
92,200,278897,1,0,1:1:0:0:
92,180,278955,5,0,1:1:0:0:
92,160,279013,1,0,1:1:0:0:
92,140,279070,1,0,1:1:0:0:
92,120,279128,1,0,1:1:0:0:
92,100,279186,1,0,1:1:0:0:
92,80,279243,1,0,1:1:0:0:
92,60,279301,1,0,1:1:0:0:
112,60,279358,1,0,1:1:0:0:
128,60,279416,1,0,1:1:0:0:
148,60,279473,1,0,1:1:0:0:
168,60,279531,1,0,1:1:0:0:
188,60,279589,1,0,1:1:0:0:
208,60,279647,1,0,1:1:0:0:
228,60,279704,1,0,1:1:0:0:
248,60,279762,5,0,1:1:0:0:
268,60,279820,1,0,1:1:0:0:
288,60,279877,1,0,1:1:0:0:
308,60,279935,1,0,1:1:0:0:
328,60,279993,1,0,1:1:0:0:
348,60,280050,1,0,1:1:0:0:
368,60,280108,1,0,1:1:0:0:
400,60,280166,1,0,1:1:0:0:
400,76,280224,1,0,1:1:0:0:
400,96,280281,1,0,1:1:0:0:
400,116,280339,1,0,1:1:0:0:
400,136,280397,1,0,1:1:0:0:
400,156,280455,1,0,1:1:0:0:
400,176,280512,1,0,1:1:0:0:
400,196,280570,5,0,1:1:0:0:
400,216,280628,1,0,1:1:0:0:
400,236,280685,1,0,1:1:0:0:
400,256,280743,1,0,1:1:0:0:
400,276,280801,1,0,1:1:0:0:
400,296,280858,1,0,1:1:0:0:
400,316,280916,1,0,1:1:0:0:
372,316,280973,1,0,1:1:0:0:
356,316,281031,1,0,1:1:0:0:
336,316,281088,1,0,1:1:0:0:
316,316,281146,1,0,1:1:0:0:
296,316,281204,1,0,1:1:0:0:
276,316,281262,1,0,1:1:0:0:
256,316,281319,1,0,1:1:0:0:
236,316,281377,5,0,1:1:0:0:
216,316,281435,1,0,1:1:0:0:
196,316,281492,1,0,1:1:0:0:
176,316,281550,1,0,1:1:0:0:
156,316,281608,1,0,1:1:0:0:
136,316,281665,1,0,1:1:0:0:
116,316,281723,1,0,1:1:0:0:
92,316,281781,1,0,1:1:0:0:
92,300,281839,1,0,1:1:0:0:
92,280,281896,1,0,1:1:0:0:
92,260,281954,1,0,1:1:0:0:
92,240,282012,1,0,1:1:0:0:
92,220,282070,1,0,1:1:0:0:
92,200,282127,1,0,1:1:0:0:
92,180,282185,5,0,1:1:0:0:
92,160,282243,1,0,1:1:0:0:
92,140,282300,1,0,1:1:0:0:
92,120,282358,1,0,1:1:0:0:
92,100,282416,1,0,1:1:0:0:
92,80,282473,1,0,1:1:0:0:
92,60,282531,1,0,1:1:0:0:
112,60,282589,1,0,1:1:0:0:
128,60,282647,1,0,1:1:0:0:
148,60,282704,1,0,1:1:0:0:
168,60,282762,1,0,1:1:0:0:
188,60,282820,1,0,1:1:0:0:
208,60,282878,1,0,1:1:0:0:
228,60,282935,1,0,1:1:0:0:
248,60,282993,5,0,1:1:0:0:
268,60,283051,1,0,1:1:0:0:
288,60,283108,1,0,1:1:0:0:
308,60,283166,1,0,1:1:0:0:
328,60,283224,1,0,1:1:0:0:
348,60,283281,1,0,1:1:0:0:
368,60,283339,1,0,1:1:0:0:
400,60,283397,1,0,1:1:0:0:
400,76,283455,1,0,1:1:0:0:
400,96,283512,1,0,1:1:0:0:
400,116,283570,1,0,1:1:0:0:
400,136,283628,1,0,1:1:0:0:
400,156,283686,1,0,1:1:0:0:
400,176,283743,1,0,1:1:0:0:
400,196,283801,5,0,1:1:0:0:
400,216,283859,1,0,1:1:0:0:
400,236,283916,1,0,1:1:0:0:
400,256,283974,1,0,1:1:0:0:
400,276,284032,1,0,1:1:0:0:
400,296,284089,1,0,1:1:0:0:
400,316,284147,1,0,1:1:0:0:
372,316,284204,1,0,1:1:0:0:
356,316,284262,1,0,1:1:0:0:
336,316,284319,1,0,1:1:0:0:
316,316,284377,1,0,1:1:0:0:
296,316,284435,1,0,1:1:0:0:
276,316,284493,1,0,1:1:0:0:
256,316,284550,1,0,1:1:0:0:
236,316,284608,5,0,1:1:0:0:
216,316,284666,1,0,1:1:0:0:
196,316,284723,1,0,1:1:0:0:
176,316,284781,1,0,1:1:0:0:
156,316,284839,1,0,1:1:0:0:
136,316,284896,1,0,1:1:0:0:
116,316,284954,1,0,1:1:0:0:
92,316,285012,1,0,1:1:0:0:
92,300,285070,1,0,1:1:0:0:
92,280,285127,1,0,1:1:0:0:
92,260,285185,1,0,1:1:0:0:
92,240,285243,1,0,1:1:0:0:
92,220,285301,1,0,1:1:0:0:
92,200,285358,1,0,1:1:0:0:
92,180,285416,5,0,1:1:0:0:
92,160,285474,1,0,1:1:0:0:
92,140,285531,1,0,1:1:0:0:
92,120,285589,1,0,1:1:0:0:
92,100,285647,1,0,1:1:0:0:
92,80,285704,1,0,1:1:0:0:
92,60,285762,1,0,1:1:0:0:
112,60,285820,1,0,1:1:0:0:
128,60,285878,1,0,1:1:0:0:
148,60,285935,1,0,1:1:0:0:
168,60,285993,1,0,1:1:0:0:
188,60,286051,1,0,1:1:0:0:
208,60,286109,1,0,1:1:0:0:
228,60,286166,1,0,1:1:0:0:
248,60,286224,5,0,1:1:0:0:
268,60,286282,1,0,1:1:0:0:
288,60,286339,1,0,1:1:0:0:
308,60,286397,1,0,1:1:0:0:
328,60,286455,1,0,1:1:0:0:
348,60,286512,1,0,1:1:0:0:
368,60,286570,1,0,1:1:0:0:
400,60,286628,1,0,1:1:0:0:
400,76,286686,1,0,1:1:0:0:
400,96,286743,1,0,1:1:0:0:
400,116,286801,1,0,1:1:0:0:
400,136,286859,1,0,1:1:0:0:
400,156,286917,1,0,1:1:0:0:
400,176,286974,1,0,1:1:0:0:
400,196,287032,5,0,1:1:0:0:
400,216,287090,1,0,1:1:0:0:
400,236,287147,1,0,1:1:0:0:
400,256,287205,1,0,1:1:0:0:
400,276,287263,1,0,1:1:0:0:
400,296,287320,1,0,1:1:0:0:
400,316,287378,1,0,1:1:0:0:
372,316,287435,1,0,1:1:0:0:
356,316,287493,1,0,1:1:0:0:
336,316,287550,1,0,1:1:0:0:
316,316,287608,1,0,1:1:0:0:
296,316,287666,1,0,1:1:0:0:
276,316,287724,1,0,1:1:0:0:
256,316,287781,1,0,1:1:0:0:
236,316,287839,5,0,1:1:0:0:
216,316,287897,1,0,1:1:0:0:
196,316,287954,1,0,1:1:0:0:
176,316,288012,1,0,1:1:0:0:
156,316,288070,1,0,1:1:0:0:
136,316,288127,1,0,1:1:0:0:
116,316,288185,1,0,1:1:0:0:
92,316,288243,1,0,1:1:0:0:
92,300,288301,1,0,1:1:0:0:
92,280,288358,1,0,1:1:0:0:
92,260,288416,1,0,1:1:0:0:
92,240,288474,1,0,1:1:0:0:
92,220,288532,1,0,1:1:0:0:
92,200,288589,1,0,1:1:0:0:
92,180,288647,5,0,1:1:0:0:
92,160,288705,1,0,1:1:0:0:
92,140,288762,1,0,1:1:0:0:
92,120,288820,1,0,1:1:0:0:
92,100,288878,1,0,1:1:0:0:
92,80,288935,1,0,1:1:0:0:
92,60,288993,1,0,1:1:0:0:
112,60,289051,1,0,1:1:0:0:
128,60,289109,1,0,1:1:0:0:
148,60,289166,1,0,1:1:0:0:
168,60,289224,1,0,1:1:0:0:
188,60,289282,1,0,1:1:0:0:
208,60,289340,1,0,1:1:0:0:
228,60,289397,1,0,1:1:0:0:
248,60,289455,5,0,1:1:0:0:
268,60,289513,1,0,1:1:0:0:
288,60,289570,1,0,1:1:0:0:
308,60,289628,1,0,1:1:0:0:
328,60,289686,1,0,1:1:0:0:
348,60,289743,1,0,1:1:0:0:
368,60,289801,1,0,1:1:0:0:
400,60,289859,1,0,1:1:0:0:
400,76,289917,1,0,1:1:0:0:
400,96,289974,1,0,1:1:0:0:
400,116,290032,1,0,1:1:0:0:
400,136,290090,1,0,1:1:0:0:
400,156,290148,1,0,1:1:0:0:
400,176,290205,1,0,1:1:0:0:
400,196,290263,5,0,1:1:0:0:
400,216,290321,1,0,1:1:0:0:
400,236,290378,1,0,1:1:0:0:
400,256,290436,1,0,1:1:0:0:
400,276,290494,1,0,1:1:0:0:
400,296,290551,1,0,1:1:0:0:
400,316,290609,1,0,1:1:0:0:
372,316,290666,1,0,1:1:0:0:
356,316,290724,1,0,1:1:0:0:
336,316,290781,1,0,1:1:0:0:
316,316,290839,1,0,1:1:0:0:
296,316,290897,1,0,1:1:0:0:
276,316,290955,1,0,1:1:0:0:
256,316,291012,1,0,1:1:0:0:
236,316,291070,5,0,1:1:0:0:
216,316,291128,1,0,1:1:0:0:
196,316,291185,1,0,1:1:0:0:
176,316,291243,1,0,1:1:0:0:
156,316,291301,1,0,1:1:0:0:
136,316,291358,1,0,1:1:0:0:
116,316,291416,1,0,1:1:0:0:
92,316,291474,1,0,1:1:0:0:
92,300,291532,1,0,1:1:0:0:
92,280,291589,1,0,1:1:0:0:
92,260,291647,1,0,1:1:0:0:
92,240,291705,1,0,1:1:0:0:
92,220,291763,1,0,1:1:0:0:
92,200,291820,1,0,1:1:0:0:
92,180,291878,5,0,1:1:0:0:
92,160,291936,1,0,1:1:0:0:
92,140,291993,1,0,1:1:0:0:
92,120,292051,1,0,1:1:0:0:
92,100,292109,1,0,1:1:0:0:
92,80,292166,1,0,1:1:0:0:
92,60,292224,1,0,1:1:0:0:
112,60,292281,1,0,1:1:0:0:
128,60,292339,1,0,1:1:0:0:
148,60,292396,1,0,1:1:0:0:
168,60,292454,1,0,1:1:0:0:
188,60,292512,1,0,1:1:0:0:
208,60,292570,1,0,1:1:0:0:
228,60,292627,1,0,1:1:0:0:
248,60,292685,5,0,1:1:0:0:
268,60,292743,1,0,1:1:0:0:
288,60,292800,1,0,1:1:0:0:
308,60,292858,1,0,1:1:0:0:
328,60,292916,1,0,1:1:0:0:
348,60,292973,1,0,1:1:0:0:
368,60,293031,1,0,1:1:0:0:
400,60,293089,1,0,1:1:0:0:
400,76,293147,1,0,1:1:0:0:
400,96,293204,1,0,1:1:0:0:
400,116,293262,1,0,1:1:0:0:
400,136,293320,1,0,1:1:0:0:
400,156,293378,1,0,1:1:0:0:
400,176,293435,1,0,1:1:0:0:
400,196,293493,5,0,1:1:0:0:
400,216,293551,1,0,1:1:0:0:
400,236,293608,1,0,1:1:0:0:
400,256,293666,1,0,1:1:0:0:
400,276,293724,1,0,1:1:0:0:
400,296,293781,1,0,1:1:0:0:
400,316,293839,1,0,1:1:0:0:
372,316,293896,1,0,1:1:0:0:
356,316,293954,1,0,1:1:0:0:
336,316,294011,1,0,1:1:0:0:
316,316,294069,1,0,1:1:0:0:
296,316,294127,1,0,1:1:0:0:
276,316,294185,1,0,1:1:0:0:
256,316,294242,1,0,1:1:0:0:
236,316,294300,5,0,1:1:0:0:
216,316,294358,1,0,1:1:0:0:
196,316,294415,1,0,1:1:0:0:
176,316,294473,1,0,1:1:0:0:
156,316,294531,1,0,1:1:0:0:
136,316,294588,1,0,1:1:0:0:
116,316,294646,1,0,1:1:0:0:
92,316,294704,1,0,1:1:0:0:
92,300,294762,1,0,1:1:0:0:
92,280,294819,1,0,1:1:0:0:
92,260,294877,1,0,1:1:0:0:
92,240,294935,1,0,1:1:0:0:
92,220,294993,1,0,1:1:0:0:
92,200,295050,1,0,1:1:0:0:
92,180,295108,5,0,1:1:0:0:
92,160,295166,1,0,1:1:0:0:
92,140,295223,1,0,1:1:0:0:
92,120,295281,1,0,1:1:0:0:
92,100,295339,1,0,1:1:0:0:
92,80,295396,1,0,1:1:0:0:
92,60,295454,1,0,1:1:0:0:
112,60,295513,1,0,1:1:0:0:
128,60,295571,1,0,1:1:0:0:
148,60,295628,1,0,1:1:0:0:
168,60,295686,1,0,1:1:0:0:
188,60,295744,1,0,1:1:0:0:
208,60,295802,1,0,1:1:0:0:
228,60,295859,1,0,1:1:0:0:
248,60,295917,5,0,1:1:0:0:
268,60,295975,1,0,1:1:0:0:
288,60,296032,1,0,1:1:0:0:
308,60,296090,1,0,1:1:0:0:
328,60,296148,1,0,1:1:0:0:
348,60,296205,1,0,1:1:0:0:
368,60,296263,1,0,1:1:0:0:
400,60,296321,1,0,1:1:0:0:
400,76,296379,1,0,1:1:0:0:
400,96,296436,1,0,1:1:0:0:
400,116,296494,1,0,1:1:0:0:
400,136,296552,1,0,1:1:0:0:
400,156,296610,1,0,1:1:0:0:
400,176,296667,1,0,1:1:0:0:
400,196,296725,5,0,1:1:0:0:
400,216,296783,1,0,1:1:0:0:
400,236,296840,1,0,1:1:0:0:
400,256,296898,1,0,1:1:0:0:
400,276,296956,1,0,1:1:0:0:
400,296,297013,1,0,1:1:0:0:
400,316,297071,1,0,1:1:0:0:
372,316,297128,1,0,1:1:0:0:
356,316,297186,1,0,1:1:0:0:
336,316,297243,1,0,1:1:0:0:
316,316,297301,1,0,1:1:0:0:
296,316,297359,1,0,1:1:0:0:
276,316,297417,1,0,1:1:0:0:
256,316,297474,1,0,1:1:0:0:
236,316,297532,5,0,1:1:0:0:
216,316,297590,1,0,1:1:0:0:
196,316,297647,1,0,1:1:0:0:
176,316,297705,1,0,1:1:0:0:
156,316,297763,1,0,1:1:0:0:
136,316,297820,1,0,1:1:0:0:
116,316,297878,1,0,1:1:0:0:
92,316,297936,1,0,1:1:0:0:
92,300,297994,1,0,1:1:0:0:
92,280,298051,1,0,1:1:0:0:
92,260,298109,1,0,1:1:0:0:
92,240,298167,1,0,1:1:0:0:
92,220,298225,1,0,1:1:0:0:
92,200,298282,1,0,1:1:0:0:
92,180,298340,5,0,1:1:0:0:
92,160,298398,1,0,1:1:0:0:
92,140,298455,1,0,1:1:0:0:
92,120,298513,1,0,1:1:0:0:
92,100,298571,1,0,1:1:0:0:
92,80,298628,1,0,1:1:0:0:
92,60,298686,1,0,1:1:0:0:
112,60,298743,1,0,1:1:0:0:
128,60,298801,1,0,1:1:0:0:
148,60,298858,1,0,1:1:0:0:
168,60,298916,1,0,1:1:0:0:
188,60,298974,1,0,1:1:0:0:
208,60,299032,1,0,1:1:0:0:
228,60,299089,1,0,1:1:0:0:
248,60,299147,5,0,1:1:0:0:
268,60,299205,1,0,1:1:0:0:
288,60,299262,1,0,1:1:0:0:
308,60,299320,1,0,1:1:0:0:
328,60,299378,1,0,1:1:0:0:
348,60,299435,1,0,1:1:0:0:
368,60,299493,1,0,1:1:0:0:
400,60,299551,1,0,1:1:0:0:
400,76,299609,1,0,1:1:0:0:
400,96,299666,1,0,1:1:0:0:
400,116,299724,1,0,1:1:0:0:
400,136,299782,1,0,1:1:0:0:
400,156,299840,1,0,1:1:0:0:
400,176,299897,1,0,1:1:0:0:
400,196,299955,5,0,1:1:0:0:
400,216,300013,1,0,1:1:0:0:
400,236,300070,1,0,1:1:0:0:
400,256,300128,1,0,1:1:0:0:
400,276,300186,1,0,1:1:0:0:
400,296,300243,1,0,1:1:0:0:
400,316,300301,1,0,1:1:0:0:
372,316,300358,1,0,1:1:0:0:
356,316,300416,1,0,1:1:0:0:
336,316,300473,1,0,1:1:0:0:
316,316,300531,1,0,1:1:0:0:
296,316,300589,1,0,1:1:0:0:
276,316,300647,1,0,1:1:0:0:
256,316,300704,1,0,1:1:0:0:
236,316,300762,5,0,1:1:0:0:
216,316,300820,1,0,1:1:0:0:
196,316,300877,1,0,1:1:0:0:
176,316,300935,1,0,1:1:0:0:
156,316,300993,1,0,1:1:0:0:
136,316,301050,1,0,1:1:0:0:
116,316,301108,1,0,1:1:0:0:
92,316,301166,1,0,1:1:0:0:
92,300,301224,1,0,1:1:0:0:
92,280,301281,1,0,1:1:0:0:
92,260,301339,1,0,1:1:0:0:
92,240,301397,1,0,1:1:0:0:
92,220,301455,1,0,1:1:0:0:
92,200,301512,1,0,1:1:0:0:
92,180,301570,5,0,1:1:0:0:
92,160,301628,1,0,1:1:0:0:
92,140,301685,1,0,1:1:0:0:
92,120,301743,1,0,1:1:0:0:
92,100,301801,1,0,1:1:0:0:
92,80,301858,1,0,1:1:0:0:
92,60,301916,1,0,1:1:0:0:
112,60,301974,1,0,1:1:0:0:
128,60,302032,1,0,1:1:0:0:
148,60,302089,1,0,1:1:0:0:
168,60,302147,1,0,1:1:0:0:
188,60,302205,1,0,1:1:0:0:
208,60,302263,1,0,1:1:0:0:
228,60,302320,1,0,1:1:0:0:
248,60,302378,5,0,1:1:0:0:
268,60,302436,1,0,1:1:0:0:
288,60,302493,1,0,1:1:0:0:
308,60,302551,1,0,1:1:0:0:
328,60,302609,1,0,1:1:0:0:
348,60,302666,1,0,1:1:0:0:
368,60,302724,1,0,1:1:0:0:
400,60,302782,1,0,1:1:0:0:
400,76,302840,1,0,1:1:0:0:
400,96,302897,1,0,1:1:0:0:
400,116,302955,1,0,1:1:0:0:
400,136,303013,1,0,1:1:0:0:
400,156,303071,1,0,1:1:0:0:
400,176,303128,1,0,1:1:0:0:
400,196,303186,5,0,1:1:0:0:
400,216,303244,1,0,1:1:0:0:
400,236,303301,1,0,1:1:0:0:
400,256,303359,1,0,1:1:0:0:
400,276,303417,1,0,1:1:0:0:
400,296,303474,1,0,1:1:0:0:
400,316,303532,1,0,1:1:0:0:
372,316,303589,1,0,1:1:0:0:
356,316,303647,1,0,1:1:0:0:
336,316,303704,1,0,1:1:0:0:
316,316,303762,1,0,1:1:0:0:
296,316,303820,1,0,1:1:0:0:
276,316,303878,1,0,1:1:0:0:
256,316,303935,1,0,1:1:0:0:
236,316,303993,5,0,1:1:0:0:
216,316,304051,1,0,1:1:0:0:
196,316,304108,1,0,1:1:0:0:
176,316,304166,1,0,1:1:0:0:
156,316,304224,1,0,1:1:0:0:
136,316,304281,1,0,1:1:0:0:
116,316,304339,1,0,1:1:0:0:
92,316,304397,1,0,1:1:0:0:
92,300,304455,1,0,1:1:0:0:
92,280,304512,1,0,1:1:0:0:
92,260,304570,1,0,1:1:0:0:
92,240,304628,1,0,1:1:0:0:
92,220,304686,1,0,1:1:0:0:
92,200,304743,1,0,1:1:0:0:
92,180,304801,5,0,1:1:0:0:
92,160,304859,1,0,1:1:0:0:
92,140,304916,1,0,1:1:0:0:
92,120,304974,1,0,1:1:0:0:
92,100,305032,1,0,1:1:0:0:
92,80,305089,1,0,1:1:0:0:
92,60,305147,1,0,1:1:0:0:
112,60,305205,1,0,1:1:0:0:
128,60,305263,1,0,1:1:0:0:
148,60,305320,1,0,1:1:0:0:
168,60,305378,1,0,1:1:0:0:
188,60,305436,1,0,1:1:0:0:
208,60,305494,1,0,1:1:0:0:
228,60,305551,1,0,1:1:0:0:
248,60,305609,5,0,1:1:0:0:
268,60,305667,1,0,1:1:0:0:
288,60,305724,1,0,1:1:0:0:
308,60,305782,1,0,1:1:0:0:
328,60,305840,1,0,1:1:0:0:
348,60,305897,1,0,1:1:0:0:
368,60,305955,1,0,1:1:0:0:
400,60,306013,1,0,1:1:0:0:
400,76,306071,1,0,1:1:0:0:
400,96,306128,1,0,1:1:0:0:
400,116,306186,1,0,1:1:0:0:
400,136,306244,1,0,1:1:0:0:
400,156,306302,1,0,1:1:0:0:
400,176,306359,1,0,1:1:0:0:
400,196,306417,5,0,1:1:0:0:
400,216,306475,1,0,1:1:0:0:
400,236,306532,1,0,1:1:0:0:
400,256,306590,1,0,1:1:0:0:
400,276,306648,1,0,1:1:0:0:
400,296,306705,1,0,1:1:0:0:
400,316,306763,1,0,1:1:0:0:
372,316,306820,1,0,1:1:0:0:
356,316,306878,1,0,1:1:0:0:
336,316,306935,1,0,1:1:0:0:
316,316,306993,1,0,1:1:0:0:
296,316,307051,1,0,1:1:0:0:
276,316,307109,1,0,1:1:0:0:
256,316,307166,1,0,1:1:0:0:
236,316,307224,5,0,1:1:0:0:
216,316,307282,1,0,1:1:0:0:
196,316,307339,1,0,1:1:0:0:
176,316,307397,1,0,1:1:0:0:
156,316,307455,1,0,1:1:0:0:
136,316,307512,1,0,1:1:0:0:
116,316,307570,1,0,1:1:0:0:
92,316,307628,1,0,1:1:0:0:
92,300,307686,1,0,1:1:0:0:
92,280,307743,1,0,1:1:0:0:
92,260,307801,1,0,1:1:0:0:
92,240,307859,1,0,1:1:0:0:
92,220,307917,1,0,1:1:0:0:
92,200,307974,1,0,1:1:0:0:
92,180,308032,5,0,1:1:0:0:
92,160,308090,1,0,1:1:0:0:
92,140,308147,1,0,1:1:0:0:
92,120,308205,1,0,1:1:0:0:
92,100,308263,1,0,1:1:0:0:
92,80,308320,1,0,1:1:0:0:
92,60,308378,1,0,1:1:0:0:
112,60,308436,1,0,1:1:0:0:
128,60,308494,1,0,1:1:0:0:
148,60,308551,1,0,1:1:0:0:
168,60,308609,1,0,1:1:0:0:
188,60,308667,1,0,1:1:0:0:
208,60,308725,1,0,1:1:0:0:
228,60,308782,1,0,1:1:0:0:
248,60,308840,5,0,1:1:0:0:
268,60,308898,1,0,1:1:0:0:
288,60,308955,1,0,1:1:0:0:
308,60,309013,1,0,1:1:0:0:
328,60,309071,1,0,1:1:0:0:
348,60,309128,1,0,1:1:0:0:
368,60,309186,1,0,1:1:0:0:
400,60,309244,1,0,1:1:0:0:
400,76,309302,1,0,1:1:0:0:
400,96,309359,1,0,1:1:0:0:
400,116,309417,1,0,1:1:0:0:
400,136,309475,1,0,1:1:0:0:
400,156,309533,1,0,1:1:0:0:
400,176,309590,1,0,1:1:0:0:
400,196,309648,5,0,1:1:0:0:
400,216,309706,1,0,1:1:0:0:
400,236,309763,1,0,1:1:0:0:
400,256,309821,1,0,1:1:0:0:
400,276,309879,1,0,1:1:0:0:
400,296,309936,1,0,1:1:0:0:
400,316,309994,1,0,1:1:0:0:
372,316,310051,1,0,1:1:0:0:
356,316,310109,1,0,1:1:0:0:
336,316,310166,1,0,1:1:0:0:
316,316,310224,1,0,1:1:0:0:
296,316,310282,1,0,1:1:0:0:
276,316,310340,1,0,1:1:0:0:
256,316,310397,1,0,1:1:0:0:
236,316,310455,5,0,1:1:0:0:
216,316,310513,1,0,1:1:0:0:
196,316,310570,1,0,1:1:0:0:
176,316,310628,1,0,1:1:0:0:
156,316,310686,1,0,1:1:0:0:
136,316,310743,1,0,1:1:0:0:
116,316,310801,1,0,1:1:0:0:
92,316,310859,1,0,1:1:0:0:
92,300,310917,1,0,1:1:0:0:
92,280,310974,1,0,1:1:0:0:
92,260,311032,1,0,1:1:0:0:
92,240,311090,1,0,1:1:0:0:
92,220,311148,1,0,1:1:0:0:
92,200,311205,1,0,1:1:0:0:
92,180,311263,5,0,1:1:0:0:
92,160,311321,1,0,1:1:0:0:
92,140,311378,1,0,1:1:0:0:
92,120,311436,1,0,1:1:0:0:
92,100,311494,1,0,1:1:0:0:
92,80,311551,1,0,1:1:0:0:
92,60,311609,1,0,1:1:0:0:
112,60,311666,1,0,1:1:0:0:
128,60,311724,1,0,1:1:0:0:
148,60,311781,1,0,1:1:0:0:
168,60,311839,1,0,1:1:0:0:
188,60,311897,1,0,1:1:0:0:
208,60,311955,1,0,1:1:0:0:
228,60,312012,1,0,1:1:0:0:
248,60,312070,5,0,1:1:0:0:
268,60,312128,1,0,1:1:0:0:
288,60,312185,1,0,1:1:0:0:
308,60,312243,1,0,1:1:0:0:
328,60,312301,1,0,1:1:0:0:
348,60,312358,1,0,1:1:0:0:
368,60,312416,1,0,1:1:0:0:
400,60,312474,1,0,1:1:0:0:
400,76,312532,1,0,1:1:0:0:
400,96,312589,1,0,1:1:0:0:
400,116,312647,1,0,1:1:0:0:
400,136,312705,1,0,1:1:0:0:
400,156,312763,1,0,1:1:0:0:
400,176,312820,1,0,1:1:0:0:
400,196,312878,5,0,1:1:0:0:
400,216,312936,1,0,1:1:0:0:
400,236,312993,1,0,1:1:0:0:
400,256,313051,1,0,1:1:0:0:
400,276,313109,1,0,1:1:0:0:
400,296,313166,1,0,1:1:0:0:
400,316,313224,1,0,1:1:0:0:
372,316,313281,1,0,1:1:0:0:
356,316,313339,1,0,1:1:0:0:
336,316,313396,1,0,1:1:0:0:
316,316,313454,1,0,1:1:0:0:
296,316,313512,1,0,1:1:0:0:
276,316,313570,1,0,1:1:0:0:
256,316,313627,1,0,1:1:0:0:
236,316,313685,5,0,1:1:0:0:
216,316,313743,1,0,1:1:0:0:
196,316,313800,1,0,1:1:0:0:
176,316,313858,1,0,1:1:0:0:
156,316,313916,1,0,1:1:0:0:
136,316,313973,1,0,1:1:0:0:
116,316,314031,1,0,1:1:0:0:
92,316,314089,1,0,1:1:0:0:
92,300,314147,1,0,1:1:0:0:
92,280,314204,1,0,1:1:0:0:
92,260,314262,1,0,1:1:0:0:
92,240,314320,1,0,1:1:0:0:
92,220,314378,1,0,1:1:0:0:
92,200,314435,1,0,1:1:0:0:
92,180,314493,5,0,1:1:0:0:
92,160,314551,1,0,1:1:0:0:
92,140,314608,1,0,1:1:0:0:
92,120,314666,1,0,1:1:0:0:
92,100,314724,1,0,1:1:0:0:
92,80,314781,1,0,1:1:0:0:
92,60,314839,1,0,1:1:0:0:
112,60,314898,1,0,1:1:0:0:
128,60,314956,1,0,1:1:0:0:
148,60,315013,1,0,1:1:0:0:
168,60,315071,1,0,1:1:0:0:
188,60,315129,1,0,1:1:0:0:
208,60,315187,1,0,1:1:0:0:
228,60,315244,1,0,1:1:0:0:
248,60,315302,5,0,1:1:0:0:
268,60,315360,1,0,1:1:0:0:
288,60,315417,1,0,1:1:0:0:
308,60,315475,1,0,1:1:0:0:
328,60,315533,1,0,1:1:0:0:
348,60,315590,1,0,1:1:0:0:
368,60,315648,1,0,1:1:0:0:
400,60,315706,1,0,1:1:0:0:
400,76,315764,1,0,1:1:0:0:
400,96,315821,1,0,1:1:0:0:
400,116,315879,1,0,1:1:0:0:
400,136,315937,1,0,1:1:0:0:
400,156,315995,1,0,1:1:0:0:
400,176,316052,1,0,1:1:0:0:
400,196,316110,5,0,1:1:0:0:
400,216,316168,1,0,1:1:0:0:
400,236,316225,1,0,1:1:0:0:
400,256,316283,1,0,1:1:0:0:
400,276,316341,1,0,1:1:0:0:
400,296,316398,1,0,1:1:0:0:
400,316,316456,1,0,1:1:0:0:
372,316,316513,1,0,1:1:0:0:
356,316,316571,1,0,1:1:0:0:
336,316,316628,1,0,1:1:0:0:
316,316,316686,1,0,1:1:0:0:
296,316,316744,1,0,1:1:0:0:
276,316,316802,1,0,1:1:0:0:
256,316,316859,1,0,1:1:0:0:
236,316,316917,5,0,1:1:0:0:
216,316,316975,1,0,1:1:0:0:
196,316,317032,1,0,1:1:0:0:
176,316,317090,1,0,1:1:0:0:
156,316,317148,1,0,1:1:0:0:
136,316,317205,1,0,1:1:0:0:
116,316,317263,1,0,1:1:0:0:
92,316,317321,1,0,1:1:0:0:
92,300,317379,1,0,1:1:0:0:
92,280,317436,1,0,1:1:0:0:
92,260,317494,1,0,1:1:0:0:
92,240,317552,1,0,1:1:0:0:
92,220,317610,1,0,1:1:0:0:
92,200,317667,1,0,1:1:0:0:
92,180,317725,5,0,1:1:0:0:
92,160,317783,1,0,1:1:0:0:
92,140,317840,1,0,1:1:0:0:
92,120,317898,1,0,1:1:0:0:
92,100,317956,1,0,1:1:0:0:
92,80,318013,1,0,1:1:0:0:
92,60,318071,1,0,1:1:0:0:
112,60,318128,1,0,1:1:0:0:
128,60,318186,1,0,1:1:0:0:
148,60,318243,1,0,1:1:0:0:
168,60,318301,1,0,1:1:0:0:
188,60,318359,1,0,1:1:0:0:
208,60,318417,1,0,1:1:0:0:
228,60,318474,1,0,1:1:0:0:
248,60,318532,5,0,1:1:0:0:
268,60,318590,1,0,1:1:0:0:
288,60,318647,1,0,1:1:0:0:
308,60,318705,1,0,1:1:0:0:
328,60,318763,1,0,1:1:0:0:
348,60,318820,1,0,1:1:0:0:
368,60,318878,1,0,1:1:0:0:
400,60,318936,1,0,1:1:0:0:
400,76,318994,1,0,1:1:0:0:
400,96,319051,1,0,1:1:0:0:
400,116,319109,1,0,1:1:0:0:
400,136,319167,1,0,1:1:0:0:
400,156,319225,1,0,1:1:0:0:
400,176,319282,1,0,1:1:0:0:
400,196,319340,5,0,1:1:0:0:
400,216,319398,1,0,1:1:0:0:
400,236,319455,1,0,1:1:0:0:
400,256,319513,1,0,1:1:0:0:
400,276,319571,1,0,1:1:0:0:
400,296,319628,1,0,1:1:0:0:
400,316,319686,1,0,1:1:0:0:
372,316,319743,1,0,1:1:0:0:
356,316,319801,1,0,1:1:0:0:
336,316,319858,1,0,1:1:0:0:
316,316,319916,1,0,1:1:0:0:
296,316,319974,1,0,1:1:0:0:
276,316,320032,1,0,1:1:0:0:
256,316,320089,1,0,1:1:0:0:
236,316,320147,5,0,1:1:0:0:
216,316,320205,1,0,1:1:0:0:
196,316,320262,1,0,1:1:0:0:
176,316,320320,1,0,1:1:0:0:
156,316,320378,1,0,1:1:0:0:
136,316,320435,1,0,1:1:0:0:
116,316,320493,1,0,1:1:0:0:
92,316,320551,1,0,1:1:0:0:
92,300,320609,1,0,1:1:0:0:
92,280,320666,1,0,1:1:0:0:
92,260,320724,1,0,1:1:0:0:
92,240,320782,1,0,1:1:0:0:
92,220,320840,1,0,1:1:0:0:
92,200,320897,1,0,1:1:0:0:
92,180,320955,5,0,1:1:0:0:
92,160,321013,1,0,1:1:0:0:
92,140,321070,1,0,1:1:0:0:
92,120,321128,1,0,1:1:0:0:
92,100,321186,1,0,1:1:0:0:
92,80,321243,1,0,1:1:0:0:
92,60,321301,1,0,1:1:0:0:
112,60,321359,1,0,1:1:0:0:
128,60,321417,1,0,1:1:0:0:
148,60,321474,1,0,1:1:0:0:
168,60,321532,1,0,1:1:0:0:
188,60,321590,1,0,1:1:0:0:
208,60,321648,1,0,1:1:0:0:
228,60,321705,1,0,1:1:0:0:
248,60,321763,5,0,1:1:0:0:
268,60,321821,1,0,1:1:0:0:
288,60,321878,1,0,1:1:0:0:
308,60,321936,1,0,1:1:0:0:
328,60,321994,1,0,1:1:0:0:
348,60,322051,1,0,1:1:0:0:
368,60,322109,1,0,1:1:0:0:
400,60,322167,1,0,1:1:0:0:
400,76,322225,1,0,1:1:0:0:
400,96,322282,1,0,1:1:0:0:
400,116,322340,1,0,1:1:0:0:
400,136,322398,1,0,1:1:0:0:
400,156,322456,1,0,1:1:0:0:
400,176,322513,1,0,1:1:0:0:
400,196,322571,5,0,1:1:0:0:
400,216,322629,1,0,1:1:0:0:
400,236,322686,1,0,1:1:0:0:
400,256,322744,1,0,1:1:0:0:
400,276,322802,1,0,1:1:0:0:
400,296,322859,1,0,1:1:0:0:
400,316,322917,1,0,1:1:0:0:
372,316,322974,1,0,1:1:0:0:
356,316,323032,1,0,1:1:0:0:
336,316,323089,1,0,1:1:0:0:
316,316,323147,1,0,1:1:0:0:
296,316,323205,1,0,1:1:0:0:
276,316,323263,1,0,1:1:0:0:
256,316,323320,1,0,1:1:0:0:
236,316,323378,5,0,1:1:0:0:
216,316,323436,1,0,1:1:0:0:
196,316,323493,1,0,1:1:0:0:
176,316,323551,1,0,1:1:0:0:
156,316,323609,1,0,1:1:0:0:
136,316,323666,1,0,1:1:0:0:
116,316,323724,1,0,1:1:0:0:
92,316,323782,1,0,1:1:0:0:
92,300,323840,1,0,1:1:0:0:
92,280,323897,1,0,1:1:0:0:
92,260,323955,1,0,1:1:0:0:
92,240,324013,1,0,1:1:0:0:
92,220,324071,1,0,1:1:0:0:
92,200,324128,1,0,1:1:0:0:
92,180,324186,5,0,1:1:0:0:
92,160,324244,1,0,1:1:0:0:
92,140,324301,1,0,1:1:0:0:
92,120,324359,1,0,1:1:0:0:
92,100,324417,1,0,1:1:0:0:
92,80,324474,1,0,1:1:0:0:
92,60,324532,1,0,1:1:0:0:
112,60,324590,1,0,1:1:0:0:
128,60,324648,1,0,1:1:0:0:
148,60,324705,1,0,1:1:0:0:
168,60,324763,1,0,1:1:0:0:
188,60,324821,1,0,1:1:0:0:
208,60,324879,1,0,1:1:0:0:
228,60,324936,1,0,1:1:0:0:
248,60,324994,5,0,1:1:0:0:
268,60,325052,1,0,1:1:0:0:
288,60,325109,1,0,1:1:0:0:
308,60,325167,1,0,1:1:0:0:
328,60,325225,1,0,1:1:0:0:
348,60,325282,1,0,1:1:0:0:
368,60,325340,1,0,1:1:0:0:
400,60,325398,1,0,1:1:0:0:
400,76,325456,1,0,1:1:0:0:
400,96,325513,1,0,1:1:0:0:
400,116,325571,1,0,1:1:0:0:
400,136,325629,1,0,1:1:0:0:
400,156,325687,1,0,1:1:0:0:
400,176,325744,1,0,1:1:0:0:
400,196,325802,5,0,1:1:0:0:
400,216,325860,1,0,1:1:0:0:
400,236,325917,1,0,1:1:0:0:
400,256,325975,1,0,1:1:0:0:
400,276,326033,1,0,1:1:0:0:
400,296,326090,1,0,1:1:0:0:
400,316,326148,1,0,1:1:0:0:
372,316,326205,1,0,1:1:0:0:
356,316,326263,1,0,1:1:0:0:
336,316,326320,1,0,1:1:0:0:
316,316,326378,1,0,1:1:0:0:
296,316,326436,1,0,1:1:0:0:
276,316,326494,1,0,1:1:0:0:
256,316,326551,1,0,1:1:0:0:
236,316,326609,5,0,1:1:0:0:
216,316,326667,1,0,1:1:0:0:
196,316,326724,1,0,1:1:0:0:
176,316,326782,1,0,1:1:0:0:
156,316,326840,1,0,1:1:0:0:
136,316,326897,1,0,1:1:0:0:
116,316,326955,1,0,1:1:0:0:
92,316,327013,1,0,1:1:0:0:
92,300,327071,1,0,1:1:0:0:
92,280,327128,1,0,1:1:0:0:
92,260,327186,1,0,1:1:0:0:
92,240,327244,1,0,1:1:0:0:
92,220,327302,1,0,1:1:0:0:
92,200,327359,1,0,1:1:0:0:
92,180,327417,5,0,1:1:0:0:
92,160,327475,1,0,1:1:0:0:
92,140,327532,1,0,1:1:0:0:
92,120,327590,1,0,1:1:0:0:
92,100,327648,1,0,1:1:0:0:
92,80,327705,1,0,1:1:0:0:
92,60,327763,1,0,1:1:0:0:
112,60,327820,1,0,1:1:0:0:
128,60,327878,1,0,1:1:0:0:
148,60,327935,1,0,1:1:0:0:
168,60,327993,1,0,1:1:0:0:
188,60,328051,1,0,1:1:0:0:
208,60,328109,1,0,1:1:0:0:
228,60,328166,1,0,1:1:0:0:
248,60,328224,5,0,1:1:0:0:
268,60,328282,1,0,1:1:0:0:
288,60,328339,1,0,1:1:0:0:
308,60,328397,1,0,1:1:0:0:
328,60,328455,1,0,1:1:0:0:
348,60,328512,1,0,1:1:0:0:
368,60,328570,1,0,1:1:0:0:
400,60,328628,1,0,1:1:0:0:
400,76,328686,1,0,1:1:0:0:
400,96,328743,1,0,1:1:0:0:
400,116,328801,1,0,1:1:0:0:
400,136,328859,1,0,1:1:0:0:
400,156,328917,1,0,1:1:0:0:
400,176,328974,1,0,1:1:0:0:
400,196,329032,5,0,1:1:0:0:
400,216,329090,1,0,1:1:0:0:
400,236,329147,1,0,1:1:0:0:
400,256,329205,1,0,1:1:0:0:
400,276,329263,1,0,1:1:0:0:
400,296,329320,1,0,1:1:0:0:
400,316,329378,1,0,1:1:0:0:
372,316,329435,1,0,1:1:0:0:
356,316,329493,1,0,1:1:0:0:
336,316,329550,1,0,1:1:0:0:
316,316,329608,1,0,1:1:0:0:
296,316,329666,1,0,1:1:0:0:
276,316,329724,1,0,1:1:0:0:
256,316,329781,1,0,1:1:0:0:
236,316,329839,5,0,1:1:0:0:
216,316,329897,1,0,1:1:0:0:
196,316,329954,1,0,1:1:0:0:
176,316,330012,1,0,1:1:0:0:
156,316,330070,1,0,1:1:0:0:
136,316,330127,1,0,1:1:0:0:
116,316,330185,1,0,1:1:0:0:
92,316,330243,1,0,1:1:0:0:
92,300,330301,1,0,1:1:0:0:
92,280,330358,1,0,1:1:0:0:
92,260,330416,1,0,1:1:0:0:
92,240,330474,1,0,1:1:0:0:
92,220,330532,1,0,1:1:0:0:
92,200,330589,1,0,1:1:0:0:
92,180,330647,5,0,1:1:0:0:
92,160,330705,1,0,1:1:0:0:
92,140,330762,1,0,1:1:0:0:
92,120,330820,1,0,1:1:0:0:
92,100,330878,1,0,1:1:0:0:
92,80,330935,1,0,1:1:0:0:
92,60,330993,1,0,1:1:0:0:
112,60,331050,1,0,1:1:0:0:
128,60,331108,1,0,1:1:0:0:
148,60,331165,1,0,1:1:0:0:
168,60,331223,1,0,1:1:0:0:
188,60,331281,1,0,1:1:0:0:
208,60,331339,1,0,1:1:0:0:
228,60,331396,1,0,1:1:0:0:
248,60,331454,5,0,1:1:0:0:
268,60,331512,1,0,1:1:0:0:
288,60,331569,1,0,1:1:0:0:
308,60,331627,1,0,1:1:0:0:
328,60,331685,1,0,1:1:0:0:
348,60,331742,1,0,1:1:0:0:
368,60,331800,1,0,1:1:0:0:
400,60,331858,1,0,1:1:0:0:
400,76,331916,1,0,1:1:0:0:
400,96,331973,1,0,1:1:0:0:
400,116,332031,1,0,1:1:0:0:
400,136,332089,1,0,1:1:0:0:
400,156,332147,1,0,1:1:0:0:
400,176,332204,1,0,1:1:0:0:
400,196,332262,5,0,1:1:0:0:
400,216,332320,1,0,1:1:0:0:
400,236,332377,1,0,1:1:0:0:
400,256,332435,1,0,1:1:0:0:
400,276,332493,1,0,1:1:0:0:
400,296,332550,1,0,1:1:0:0:
400,316,332608,1,0,1:1:0:0:
372,316,332665,1,0,1:1:0:0:
356,316,332723,1,0,1:1:0:0:
336,316,332780,1,0,1:1:0:0:
316,316,332838,1,0,1:1:0:0:
296,316,332896,1,0,1:1:0:0:
276,316,332954,1,0,1:1:0:0:
256,316,333011,1,0,1:1:0:0:
236,316,333069,5,0,1:1:0:0:
216,316,333127,1,0,1:1:0:0:
196,316,333184,1,0,1:1:0:0:
176,316,333242,1,0,1:1:0:0:
156,316,333300,1,0,1:1:0:0:
136,316,333357,1,0,1:1:0:0:
116,316,333415,1,0,1:1:0:0:
92,316,333473,1,0,1:1:0:0:
92,300,333531,1,0,1:1:0:0:
92,280,333588,1,0,1:1:0:0:
92,260,333646,1,0,1:1:0:0:
92,240,333704,1,0,1:1:0:0:
92,220,333762,1,0,1:1:0:0:
92,200,333819,1,0,1:1:0:0:
92,180,333877,5,0,1:1:0:0:
92,160,333935,1,0,1:1:0:0:
92,140,333992,1,0,1:1:0:0:
92,120,334050,1,0,1:1:0:0:
92,100,334108,1,0,1:1:0:0:
92,80,334165,1,0,1:1:0:0:
92,60,334223,1,0,1:1:0:0:
112,60,334282,1,0,1:1:0:0:
128,60,334340,1,0,1:1:0:0:
148,60,334397,1,0,1:1:0:0:
168,60,334455,1,0,1:1:0:0:
188,60,334513,1,0,1:1:0:0:
208,60,334571,1,0,1:1:0:0:
228,60,334628,1,0,1:1:0:0:
248,60,334686,5,0,1:1:0:0:
268,60,334744,1,0,1:1:0:0:
288,60,334801,1,0,1:1:0:0:
308,60,334859,1,0,1:1:0:0:
328,60,334917,1,0,1:1:0:0:
348,60,334974,1,0,1:1:0:0:
368,60,335032,1,0,1:1:0:0:
400,60,335090,1,0,1:1:0:0:
400,76,335148,1,0,1:1:0:0:
400,96,335205,1,0,1:1:0:0:
400,116,335263,1,0,1:1:0:0:
400,136,335321,1,0,1:1:0:0:
400,156,335379,1,0,1:1:0:0:
400,176,335436,1,0,1:1:0:0:
400,196,335494,5,0,1:1:0:0:
400,216,335552,1,0,1:1:0:0:
400,236,335609,1,0,1:1:0:0:
400,256,335667,1,0,1:1:0:0:
400,276,335725,1,0,1:1:0:0:
400,296,335782,1,0,1:1:0:0:
400,316,335840,1,0,1:1:0:0:
372,316,335897,1,0,1:1:0:0:
356,316,335955,1,0,1:1:0:0:
336,316,336012,1,0,1:1:0:0:
316,316,336070,1,0,1:1:0:0:
296,316,336128,1,0,1:1:0:0:
276,316,336186,1,0,1:1:0:0:
256,316,336243,1,0,1:1:0:0:
236,316,336301,5,0,1:1:0:0:
216,316,336359,1,0,1:1:0:0:
196,316,336416,1,0,1:1:0:0:
176,316,336474,1,0,1:1:0:0:
156,316,336532,1,0,1:1:0:0:
136,316,336589,1,0,1:1:0:0:
116,316,336647,1,0,1:1:0:0:
92,316,336705,1,0,1:1:0:0:
92,300,336763,1,0,1:1:0:0:
92,280,336820,1,0,1:1:0:0:
92,260,336878,1,0,1:1:0:0:
92,240,336936,1,0,1:1:0:0:
92,220,336994,1,0,1:1:0:0:
92,200,337051,1,0,1:1:0:0:
92,180,337109,5,0,1:1:0:0:
92,160,337167,1,0,1:1:0:0:
92,140,337224,1,0,1:1:0:0:
92,120,337282,1,0,1:1:0:0:
92,100,337340,1,0,1:1:0:0:
92,80,337397,1,0,1:1:0:0:
92,60,337455,1,0,1:1:0:0:
112,60,337512,1,0,1:1:0:0:
128,60,337570,1,0,1:1:0:0:
148,60,337627,1,0,1:1:0:0:
168,60,337685,1,0,1:1:0:0:
188,60,337743,1,0,1:1:0:0:
208,60,337801,1,0,1:1:0:0:
228,60,337858,1,0,1:1:0:0:
248,60,337916,5,0,1:1:0:0:
268,60,337974,1,0,1:1:0:0:
288,60,338031,1,0,1:1:0:0:
308,60,338089,1,0,1:1:0:0:
328,60,338147,1,0,1:1:0:0:
348,60,338204,1,0,1:1:0:0:
368,60,338262,1,0,1:1:0:0:
400,60,338320,1,0,1:1:0:0:
400,76,338378,1,0,1:1:0:0:
400,96,338435,1,0,1:1:0:0:
400,116,338493,1,0,1:1:0:0:
400,136,338551,1,0,1:1:0:0:
400,156,338609,1,0,1:1:0:0:
400,176,338666,1,0,1:1:0:0:
400,196,338724,5,0,1:1:0:0:
400,216,338782,1,0,1:1:0:0:
400,236,338839,1,0,1:1:0:0:
400,256,338897,1,0,1:1:0:0:
400,276,338955,1,0,1:1:0:0:
400,296,339012,1,0,1:1:0:0:
400,316,339070,1,0,1:1:0:0:
372,316,339127,1,0,1:1:0:0:
356,316,339185,1,0,1:1:0:0:
336,316,339242,1,0,1:1:0:0:
316,316,339300,1,0,1:1:0:0:
296,316,339358,1,0,1:1:0:0:
276,316,339416,1,0,1:1:0:0:
256,316,339473,1,0,1:1:0:0:
236,316,339531,5,0,1:1:0:0:
216,316,339589,1,0,1:1:0:0:
196,316,339646,1,0,1:1:0:0:
176,316,339704,1,0,1:1:0:0:
156,316,339762,1,0,1:1:0:0:
136,316,339819,1,0,1:1:0:0:
116,316,339877,1,0,1:1:0:0:
92,316,339935,1,0,1:1:0:0:
92,300,339993,1,0,1:1:0:0:
92,280,340050,1,0,1:1:0:0:
92,260,340108,1,0,1:1:0:0:
92,240,340166,1,0,1:1:0:0:
92,220,340224,1,0,1:1:0:0:
92,200,340281,1,0,1:1:0:0:
92,180,340339,5,0,1:1:0:0:
92,160,340397,1,0,1:1:0:0:
92,140,340454,1,0,1:1:0:0:
92,120,340512,1,0,1:1:0:0:
92,100,340570,1,0,1:1:0:0:
92,80,340627,1,0,1:1:0:0:
92,60,340685,1,0,1:1:0:0:
112,60,340743,1,0,1:1:0:0:
128,60,340801,1,0,1:1:0:0:
148,60,340858,1,0,1:1:0:0:
168,60,340916,1,0,1:1:0:0:
188,60,340974,1,0,1:1:0:0:
208,60,341032,1,0,1:1:0:0:
228,60,341089,1,0,1:1:0:0:
248,60,341147,5,0,1:1:0:0:
268,60,341205,1,0,1:1:0:0:
288,60,341262,1,0,1:1:0:0:
308,60,341320,1,0,1:1:0:0:
328,60,341378,1,0,1:1:0:0:
348,60,341435,1,0,1:1:0:0:
368,60,341493,1,0,1:1:0:0:
400,60,341551,1,0,1:1:0:0:
400,76,341609,1,0,1:1:0:0:
400,96,341666,1,0,1:1:0:0:
400,116,341724,1,0,1:1:0:0:
400,136,341782,1,0,1:1:0:0:
400,156,341840,1,0,1:1:0:0:
400,176,341897,1,0,1:1:0:0:
400,196,341955,5,0,1:1:0:0:
400,216,342013,1,0,1:1:0:0:
400,236,342070,1,0,1:1:0:0:
400,256,342128,1,0,1:1:0:0:
400,276,342186,1,0,1:1:0:0:
400,296,342243,1,0,1:1:0:0:
400,316,342301,1,0,1:1:0:0:
372,316,342358,1,0,1:1:0:0:
356,316,342416,1,0,1:1:0:0:
336,316,342473,1,0,1:1:0:0:
316,316,342531,1,0,1:1:0:0:
296,316,342589,1,0,1:1:0:0:
276,316,342647,1,0,1:1:0:0:
256,316,342704,1,0,1:1:0:0:
236,316,342762,5,0,1:1:0:0:
216,316,342820,1,0,1:1:0:0:
196,316,342877,1,0,1:1:0:0:
176,316,342935,1,0,1:1:0:0:
156,316,342993,1,0,1:1:0:0:
136,316,343050,1,0,1:1:0:0:
116,316,343108,1,0,1:1:0:0:
92,316,343166,1,0,1:1:0:0:
92,300,343224,1,0,1:1:0:0:
92,280,343281,1,0,1:1:0:0:
92,260,343339,1,0,1:1:0:0:
92,240,343397,1,0,1:1:0:0:
92,220,343455,1,0,1:1:0:0:
92,200,343512,1,0,1:1:0:0:
92,180,343570,5,0,1:1:0:0:
92,160,343628,1,0,1:1:0:0:
92,140,343685,1,0,1:1:0:0:
92,120,343743,1,0,1:1:0:0:
92,100,343801,1,0,1:1:0:0:
92,80,343858,1,0,1:1:0:0:
92,60,343916,1,0,1:1:0:0:
112,60,343974,1,0,1:1:0:0:
128,60,344032,1,0,1:1:0:0:
148,60,344089,1,0,1:1:0:0:
168,60,344147,1,0,1:1:0:0:
188,60,344205,1,0,1:1:0:0:
208,60,344263,1,0,1:1:0:0:
228,60,344320,1,0,1:1:0:0:
248,60,344378,5,0,1:1:0:0:
268,60,344436,1,0,1:1:0:0:
288,60,344493,1,0,1:1:0:0:
308,60,344551,1,0,1:1:0:0:
328,60,344609,1,0,1:1:0:0:
348,60,344666,1,0,1:1:0:0:
368,60,344724,1,0,1:1:0:0:
400,60,344782,1,0,1:1:0:0:
400,76,344840,1,0,1:1:0:0:
400,96,344897,1,0,1:1:0:0:
400,116,344955,1,0,1:1:0:0:
400,136,345013,1,0,1:1:0:0:
400,156,345071,1,0,1:1:0:0:
400,176,345128,1,0,1:1:0:0:
400,196,345186,5,0,1:1:0:0:
400,216,345244,1,0,1:1:0:0:
400,236,345301,1,0,1:1:0:0:
400,256,345359,1,0,1:1:0:0:
400,276,345417,1,0,1:1:0:0:
400,296,345474,1,0,1:1:0:0:
400,316,345532,1,0,1:1:0:0:
372,316,345589,1,0,1:1:0:0:
356,316,345647,1,0,1:1:0:0:
336,316,345704,1,0,1:1:0:0:
316,316,345762,1,0,1:1:0:0:
296,316,345820,1,0,1:1:0:0:
276,316,345878,1,0,1:1:0:0:
256,316,345935,1,0,1:1:0:0:
236,316,345993,5,0,1:1:0:0:
216,316,346051,1,0,1:1:0:0:
196,316,346108,1,0,1:1:0:0:
176,316,346166,1,0,1:1:0:0:
156,316,346224,1,0,1:1:0:0:
136,316,346281,1,0,1:1:0:0:
116,316,346339,1,0,1:1:0:0:
92,316,346397,1,0,1:1:0:0:
92,300,346455,1,0,1:1:0:0:
92,280,346512,1,0,1:1:0:0:
92,260,346570,1,0,1:1:0:0:
92,240,346628,1,0,1:1:0:0:
92,220,346686,1,0,1:1:0:0:
92,200,346743,1,0,1:1:0:0:
92,180,346801,5,0,1:1:0:0:
92,160,346859,1,0,1:1:0:0:
92,140,346916,1,0,1:1:0:0:
92,120,346974,1,0,1:1:0:0:
92,100,347032,1,0,1:1:0:0:
92,80,347089,1,0,1:1:0:0:
92,60,347147,1,0,1:1:0:0:
112,60,347205,1,0,1:1:0:0:
128,60,347263,1,0,1:1:0:0:
148,60,347320,1,0,1:1:0:0:
168,60,347378,1,0,1:1:0:0:
188,60,347436,1,0,1:1:0:0:
208,60,347494,1,0,1:1:0:0:
228,60,347551,1,0,1:1:0:0:
248,60,347609,5,0,1:1:0:0:
268,60,347667,1,0,1:1:0:0:
288,60,347724,1,0,1:1:0:0:
308,60,347782,1,0,1:1:0:0:
328,60,347840,1,0,1:1:0:0:
348,60,347897,1,0,1:1:0:0:
368,60,347955,1,0,1:1:0:0:
400,60,348013,1,0,1:1:0:0:
400,76,348071,1,0,1:1:0:0:
400,96,348128,1,0,1:1:0:0:
400,116,348186,1,0,1:1:0:0:
400,136,348244,1,0,1:1:0:0:
400,156,348302,1,0,1:1:0:0:
400,176,348359,1,0,1:1:0:0:
400,196,348417,5,0,1:1:0:0:
400,216,348475,1,0,1:1:0:0:
400,236,348532,1,0,1:1:0:0:
400,256,348590,1,0,1:1:0:0:
400,276,348648,1,0,1:1:0:0:
400,296,348705,1,0,1:1:0:0:
400,316,348763,1,0,1:1:0:0:
372,316,348820,1,0,1:1:0:0:
356,316,348878,1,0,1:1:0:0:
336,316,348935,1,0,1:1:0:0:
316,316,348993,1,0,1:1:0:0:
296,316,349051,1,0,1:1:0:0:
276,316,349109,1,0,1:1:0:0:
256,316,349166,1,0,1:1:0:0:
236,316,349224,5,0,1:1:0:0:
216,316,349282,1,0,1:1:0:0:
196,316,349339,1,0,1:1:0:0:
176,316,349397,1,0,1:1:0:0:
156,316,349455,1,0,1:1:0:0:
136,316,349512,1,0,1:1:0:0:
116,316,349570,1,0,1:1:0:0:
92,316,349628,1,0,1:1:0:0:
92,300,349686,1,0,1:1:0:0:
92,280,349743,1,0,1:1:0:0:
92,260,349801,1,0,1:1:0:0:
92,240,349859,1,0,1:1:0:0:
92,220,349917,1,0,1:1:0:0:
92,200,349974,1,0,1:1:0:0:
92,180,350032,5,0,1:1:0:0:
92,160,350090,1,0,1:1:0:0:
92,140,350147,1,0,1:1:0:0:
92,120,350205,1,0,1:1:0:0:
92,100,350263,1,0,1:1:0:0:
92,80,350320,1,0,1:1:0:0:
92,60,350378,1,0,1:1:0:0:
112,60,350435,1,0,1:1:0:0:
128,60,350493,1,0,1:1:0:0:
148,60,350550,1,0,1:1:0:0:
168,60,350608,1,0,1:1:0:0:
188,60,350666,1,0,1:1:0:0:
208,60,350724,1,0,1:1:0:0:
228,60,350781,1,0,1:1:0:0:
248,60,350839,5,0,1:1:0:0:
268,60,350897,1,0,1:1:0:0:
288,60,350954,1,0,1:1:0:0:
308,60,351012,1,0,1:1:0:0:
328,60,351070,1,0,1:1:0:0:
348,60,351127,1,0,1:1:0:0:
368,60,351185,1,0,1:1:0:0:
400,60,351243,1,0,1:1:0:0:
400,76,351301,1,0,1:1:0:0:
400,96,351358,1,0,1:1:0:0:
400,116,351416,1,0,1:1:0:0:
400,136,351474,1,0,1:1:0:0:
400,156,351532,1,0,1:1:0:0:
400,176,351589,1,0,1:1:0:0:
400,196,351647,5,0,1:1:0:0:
400,216,351705,1,0,1:1:0:0:
400,236,351762,1,0,1:1:0:0:
400,256,351820,1,0,1:1:0:0:
400,276,351878,1,0,1:1:0:0:
400,296,351935,1,0,1:1:0:0:
400,316,351993,1,0,1:1:0:0:
372,316,352050,1,0,1:1:0:0:
356,316,352108,1,0,1:1:0:0:
336,316,352165,1,0,1:1:0:0:
316,316,352223,1,0,1:1:0:0:
296,316,352281,1,0,1:1:0:0:
276,316,352339,1,0,1:1:0:0:
256,316,352396,1,0,1:1:0:0:
236,316,352454,5,0,1:1:0:0:
216,316,352512,1,0,1:1:0:0:
196,316,352569,1,0,1:1:0:0:
176,316,352627,1,0,1:1:0:0:
156,316,352685,1,0,1:1:0:0:
136,316,352742,1,0,1:1:0:0:
116,316,352800,1,0,1:1:0:0:
92,316,352858,1,0,1:1:0:0:
92,300,352916,1,0,1:1:0:0:
92,280,352973,1,0,1:1:0:0:
92,260,353031,1,0,1:1:0:0:
92,240,353089,1,0,1:1:0:0:
92,220,353147,1,0,1:1:0:0:
92,200,353204,1,0,1:1:0:0:
92,180,353262,5,0,1:1:0:0:
92,160,353320,1,0,1:1:0:0:
92,140,353377,1,0,1:1:0:0:
92,120,353435,1,0,1:1:0:0:
92,100,353493,1,0,1:1:0:0:
92,80,353550,1,0,1:1:0:0:
92,60,353608,1,0,1:1:0:0:
112,60,353667,1,0,1:1:0:0:
128,60,353725,1,0,1:1:0:0:
148,60,353782,1,0,1:1:0:0:
168,60,353840,1,0,1:1:0:0:
188,60,353898,1,0,1:1:0:0:
208,60,353956,1,0,1:1:0:0:
228,60,354013,1,0,1:1:0:0:
248,60,354071,5,0,1:1:0:0:
268,60,354129,1,0,1:1:0:0:
288,60,354186,1,0,1:1:0:0:
308,60,354244,1,0,1:1:0:0:
328,60,354302,1,0,1:1:0:0:
348,60,354359,1,0,1:1:0:0:
368,60,354417,1,0,1:1:0:0:
400,60,354475,1,0,1:1:0:0:
400,76,354533,1,0,1:1:0:0:
400,96,354590,1,0,1:1:0:0:
400,116,354648,1,0,1:1:0:0:
400,136,354706,1,0,1:1:0:0:
400,156,354764,1,0,1:1:0:0:
400,176,354821,1,0,1:1:0:0:
400,196,354879,5,0,1:1:0:0:
400,216,354937,1,0,1:1:0:0:
400,236,354994,1,0,1:1:0:0:
400,256,355052,1,0,1:1:0:0:
400,276,355110,1,0,1:1:0:0:
400,296,355167,1,0,1:1:0:0:
400,316,355225,1,0,1:1:0:0:
372,316,355282,1,0,1:1:0:0:
356,316,355340,1,0,1:1:0:0:
336,316,355397,1,0,1:1:0:0:
316,316,355455,1,0,1:1:0:0:
296,316,355513,1,0,1:1:0:0:
276,316,355571,1,0,1:1:0:0:
256,316,355628,1,0,1:1:0:0:
236,316,355686,5,0,1:1:0:0:
216,316,355744,1,0,1:1:0:0:
196,316,355801,1,0,1:1:0:0:
176,316,355859,1,0,1:1:0:0:
156,316,355917,1,0,1:1:0:0:
136,316,355974,1,0,1:1:0:0:
116,316,356032,1,0,1:1:0:0:
92,316,356090,1,0,1:1:0:0:
92,300,356148,1,0,1:1:0:0:
92,280,356205,1,0,1:1:0:0:
92,260,356263,1,0,1:1:0:0:
92,240,356321,1,0,1:1:0:0:
92,220,356379,1,0,1:1:0:0:
92,200,356436,1,0,1:1:0:0:
92,180,356494,5,0,1:1:0:0:
92,160,356552,1,0,1:1:0:0:
92,140,356609,1,0,1:1:0:0:
92,120,356667,1,0,1:1:0:0:
92,100,356725,1,0,1:1:0:0:
92,80,356782,1,0,1:1:0:0:
92,60,356840,1,0,1:1:0:0:
112,60,356897,1,0,1:1:0:0:
128,60,356955,1,0,1:1:0:0:
148,60,357012,1,0,1:1:0:0:
168,60,357070,1,0,1:1:0:0:
188,60,357128,1,0,1:1:0:0:
208,60,357186,1,0,1:1:0:0:
228,60,357243,1,0,1:1:0:0:
248,60,357301,5,0,1:1:0:0:
268,60,357359,1,0,1:1:0:0:
288,60,357416,1,0,1:1:0:0:
308,60,357474,1,0,1:1:0:0:
328,60,357532,1,0,1:1:0:0:
348,60,357589,1,0,1:1:0:0:
368,60,357647,1,0,1:1:0:0:
400,60,357705,1,0,1:1:0:0:
400,76,357763,1,0,1:1:0:0:
400,96,357820,1,0,1:1:0:0:
400,116,357878,1,0,1:1:0:0:
400,136,357936,1,0,1:1:0:0:
400,156,357994,1,0,1:1:0:0:
400,176,358051,1,0,1:1:0:0:
400,196,358109,5,0,1:1:0:0:
400,216,358167,1,0,1:1:0:0:
400,236,358224,1,0,1:1:0:0:
400,256,358282,1,0,1:1:0:0:
400,276,358340,1,0,1:1:0:0:
400,296,358397,1,0,1:1:0:0:
400,316,358455,1,0,1:1:0:0:
372,316,358512,1,0,1:1:0:0:
356,316,358570,1,0,1:1:0:0:
336,316,358627,1,0,1:1:0:0:
316,316,358685,1,0,1:1:0:0:
296,316,358743,1,0,1:1:0:0:
276,316,358801,1,0,1:1:0:0:
256,316,358858,1,0,1:1:0:0:
236,316,358916,5,0,1:1:0:0:
216,316,358974,1,0,1:1:0:0:
196,316,359031,1,0,1:1:0:0:
176,316,359089,1,0,1:1:0:0:
156,316,359147,1,0,1:1:0:0:
136,316,359204,1,0,1:1:0:0:
116,316,359262,1,0,1:1:0:0:
92,316,359320,1,0,1:1:0:0:
92,300,359378,1,0,1:1:0:0:
92,280,359435,1,0,1:1:0:0:
92,260,359493,1,0,1:1:0:0:
92,240,359551,1,0,1:1:0:0:
92,220,359609,1,0,1:1:0:0:
92,200,359666,1,0,1:1:0:0:
92,180,359724,5,0,1:1:0:0:
92,160,359782,1,0,1:1:0:0:
92,140,359839,1,0,1:1:0:0:
92,120,359897,1,0,1:1:0:0:
92,100,359955,1,0,1:1:0:0:
92,80,360012,1,0,1:1:0:0:
92,60,360070,1,0,1:1:0:0:
112,60,360128,1,0,1:1:0:0:
128,60,360186,1,0,1:1:0:0:
148,60,360243,1,0,1:1:0:0:
168,60,360301,1,0,1:1:0:0:
188,60,360359,1,0,1:1:0:0:
208,60,360417,1,0,1:1:0:0:
228,60,360474,1,0,1:1:0:0:
248,60,360532,5,0,1:1:0:0:
268,60,360590,1,0,1:1:0:0:
288,60,360647,1,0,1:1:0:0:
308,60,360705,1,0,1:1:0:0:
328,60,360763,1,0,1:1:0:0:
348,60,360820,1,0,1:1:0:0:
368,60,360878,1,0,1:1:0:0:
400,60,360936,1,0,1:1:0:0:
400,76,360994,1,0,1:1:0:0:
400,96,361051,1,0,1:1:0:0:
400,116,361109,1,0,1:1:0:0:
400,136,361167,1,0,1:1:0:0:
400,156,361225,1,0,1:1:0:0:
400,176,361282,1,0,1:1:0:0:
400,196,361340,5,0,1:1:0:0:
400,216,361398,1,0,1:1:0:0:
400,236,361455,1,0,1:1:0:0:
400,256,361513,1,0,1:1:0:0:
400,276,361571,1,0,1:1:0:0:
400,296,361628,1,0,1:1:0:0:
400,316,361686,1,0,1:1:0:0:
372,316,361743,1,0,1:1:0:0:
356,316,361801,1,0,1:1:0:0:
336,316,361858,1,0,1:1:0:0:
316,316,361916,1,0,1:1:0:0:
296,316,361974,1,0,1:1:0:0:
276,316,362032,1,0,1:1:0:0:
256,316,362089,1,0,1:1:0:0:
236,316,362147,5,0,1:1:0:0:
216,316,362205,1,0,1:1:0:0:
196,316,362262,1,0,1:1:0:0:
176,316,362320,1,0,1:1:0:0:
156,316,362378,1,0,1:1:0:0:
136,316,362435,1,0,1:1:0:0:
116,316,362493,1,0,1:1:0:0:
92,316,362551,1,0,1:1:0:0:
92,300,362609,1,0,1:1:0:0:
92,280,362666,1,0,1:1:0:0:
92,260,362724,1,0,1:1:0:0:
92,240,362782,1,0,1:1:0:0:
92,220,362840,1,0,1:1:0:0:
92,200,362897,1,0,1:1:0:0:
92,180,362955,5,0,1:1:0:0:
92,160,363013,1,0,1:1:0:0:
92,140,363070,1,0,1:1:0:0:
92,120,363128,1,0,1:1:0:0:
92,100,363186,1,0,1:1:0:0:
92,80,363243,1,0,1:1:0:0:
92,60,363301,1,0,1:1:0:0:
112,60,363359,1,0,1:1:0:0:
128,60,363417,1,0,1:1:0:0:
148,60,363474,1,0,1:1:0:0:
168,60,363532,1,0,1:1:0:0:
188,60,363590,1,0,1:1:0:0:
208,60,363648,1,0,1:1:0:0:
228,60,363705,1,0,1:1:0:0:
248,60,363763,5,0,1:1:0:0:
268,60,363821,1,0,1:1:0:0:
288,60,363878,1,0,1:1:0:0:
308,60,363936,1,0,1:1:0:0:
328,60,363994,1,0,1:1:0:0:
348,60,364051,1,0,1:1:0:0:
368,60,364109,1,0,1:1:0:0:
400,60,364167,1,0,1:1:0:0:
400,76,364225,1,0,1:1:0:0:
400,96,364282,1,0,1:1:0:0:
400,116,364340,1,0,1:1:0:0:
400,136,364398,1,0,1:1:0:0:
400,156,364456,1,0,1:1:0:0:
400,176,364513,1,0,1:1:0:0:
400,196,364571,5,0,1:1:0:0:
400,216,364629,1,0,1:1:0:0:
400,236,364686,1,0,1:1:0:0:
400,256,364744,1,0,1:1:0:0:
400,276,364802,1,0,1:1:0:0:
400,296,364859,1,0,1:1:0:0:
400,316,364917,1,0,1:1:0:0:
372,316,364974,1,0,1:1:0:0:
356,316,365032,1,0,1:1:0:0:
336,316,365089,1,0,1:1:0:0:
316,316,365147,1,0,1:1:0:0:
296,316,365205,1,0,1:1:0:0:
276,316,365263,1,0,1:1:0:0:
256,316,365320,1,0,1:1:0:0:
236,316,365378,5,0,1:1:0:0:
216,316,365436,1,0,1:1:0:0:
196,316,365493,1,0,1:1:0:0:
176,316,365551,1,0,1:1:0:0:
156,316,365609,1,0,1:1:0:0:
136,316,365666,1,0,1:1:0:0:
116,316,365724,1,0,1:1:0:0:
92,316,365782,1,0,1:1:0:0:
92,300,365840,1,0,1:1:0:0:
92,280,365897,1,0,1:1:0:0:
92,260,365955,1,0,1:1:0:0:
92,240,366013,1,0,1:1:0:0:
92,220,366071,1,0,1:1:0:0:
92,200,366128,1,0,1:1:0:0:
92,180,366186,5,0,1:1:0:0:
92,160,366244,1,0,1:1:0:0:
92,140,366301,1,0,1:1:0:0:
92,120,366359,1,0,1:1:0:0:
92,100,366417,1,0,1:1:0:0:
92,80,366474,1,0,1:1:0:0:
92,60,366532,1,0,1:1:0:0:
92,120,366589,1,0,1:1:0:0:
92,100,366647,1,0,1:1:0:0:
92,80,366704,1,0,1:1:0:0:
92,60,366762,1,0,1:1:0:0:
112,60,366820,1,0,1:1:0:0:
128,60,366878,1,0,1:1:0:0:
148,60,366935,1,0,1:1:0:0:
168,60,366993,1,0,1:1:0:0:
188,60,367051,1,0,1:1:0:0:
208,60,367109,1,0,1:1:0:0:
228,60,367166,1,0,1:1:0:0:
248,60,367224,5,0,1:1:0:0:
268,60,367282,1,0,1:1:0:0:
288,60,367339,1,0,1:1:0:0:
308,60,367397,1,0,1:1:0:0:
328,60,367455,1,0,1:1:0:0:
348,60,367512,1,0,1:1:0:0:
368,60,367570,1,0,1:1:0:0:
400,60,367628,1,0,1:1:0:0:
400,76,367686,1,0,1:1:0:0:
400,96,367743,1,0,1:1:0:0:
400,116,367801,1,0,1:1:0:0:
400,136,367859,1,0,1:1:0:0:
400,156,367917,1,0,1:1:0:0:
400,176,367974,1,0,1:1:0:0:
400,196,368032,5,0,1:1:0:0:
400,216,368090,1,0,1:1:0:0:
400,236,368147,1,0,1:1:0:0:
400,256,368205,1,0,1:1:0:0:
400,276,368263,1,0,1:1:0:0:
400,296,368320,1,0,1:1:0:0:
400,316,368378,1,0,1:1:0:0:
372,316,368435,1,0,1:1:0:0:
356,316,368493,1,0,1:1:0:0:
336,316,368550,1,0,1:1:0:0:
316,316,368608,1,0,1:1:0:0:
296,316,368666,1,0,1:1:0:0:
276,316,368724,1,0,1:1:0:0:
256,316,368781,1,0,1:1:0:0:
236,316,368839,5,0,1:1:0:0:
216,316,368897,1,0,1:1:0:0:
196,316,368954,1,0,1:1:0:0:
176,316,369012,1,0,1:1:0:0:
156,316,369070,1,0,1:1:0:0:
136,316,369127,1,0,1:1:0:0:
116,316,369185,1,0,1:1:0:0:
92,316,369243,1,0,1:1:0:0:
92,300,369301,1,0,1:1:0:0:
92,280,369358,1,0,1:1:0:0:
92,260,369416,1,0,1:1:0:0:
92,240,369474,1,0,1:1:0:0:
92,220,369532,1,0,1:1:0:0:
92,200,369589,1,0,1:1:0:0:
92,180,369647,5,0,1:1:0:0:
92,160,369705,1,0,1:1:0:0:
92,140,369762,1,0,1:1:0:0:
92,120,369820,1,0,1:1:0:0:
92,100,369878,1,0,1:1:0:0:
92,80,369935,1,0,1:1:0:0:
92,60,369993,1,0,1:1:0:0:
112,60,370050,1,0,1:1:0:0:
128,60,370108,1,0,1:1:0:0:
148,60,370165,1,0,1:1:0:0:
168,60,370223,1,0,1:1:0:0:
188,60,370281,1,0,1:1:0:0:
208,60,370339,1,0,1:1:0:0:
228,60,370396,1,0,1:1:0:0:
248,60,370454,5,0,1:1:0:0:
268,60,370512,1,0,1:1:0:0:
288,60,370569,1,0,1:1:0:0:
308,60,370627,1,0,1:1:0:0:
328,60,370685,1,0,1:1:0:0:
348,60,370742,1,0,1:1:0:0:
368,60,370800,1,0,1:1:0:0:
400,60,370858,1,0,1:1:0:0:
400,76,370916,1,0,1:1:0:0:
400,96,370973,1,0,1:1:0:0:
400,116,371031,1,0,1:1:0:0:
400,136,371089,1,0,1:1:0:0:
400,156,371147,1,0,1:1:0:0:
400,176,371204,1,0,1:1:0:0:
400,196,371262,5,0,1:1:0:0:
400,216,371320,1,0,1:1:0:0:
400,236,371377,1,0,1:1:0:0:
400,256,371435,1,0,1:1:0:0:
400,276,371493,1,0,1:1:0:0:
400,296,371550,1,0,1:1:0:0:
400,316,371608,1,0,1:1:0:0:
372,316,371665,1,0,1:1:0:0:
356,316,371723,1,0,1:1:0:0:
336,316,371780,1,0,1:1:0:0:
316,316,371838,1,0,1:1:0:0:
296,316,371896,1,0,1:1:0:0:
276,316,371954,1,0,1:1:0:0:
256,316,372011,1,0,1:1:0:0:
236,316,372069,5,0,1:1:0:0:
216,316,372127,1,0,1:1:0:0:
196,316,372184,1,0,1:1:0:0:
176,316,372242,1,0,1:1:0:0:
156,316,372300,1,0,1:1:0:0:
136,316,372357,1,0,1:1:0:0:
116,316,372415,1,0,1:1:0:0:
92,316,372473,1,0,1:1:0:0:
92,300,372531,1,0,1:1:0:0:
92,280,372588,1,0,1:1:0:0:
92,260,372646,1,0,1:1:0:0:
92,240,372704,1,0,1:1:0:0:
92,220,372762,1,0,1:1:0:0:
92,200,372819,1,0,1:1:0:0:
92,180,372877,5,0,1:1:0:0:
92,160,372935,1,0,1:1:0:0:
92,140,372992,1,0,1:1:0:0:
92,120,373050,1,0,1:1:0:0:
92,100,373108,1,0,1:1:0:0:
92,80,373165,1,0,1:1:0:0:
92,60,373223,1,0,1:1:0:0:
112,60,373282,1,0,1:1:0:0:
128,60,373340,1,0,1:1:0:0:
148,60,373397,1,0,1:1:0:0:
168,60,373455,1,0,1:1:0:0:
188,60,373513,1,0,1:1:0:0:
208,60,373571,1,0,1:1:0:0:
228,60,373628,1,0,1:1:0:0:
248,60,373686,5,0,1:1:0:0:
268,60,373744,1,0,1:1:0:0:
288,60,373801,1,0,1:1:0:0:
308,60,373859,1,0,1:1:0:0:
328,60,373917,1,0,1:1:0:0:
348,60,373974,1,0,1:1:0:0:
368,60,374032,1,0,1:1:0:0:
400,60,374090,1,0,1:1:0:0:
400,76,374148,1,0,1:1:0:0:
400,96,374205,1,0,1:1:0:0:
400,116,374263,1,0,1:1:0:0:
400,136,374321,1,0,1:1:0:0:
400,156,374379,1,0,1:1:0:0:
400,176,374436,1,0,1:1:0:0:
400,196,374494,5,0,1:1:0:0:
400,216,374552,1,0,1:1:0:0:
400,236,374609,1,0,1:1:0:0:
400,256,374667,1,0,1:1:0:0:
400,276,374725,1,0,1:1:0:0:
400,296,374782,1,0,1:1:0:0:
400,316,374840,1,0,1:1:0:0:
372,316,374897,1,0,1:1:0:0:
356,316,374955,1,0,1:1:0:0:
336,316,375012,1,0,1:1:0:0:
316,316,375070,1,0,1:1:0:0:
296,316,375128,1,0,1:1:0:0:
276,316,375186,1,0,1:1:0:0:
256,316,375243,1,0,1:1:0:0:
236,316,375301,5,0,1:1:0:0:
216,316,375359,1,0,1:1:0:0:
196,316,375416,1,0,1:1:0:0:
176,316,375474,1,0,1:1:0:0:
156,316,375532,1,0,1:1:0:0:
136,316,375589,1,0,1:1:0:0:
116,316,375647,1,0,1:1:0:0:
92,316,375705,1,0,1:1:0:0:
92,300,375763,1,0,1:1:0:0:
92,280,375820,1,0,1:1:0:0:
92,260,375878,1,0,1:1:0:0:
92,240,375936,1,0,1:1:0:0:
92,220,375994,1,0,1:1:0:0:
92,200,376051,1,0,1:1:0:0:
92,180,376109,5,0,1:1:0:0:
92,160,376167,1,0,1:1:0:0:
92,140,376224,1,0,1:1:0:0:
92,120,376282,1,0,1:1:0:0:
92,100,376340,1,0,1:1:0:0:
92,80,376397,1,0,1:1:0:0:
92,60,376455,1,0,1:1:0:0:
112,60,376512,1,0,1:1:0:0:
128,60,376570,1,0,1:1:0:0:
148,60,376627,1,0,1:1:0:0:
168,60,376685,1,0,1:1:0:0:
188,60,376743,1,0,1:1:0:0:
208,60,376801,1,0,1:1:0:0:
228,60,376858,1,0,1:1:0:0:
248,60,376916,5,0,1:1:0:0:
268,60,376974,1,0,1:1:0:0:
288,60,377031,1,0,1:1:0:0:
308,60,377089,1,0,1:1:0:0:
328,60,377147,1,0,1:1:0:0:
348,60,377204,1,0,1:1:0:0:
368,60,377262,1,0,1:1:0:0:
400,60,377320,1,0,1:1:0:0:
400,76,377378,1,0,1:1:0:0:
400,96,377435,1,0,1:1:0:0:
400,116,377493,1,0,1:1:0:0:
400,136,377551,1,0,1:1:0:0:
400,156,377609,1,0,1:1:0:0:
400,176,377666,1,0,1:1:0:0:
400,196,377724,5,0,1:1:0:0:
400,216,377782,1,0,1:1:0:0:
400,236,377839,1,0,1:1:0:0:
400,256,377897,1,0,1:1:0:0:
400,276,377955,1,0,1:1:0:0:
400,296,378012,1,0,1:1:0:0:
400,316,378070,1,0,1:1:0:0:
372,316,378127,1,0,1:1:0:0:
356,316,378185,1,0,1:1:0:0:
336,316,378242,1,0,1:1:0:0:
316,316,378300,1,0,1:1:0:0:
296,316,378358,1,0,1:1:0:0:
276,316,378416,1,0,1:1:0:0:
256,316,378473,1,0,1:1:0:0:
236,316,378531,5,0,1:1:0:0:
216,316,378589,1,0,1:1:0:0:
196,316,378646,1,0,1:1:0:0:
176,316,378704,1,0,1:1:0:0:
156,316,378762,1,0,1:1:0:0:
136,316,378819,1,0,1:1:0:0:
116,316,378877,1,0,1:1:0:0:
92,316,378935,1,0,1:1:0:0:
92,300,378993,1,0,1:1:0:0:
92,280,379050,1,0,1:1:0:0:
92,260,379108,1,0,1:1:0:0:
92,240,379166,1,0,1:1:0:0:
92,220,379224,1,0,1:1:0:0:
92,200,379281,1,0,1:1:0:0:
92,180,379339,5,0,1:1:0:0:
92,160,379397,1,0,1:1:0:0:
92,140,379454,1,0,1:1:0:0:
92,120,379512,1,0,1:1:0:0:
92,100,379570,1,0,1:1:0:0:
92,80,379627,1,0,1:1:0:0:
92,60,379685,1,0,1:1:0:0:
112,60,379743,1,0,1:1:0:0:
128,60,379801,1,0,1:1:0:0:
148,60,379858,1,0,1:1:0:0:
168,60,379916,1,0,1:1:0:0:
188,60,379974,1,0,1:1:0:0:
208,60,380032,1,0,1:1:0:0:
228,60,380089,1,0,1:1:0:0:
248,60,380147,5,0,1:1:0:0:
268,60,380205,1,0,1:1:0:0:
288,60,380262,1,0,1:1:0:0:
308,60,380320,1,0,1:1:0:0:
328,60,380378,1,0,1:1:0:0:
348,60,380435,1,0,1:1:0:0:
368,60,380493,1,0,1:1:0:0:
400,60,380551,1,0,1:1:0:0:
400,76,380609,1,0,1:1:0:0:
400,96,380666,1,0,1:1:0:0:
400,116,380724,1,0,1:1:0:0:
400,136,380782,1,0,1:1:0:0:
400,156,380840,1,0,1:1:0:0:
400,176,380897,1,0,1:1:0:0:
400,196,380955,5,0,1:1:0:0:
400,216,381013,1,0,1:1:0:0:
400,236,381070,1,0,1:1:0:0:
400,256,381128,1,0,1:1:0:0:
400,276,381186,1,0,1:1:0:0:
400,296,381243,1,0,1:1:0:0:
400,316,381301,1,0,1:1:0:0:
372,316,381358,1,0,1:1:0:0:
356,316,381416,1,0,1:1:0:0:
336,316,381473,1,0,1:1:0:0:
316,316,381531,1,0,1:1:0:0:
296,316,381589,1,0,1:1:0:0:
276,316,381647,1,0,1:1:0:0:
256,316,381704,1,0,1:1:0:0:
236,316,381762,5,0,1:1:0:0:
216,316,381820,1,0,1:1:0:0:
196,316,381877,1,0,1:1:0:0:
176,316,381935,1,0,1:1:0:0:
156,316,381993,1,0,1:1:0:0:
136,316,382050,1,0,1:1:0:0:
116,316,382108,1,0,1:1:0:0:
92,316,382166,1,0,1:1:0:0:
92,300,382224,1,0,1:1:0:0:
92,280,382281,1,0,1:1:0:0:
92,260,382339,1,0,1:1:0:0:
92,240,382397,1,0,1:1:0:0:
92,220,382455,1,0,1:1:0:0:
92,200,382512,1,0,1:1:0:0:
92,180,382570,5,0,1:1:0:0:
92,160,382628,1,0,1:1:0:0:
92,140,382685,1,0,1:1:0:0:
92,120,382743,1,0,1:1:0:0:
92,100,382801,1,0,1:1:0:0:
92,80,382858,1,0,1:1:0:0:
92,60,382916,1,0,1:1:0:0:
112,60,382974,1,0,1:1:0:0:
128,60,383032,1,0,1:1:0:0:
148,60,383089,1,0,1:1:0:0:
168,60,383147,1,0,1:1:0:0:
188,60,383205,1,0,1:1:0:0:
208,60,383263,1,0,1:1:0:0:
228,60,383320,1,0,1:1:0:0:
248,60,383378,5,0,1:1:0:0:
268,60,383436,1,0,1:1:0:0:
288,60,383493,1,0,1:1:0:0:
308,60,383551,1,0,1:1:0:0:
328,60,383609,1,0,1:1:0:0:
348,60,383666,1,0,1:1:0:0:
368,60,383724,1,0,1:1:0:0:
400,60,383782,1,0,1:1:0:0:
400,76,383840,1,0,1:1:0:0:
400,96,383897,1,0,1:1:0:0:
400,116,383955,1,0,1:1:0:0:
400,136,384013,1,0,1:1:0:0:
400,156,384071,1,0,1:1:0:0:
400,176,384128,1,0,1:1:0:0:
