osu file format v13

[General]
AudioFilename: Tatsh - IMAGE -MATERIAL- (Version 0).mp3
AudioLeadIn: 0
PreviewTime: 310050
Countdown: 0
SampleSet: Soft
StackLeniency: 0.7
Mode: 3
LetterboxInBreaks: 0
SpecialStyle: 0
WidescreenStoryboard: 1

[Editor]
DistanceSpacing: 1.3
BeatDivisor: 4
GridSize: 32
TimelineZoom: 2

[Metadata]
Title:IMAGE -MATERIAL-
TitleUnicode:IMAGE -MATERIAL-
Artist:Tatsh
ArtistUnicode:Tatsh
Creator:Sirade
Version:4K Hard
Source:
Tags:Tatsuya Shimizu dj Killer Tatsh Assault X Xephia DJ MURASAME STN reflec beat limelight plus Xleonq
BeatmapID:504624
BeatmapSetID:213540

[Difficulty]
HPDrainRate:7
CircleSize:4
OverallDifficulty:7
ApproachRate:10
SliderMultiplier:1.8
SliderTickRate:1

[Events]
//Background and Video events
0,0,"background - color.jpg",0,0
//Break Periods
2,49251,55985
//Storyboard Layer 0 (Background)
//Storyboard Layer 1 (Fail)
//Storyboard Layer 2 (Pass)
//Storyboard Layer 3 (Foreground)
//Storyboard Sound Samples
//Background Colour Transformations
3,100,128,128,255

[TimingPoints]
6590,461.538461538462,4,2,0,35,1,0
49051,230.769230769231,4,2,0,35,1,0
49051,-133.333333333333,4,2,0,35,0,0
56435,-100,4,2,0,35,0,0
88743,-100,4,2,0,35,0,1
103512,-100,4,2,0,35,0,0
149666,-133.333333333333,4,2,0,35,0,0
166281,-100,4,2,0,35,0,1
181051,-100,4,2,0,35,0,0
197666,-100,4,2,0,35,0,1
227204,461.538461538462,4,2,0,35,1,0
227204,-66.6666666666667,4,2,0,35,0,0
251549,697.674418604651,4,2,0,35,1,0
251549,-66.6666666666667,4,2,0,35,0,0
252702,714.285714285714,4,2,0,35,1,0
252702,-66.6666666666667,4,2,0,35,0,0
253509,800,4,2,0,35,1,0
253509,-66.6666666666667,4,2,0,35,0,0
254081,1132.07547169811,4,2,0,35,1,0
254081,-66.6666666666667,4,2,0,35,0,0
255586,1200,4,2,0,35,1,0
255586,-66.6666666666667,4,2,0,35,0,0
256408,1267.10000000001,4,2,0,35,1,0
256408,-66.6666666666667,4,2,0,35,0,0
257675,-80,4,2,0,35,0,0
258906,2131.45714285714,4,2,0,35,1,0
258906,-100,4,2,0,35,0,0
259438,-50,4,2,0,35,0,0
259971,-33.3333333333333,4,2,0,35,0,0
260504,-25,4,2,0,35,0,0
261037,-20,4,2,0,35,0,0
261570,-16.6666666666667,4,2,0,35,0,0
262103,-14.2857142857143,4,2,0,35,0,0
262636,-12.5,4,2,0,35,0,0
263204,230.769230769231,4,2,0,35,1,0
263204,-100,4,2,0,35,0,1
263261,-100,4,2,0,35,0,0
295511,-100,4,2,0,35,0,1
310223,-100,4,2,0,35,0,0
310280,-100,4,2,0,35,0,1
356434,-100,4,2,0,35,0,0

[Colours]
Combo1 : 255,255,0
Combo2 : 255,0,0
Combo3 : 0,128,255
Combo4 : 0,255,0

[HitObjects]
64,192,6590,5,0,0:0:0:23:
448,192,6590,128,0,8436:0:0:0:23:
64,192,8436,1,0,0:0:0:23:
192,192,8436,128,0,10282:0:0:0:23:
64,192,10282,1,0,0:0:0:23:
320,192,10282,128,0,13974:0:0:0:23:
192,192,12128,128,0,13974:0:0:0:46:
64,192,13974,1,0,0:0:0:23:
448,192,13974,128,0,15820:0:0:0:23:
320,192,15820,128,0,17666:0:0:0:23:
64,192,15820,1,0,0:0:0:23:
192,192,17666,128,0,21359:0:0:0:23:
64,192,17666,1,0,0:0:0:23:
320,192,19513,128,0,21359:0:0:0:46:
64,192,21359,1,0,0:0:0:23:
448,192,21359,1,4,0:0:0:23:
320,192,21820,1,0,0:0:0:46:
64,192,22282,1,0,0:0:0:46:
192,192,22743,1,0,0:0:0:46:
448,192,23205,1,0,0:0:0:23:
64,192,23205,1,4,0:0:0:23:
320,192,23666,1,0,0:0:0:46:
448,192,24128,1,0,0:0:0:46:
192,192,24590,1,0,0:0:0:46:
320,192,25051,128,0,26897:0:0:0:23:
64,192,25051,1,4,0:0:0:23:
192,192,26897,128,0,28743:0:0:0:46:
448,192,28743,1,4,0:0:0:23:
320,192,28743,1,0,0:0:0:23:
192,192,29205,1,0,0:0:0:46:
64,192,29666,1,0,0:0:0:46:
192,192,30128,1,0,0:0:0:46:
64,192,30590,1,4,0:0:0:23:
320,192,30590,1,0,0:0:0:23:
448,192,31051,1,0,0:0:0:46:
320,192,31513,1,0,0:0:0:46:
192,192,31974,1,0,0:0:0:46:
320,192,32436,128,0,35205:0:0:0:23:
448,192,32436,1,4,0:0:0:23:
192,192,35205,128,0,36128:0:0:0:46:
448,192,36128,1,4,0:0:0:46:
64,192,36590,128,0,39820:0:0:0:46:
320,192,39820,128,0,40743:0:0:0:46:
192,192,40743,128,0,41666:0:0:0:46:
448,192,41666,128,0,43051:0:0:0:46:
320,192,43051,128,0,43513:0:0:0:46:
192,192,43513,1,4,0:0:0:15:
64,192,43513,128,0,49051:0:0:0:15:
448,192,43513,128,0,49051:0:0:0:15:
192,192,49051,5,0,0:0:0:46:
64,192,56435,5,0,0:0:0:23:
448,192,56435,1,0,0:0:0:23:
192,192,56551,1,0,0:0:0:46:
320,192,56666,1,0,0:0:0:23:
448,192,56666,1,0,0:0:0:23:
192,192,56781,1,0,0:0:0:46:
320,192,56897,1,0,0:0:0:23:
64,192,56897,1,0,0:0:0:23:
448,192,57012,1,0,0:0:0:23:
192,192,57012,1,0,0:0:0:23:
64,192,57127,1,0,0:0:0:23:
320,192,57127,1,0,0:0:0:23:
192,192,57243,1,0,0:0:0:23:
448,192,57243,1,0,0:0:0:23:
320,192,57358,1,0,0:0:0:23:
64,192,57358,1,0,0:0:0:23:
448,192,57474,1,0,0:0:0:46:
192,192,57589,1,0,0:0:0:23:
320,192,57589,1,0,0:0:0:23:
64,192,57704,1,0,0:0:0:46:
192,192,57820,1,0,0:0:0:23:
448,192,57820,1,0,0:0:0:23:
64,192,57935,1,0,0:0:0:23:
320,192,57935,1,0,0:0:0:23:
192,192,58051,1,0,0:0:0:23:
448,192,58051,1,0,0:0:0:23:
64,192,58166,1,0,0:0:0:23:
320,192,58166,1,0,0:0:0:23:
192,192,58281,1,0,0:0:0:23:
448,192,58281,1,0,0:0:0:23:
64,192,58397,1,0,0:0:0:46:
448,192,58512,1,0,0:0:0:23:
320,192,58512,1,0,0:0:0:23:
192,192,58627,1,0,0:0:0:46:
448,192,58743,1,0,0:0:0:23:
320,192,58743,1,0,0:0:0:23:
192,192,58858,1,0,0:0:0:23:
64,192,58858,1,0,0:0:0:23:
320,192,58974,1,0,0:0:0:23:
448,192,58974,1,0,0:0:0:23:
192,192,59089,1,0,0:0:0:23:
64,192,59089,1,0,0:0:0:23:
320,192,59204,1,0,0:0:0:23:
448,192,59204,1,0,0:0:0:23:
192,192,59320,1,0,0:0:0:46:
64,192,59435,1,0,0:0:0:23:
320,192,59435,1,0,0:0:0:23:
448,192,59551,1,0,0:0:0:46:
192,192,59666,1,0,0:0:0:46:
448,192,59781,1,0,0:0:0:46:
64,192,59897,1,0,0:0:0:23:
320,192,59897,1,0,0:0:0:23:
192,192,60012,1,0,0:0:0:23:
448,192,60012,1,0,0:0:0:23:
64,192,60127,1,0,0:0:0:23:
320,192,60127,1,0,0:0:0:23:
192,192,60127,1,4,0:0:0:0:
448,192,60243,1,0,0:0:0:46:
320,192,60358,1,0,0:0:0:23:
192,192,60358,1,0,0:0:0:23:
64,192,60474,1,0,0:0:0:46:
448,192,60589,1,0,0:0:0:46:
192,192,60704,1,0,0:0:0:46:
64,192,60820,1,0,0:0:0:23:
320,192,60820,1,0,0:0:0:23:
448,192,60935,1,0,0:0:0:46:
192,192,61051,1,0,0:0:0:46:
320,192,61166,1,0,0:0:0:46:
192,192,61281,1,0,0:0:0:23:
448,192,61281,1,0,0:0:0:23:
320,192,61397,1,0,0:0:0:46:
64,192,61512,1,0,0:0:0:23:
192,192,61512,1,0,0:0:0:23:
320,192,61627,1,0,0:0:0:23:
448,192,61627,1,0,0:0:0:23:
192,192,61743,1,0,0:0:0:23:
64,192,61743,1,0,0:0:0:23:
448,192,61858,1,0,0:0:0:23:
320,192,61858,1,0,0:0:0:23:
192,192,61974,1,0,0:0:0:23:
64,192,61974,1,0,0:0:0:23:
448,192,61974,1,4,0:0:0:0:
320,192,62089,1,0,0:0:0:46:
448,192,62204,1,0,0:0:0:23:
192,192,62204,1,0,0:0:0:23:
320,192,62320,1,0,0:0:0:46:
64,192,62435,1,0,0:0:0:46:
192,192,62551,1,0,0:0:0:46:
320,192,62666,1,0,0:0:0:23:
448,192,62666,1,0,0:0:0:23:
192,192,62781,1,0,0:0:0:46:
64,192,62897,1,0,0:0:0:46:
448,192,63012,1,0,0:0:0:46:
192,192,63127,1,0,0:0:0:23:
320,192,63127,1,0,0:0:0:23:
64,192,63243,1,0,0:0:0:46:
192,192,63358,1,0,0:0:0:23:
320,192,63358,1,0,0:0:0:23:
192,192,63474,1,0,0:0:0:23:
320,192,63474,1,0,0:0:0:23:
64,192,63589,1,0,0:0:0:23:
448,192,63589,1,0,0:0:0:23:
320,192,63704,1,0,0:0:0:46:
64,192,63820,1,0,0:0:0:46:
192,192,63877,1,0,0:0:0:46:
320,192,63935,1,0,0:0:0:46:
448,192,63993,1,0,0:0:0:46:
320,192,64051,128,0,64281:0:0:0:46:
448,192,64281,1,0,0:0:0:46:
320,192,64339,1,0,0:0:0:46:
192,192,64397,1,0,0:0:0:46:
64,192,64454,1,0,0:0:0:46:
192,192,64512,128,0,64743:0:0:0:46:
64,192,64743,1,0,0:0:0:46:
192,192,64801,1,0,0:0:0:46:
64,192,64858,1,0,0:0:0:46:
320,192,64916,1,0,0:0:0:46:
192,192,64974,128,0,65204:0:0:0:46:
448,192,65204,1,0,0:0:0:46:
320,192,65262,1,0,0:0:0:46:
448,192,65320,1,0,0:0:0:46:
192,192,65377,1,0,0:0:0:46:
320,192,65435,128,0,65666:0:0:0:46:
64,192,65666,1,0,0:0:0:46:
192,192,65724,1,0,0:0:0:46:
320,192,65781,1,0,0:0:0:46:
192,192,65839,1,0,0:0:0:46:
64,192,65897,128,0,66127:0:0:0:46:
448,192,66127,1,0,0:0:0:46:
320,192,66185,1,0,0:0:0:46:
192,192,66243,1,0,0:0:0:46:
320,192,66301,1,0,0:0:0:46:
448,192,66358,128,0,66589:0:0:0:46:
192,192,66589,128,0,67512:0:0:0:15:
64,192,66589,1,0,0:0:0:15:
448,192,66820,1,0,0:0:0:46:
64,192,67051,1,0,0:0:0:46:
448,192,67166,1,0,0:0:0:46:
64,192,67281,1,0,0:0:0:46:
448,192,67397,1,0,0:0:0:46:
64,192,67512,1,0,0:0:0:23:
320,192,67512,1,4,0:0:0:23:
192,192,67627,1,0,0:0:0:46:
320,192,67743,1,0,0:0:0:23:
448,192,67743,1,0,0:0:0:23:
192,192,67858,1,0,0:0:0:46:
64,192,67974,1,0,0:0:0:46:
320,192,68089,1,0,0:0:0:46:
192,192,68204,1,0,0:0:0:23:
448,192,68204,1,0,0:0:0:23:
320,192,68320,1,0,0:0:0:46:
192,192,68435,1,0,0:0:0:46:
320,192,68551,1,0,0:0:0:46:
192,192,68666,1,0,0:0:0:23:
64,192,68666,1,0,0:0:0:23:
320,192,68781,1,0,0:0:0:46:
192,192,68897,1,0,0:0:0:23:
448,192,68897,1,0,0:0:0:23:
320,192,69012,1,0,0:0:0:23:
64,192,69012,1,0,0:0:0:23:
192,192,69127,1,0,0:0:0:23:
448,192,69127,1,0,0:0:0:23:
320,192,69243,1,0,0:0:0:23:
64,192,69243,1,0,0:0:0:23:
192,192,69358,1,0,0:0:0:15:
448,192,69358,1,0,0:0:0:15:
64,192,69358,1,0,0:0:0:15:
320,192,69474,1,0,0:0:0:23:
448,192,69474,1,0,0:0:0:23:
192,192,69589,1,0,0:0:0:23:
64,192,69589,1,0,0:0:0:23:
320,192,69704,1,0,0:0:0:23:
448,192,69704,1,0,0:0:0:23:
64,192,69820,1,0,0:0:0:23:
192,192,69820,1,0,0:0:0:23:
448,192,69935,1,0,0:0:0:23:
320,192,69935,1,0,0:0:0:23:
64,192,70051,1,0,0:0:0:23:
192,192,70051,1,0,0:0:0:23:
448,192,70166,1,0,0:0:0:23:
320,192,70166,1,0,0:0:0:23:
64,192,70281,1,0,0:0:0:46:
192,192,70339,1,0,0:0:0:46:
448,192,70397,1,0,0:0:0:46:
320,192,70454,1,0,0:0:0:46:
64,192,70512,1,0,0:0:0:46:
192,192,70570,1,0,0:0:0:46:
448,192,70627,1,0,0:0:0:46:
320,192,70685,1,0,0:0:0:46:
64,192,70743,1,0,0:0:0:46:
192,192,70801,1,0,0:0:0:46:
320,192,70858,1,0,0:0:0:46:
64,192,70858,1,0,0:0:0:0:
448,192,70974,1,0,0:0:0:46:
192,192,70974,1,0,0:0:0:0:
320,192,71089,1,0,0:0:0:46:
64,192,71089,1,0,0:0:0:0:
192,192,71204,1,0,0:0:0:23:
448,192,71204,1,0,0:0:0:23:
64,192,71320,1,0,0:0:0:46:
320,192,71435,1,0,0:0:0:23:
448,192,71435,1,0,0:0:0:23:
192,192,71551,1,0,0:0:0:46:
448,192,71666,1,0,0:0:0:46:
320,192,71781,1,0,0:0:0:46:
192,192,71897,1,0,0:0:0:23:
64,192,71897,1,0,0:0:0:23:
448,192,72012,1,0,0:0:0:46:
192,192,72127,1,0,0:0:0:46:
320,192,72243,1,0,0:0:0:46:
192,192,72358,1,0,0:0:0:23:
448,192,72358,1,0,0:0:0:23:
64,192,72474,1,0,0:0:0:46:
448,192,72589,1,0,0:0:0:46:
320,192,72704,1,0,0:0:0:46:
192,192,72820,1,0,0:0:0:23:
64,192,72820,1,0,0:0:0:23:
448,192,72935,1,0,0:0:0:23:
320,192,72935,1,0,0:0:0:23:
192,192,73051,1,0,0:0:0:23:
64,192,73051,1,0,0:0:0:23:
320,192,73166,1,0,0:0:0:46:
448,192,73281,1,0,0:0:0:23:
192,192,73281,1,0,0:0:0:23:
64,192,73397,1,0,0:0:0:46:
320,192,73512,1,0,0:0:0:46:
192,192,73627,1,0,0:0:0:46:
320,192,73743,1,0,0:0:0:23:
448,192,73743,1,0,0:0:0:23:
64,192,73858,1,0,0:0:0:46:
320,192,73974,1,0,0:0:0:46:
192,192,74089,1,0,0:0:0:46:
64,192,74204,1,0,0:0:0:23:
320,192,74204,1,0,0:0:0:23:
448,192,74320,1,0,0:0:0:46:
320,192,74435,1,0,0:0:0:23:
64,192,74435,1,0,0:0:0:23:
192,192,74551,1,0,0:0:0:23:
448,192,74551,1,0,0:0:0:23:
320,192,74666,1,0,0:0:0:23:
64,192,74666,1,0,0:0:0:23:
448,192,74781,1,0,0:0:0:46:
64,192,74897,1,0,0:0:0:46:
320,192,75012,1,0,0:0:0:46:
192,192,75127,1,0,0:0:0:23:
448,192,75127,1,0,0:0:0:23:
320,192,75243,1,0,0:0:0:46:
64,192,75358,1,0,0:0:0:46:
320,192,75474,1,0,0:0:0:46:
192,192,75589,1,0,0:0:0:23:
64,192,75589,1,0,0:0:0:23:
448,192,75704,1,0,0:0:0:46:
320,192,75820,1,0,0:0:0:23:
64,192,75820,1,0,0:0:0:23:
192,192,75935,1,0,0:0:0:23:
448,192,75935,1,0,0:0:0:23:
320,192,76051,1,0,0:0:0:46:
192,192,76166,1,0,0:0:0:46:
320,192,76281,1,0,0:0:0:23:
64,192,76281,1,0,0:0:0:23:
192,192,76397,1,0,0:0:0:46:
448,192,76512,1,0,0:0:0:15:
64,192,76512,1,0,0:0:0:15:
320,192,76512,1,0,0:0:0:15:
64,192,76627,1,0,0:0:0:46:
64,192,76743,1,0,0:0:0:15:
192,192,76743,1,0,0:0:0:15:
320,192,76743,1,0,0:0:0:15:
448,192,76858,1,0,0:0:0:46:
192,192,76974,1,0,0:0:0:23:
64,192,76974,1,0,0:0:0:23:
448,192,77089,1,0,0:0:0:46:
192,192,77204,1,0,0:0:0:46:
64,192,77320,1,0,0:0:0:46:
320,192,77435,1,0,0:0:0:23:
448,192,77435,1,0,0:0:0:23:
192,192,77551,1,0,0:0:0:46:
448,192,77666,1,0,0:0:0:23:
320,192,77666,1,0,0:0:0:23:
320,192,77781,1,0,0:0:0:23:
448,192,77781,1,0,0:0:0:23:
192,192,77897,1,0,0:0:0:23:
64,192,77897,1,0,0:0:0:23:
448,192,78012,1,0,0:0:0:46:
192,192,78127,1,0,0:0:0:23:
64,192,78127,1,0,0:0:0:23:
320,192,78243,1,0,0:0:0:46:
192,192,78358,1,0,0:0:0:23:
64,192,78358,1,0,0:0:0:23:
448,192,78474,1,0,0:0:0:46:
192,192,78589,1,0,0:0:0:23:
320,192,78589,1,0,0:0:0:23:
64,192,78704,1,0,0:0:0:46:
192,192,78820,1,0,0:0:0:23:
448,192,78820,1,0,0:0:0:23:
320,192,78935,1,0,0:0:0:46:
64,192,79051,1,0,0:0:0:46:
448,192,79166,1,0,0:0:0:46:
192,192,79281,1,0,0:0:0:23:
320,192,79281,1,0,0:0:0:23:
64,192,79397,1,0,0:0:0:46:
448,192,79512,1,0,0:0:0:46:
320,192,79627,1,0,0:0:0:46:
192,192,79743,1,0,0:0:0:23:
448,192,79743,1,0,0:0:0:23:
64,192,79858,1,0,0:0:0:46:
192,192,79974,1,0,0:0:0:46:
320,192,80089,1,0,0:0:0:46:
448,192,80204,1,0,0:0:0:23:
192,192,80204,1,0,0:0:0:23:
320,192,80320,1,0,0:0:0:46:
64,192,80435,1,0,0:0:0:46:
320,192,80551,1,0,0:0:0:46:
192,192,80666,1,0,0:0:0:23:
64,192,80666,1,0,0:0:0:23:
320,192,80781,1,0,0:0:0:46:
192,192,80897,1,0,0:0:0:46:
448,192,81012,1,0,0:0:0:46:
320,192,81127,1,0,0:0:0:23:
192,192,81127,1,0,0:0:0:23:
64,192,81243,1,0,0:0:0:46:
448,192,81358,1,0,0:0:0:46:
320,192,81474,1,0,0:0:0:46:
192,192,81589,1,0,0:0:0:23:
448,192,81589,1,0,0:0:0:23:
320,192,81704,1,0,0:0:0:46:
64,192,81820,1,0,0:0:0:23:
448,192,81820,1,0,0:0:0:23:
192,192,81935,1,0,0:0:0:23:
320,192,81935,1,0,0:0:0:23:
64,192,82051,1,0,0:0:0:23:
448,192,82051,1,0,0:0:0:23:
192,192,82166,1,0,0:0:0:46:
320,192,82281,1,0,0:0:0:23:
64,192,82281,1,0,0:0:0:23:
448,192,82397,1,0,0:0:0:46:
192,192,82512,1,0,0:0:0:23:
320,192,82512,1,0,0:0:0:23:
64,192,82627,1,0,0:0:0:46:
448,192,82743,1,0,0:0:0:46:
192,192,82858,1,0,0:0:0:46:
320,192,82974,1,0,0:0:0:23:
64,192,82974,1,0,0:0:0:23:
192,192,83089,1,0,0:0:0:46:
448,192,83204,1,0,0:0:0:46:
320,192,83320,1,0,0:0:0:46:
192,192,83435,1,0,0:0:0:23:
64,192,83435,1,0,0:0:0:23:
320,192,83551,1,0,0:0:0:46:
192,192,83666,1,0,0:0:0:23:
448,192,83666,1,0,0:0:0:23:
320,192,83781,1,0,0:0:0:23:
64,192,83781,1,0,0:0:0:23:
192,192,83897,1,0,0:0:0:23:
448,192,83897,1,0,0:0:0:23:
64,192,84012,1,0,0:0:0:23:
320,192,84012,1,0,0:0:0:23:
192,192,84127,1,0,0:0:0:15:
448,192,84127,1,0,0:0:0:15:
64,192,84127,1,0,0:0:0:15:
320,192,84243,1,0,0:0:0:46:
192,192,84358,1,0,0:0:0:23:
64,192,84358,1,0,0:0:0:23:
448,192,84474,1,0,0:0:0:46:
192,192,84589,1,0,0:0:0:46:
320,192,84704,1,0,0:0:0:46:
192,192,84820,1,0,0:0:0:23:
448,192,84820,1,0,0:0:0:23:
64,192,84935,1,0,0:0:0:46:
320,192,85051,1,0,0:0:0:46:
192,192,85166,1,0,0:0:0:23:
448,192,85166,1,0,0:0:0:23:
64,192,85281,1,0,0:0:0:23:
320,192,85281,1,0,0:0:0:23:
448,192,85397,1,0,0:0:0:46:
192,192,85512,1,4,0:0:0:15:
64,192,85512,1,4,0:0:0:15:
320,192,85512,1,0,0:0:0:15:
320,192,85627,1,0,0:0:0:46:
192,192,85743,1,0,0:0:0:23:
448,192,85743,1,0,0:0:0:23:
320,192,85858,1,0,0:0:0:46:
64,192,85974,1,0,0:0:0:46:
192,192,86089,1,0,0:0:0:46:
320,192,86204,1,0,0:0:0:23:
448,192,86204,1,0,0:0:0:23:
192,192,86320,1,0,0:0:0:46:
448,192,86435,1,0,0:0:0:46:
320,192,86551,1,0,0:0:0:46:
192,192,86666,1,0,0:0:0:23:
64,192,86666,1,0,0:0:0:23:
320,192,86781,1,0,0:0:0:46:
192,192,86897,1,0,0:0:0:15:
64,192,86897,1,0,0:0:0:15:
448,192,86897,1,0,0:0:0:15:
320,192,87012,1,0,0:0:0:46:
192,192,87127,1,0,0:0:0:23:
448,192,87127,1,0,0:0:0:23:
64,192,87243,1,0,0:0:0:46:
64,192,87358,1,0,0:0:0:15:
320,192,87358,1,0,0:0:0:15:
448,192,87358,1,0,0:0:0:15:
192,192,87474,1,0,0:0:0:23:
320,192,87474,1,0,0:0:0:23:
64,192,87589,1,0,0:0:0:23:
448,192,87589,1,0,0:0:0:23:
320,192,87704,1,0,0:0:0:46:
64,192,87820,1,0,0:0:0:23:
448,192,87820,1,0,0:0:0:23:
64,192,87935,1,0,0:0:0:23:
448,192,87935,1,0,0:0:0:23:
192,192,88051,1,0,0:0:0:23:
320,192,88051,1,0,0:0:0:23:
448,192,88166,1,0,0:0:0:46:
64,192,88281,1,0,0:0:0:46:
192,192,88339,1,0,0:0:0:46:
320,192,88397,1,0,0:0:0:46:
448,192,88454,1,0,0:0:0:46:
320,192,88512,1,0,0:0:0:46:
192,192,88570,1,0,0:0:0:46:
64,192,88627,1,0,0:0:0:46:
192,192,88685,1,0,0:0:0:46:
320,192,88743,1,0,0:0:0:23:
448,192,88743,1,0,0:0:0:23:
192,192,88858,1,0,0:0:0:46:
64,192,88974,1,0,0:0:0:23:
320,192,88974,1,0,0:0:0:23:
448,192,89089,1,0,0:0:0:46:
192,192,89204,1,0,0:0:0:46:
320,192,89320,1,0,0:0:0:46:
192,192,89435,1,0,0:0:0:23:
64,192,89435,1,0,0:0:0:23:
320,192,89551,1,0,0:0:0:46:
64,192,89666,1,0,0:0:0:46:
192,192,89781,1,0,0:0:0:46:
320,192,89897,1,0,0:0:0:23:
448,192,89897,1,0,0:0:0:23:
192,192,90012,1,0,0:0:0:46:
448,192,90127,1,0,0:0:0:46:
320,192,90243,1,0,0:0:0:46:
192,192,90358,1,0,0:0:0:23:
64,192,90358,1,0,0:0:0:23:
320,192,90474,1,0,0:0:0:46:
192,192,90589,1,0,0:0:0:46:
320,192,90704,1,0,0:0:0:46:
448,192,90820,1,0,0:0:0:23:
192,192,90820,1,0,0:0:0:23:
64,192,90935,1,0,0:0:0:46:
448,192,91051,1,0,0:0:0:46:
320,192,91166,1,0,0:0:0:46:
192,192,91281,1,0,0:0:0:23:
448,192,91281,1,0,0:0:0:23:
64,192,91397,1,0,0:0:0:46:
448,192,91512,1,0,0:0:0:15:
320,192,91512,1,4,0:0:0:15:
192,192,91512,1,4,0:0:0:15:
192,192,91627,1,0,0:0:0:46:
320,192,91743,1,0,0:0:0:23:
448,192,91743,1,0,0:0:0:23:
192,192,91858,1,0,0:0:0:46:
320,192,91974,1,0,0:0:0:46:
448,192,92089,1,0,0:0:0:46:
192,192,92204,1,0,0:0:0:23:
64,192,92204,1,0,0:0:0:23:
320,192,92320,1,0,0:0:0:23:
448,192,92320,1,0,0:0:0:23:
192,192,92435,1,0,0:0:0:23:
64,192,92435,1,0,0:0:0:23:
320,192,92551,1,0,0:0:0:46:
192,192,92666,1,0,0:0:0:23:
448,192,92666,1,0,0:0:0:23:
64,192,92781,1,0,0:0:0:46:
320,192,92897,1,0,0:0:0:46:
192,192,93012,1,0,0:0:0:46:
320,192,93127,1,0,0:0:0:23:
448,192,93127,1,0,0:0:0:23:
64,192,93243,1,0,0:0:0:46:
320,192,93358,1,0,0:0:0:46:
192,192,93474,1,0,0:0:0:46:
64,192,93589,1,0,0:0:0:23:
320,192,93589,1,0,0:0:0:23:
448,192,93704,1,0,0:0:0:46:
320,192,93820,1,0,0:0:0:46:
64,192,93935,1,0,0:0:0:46:
320,192,94051,1,0,0:0:0:23:
448,192,94051,1,0,0:0:0:23:
192,192,94166,1,0,0:0:0:46:
448,192,94281,1,0,0:0:0:46:
320,192,94397,1,0,0:0:0:46:
192,192,94512,1,0,0:0:0:23:
64,192,94512,1,0,0:0:0:23:
320,192,94627,1,0,0:0:0:46:
192,192,94743,1,0,0:0:0:46:
320,192,94858,1,0,0:0:0:46:
448,192,94974,1,0,0:0:0:23:
192,192,94974,1,0,0:0:0:23:
192,192,95089,1,0,0:0:0:23:
448,192,95089,1,0,0:0:0:23:
320,192,95204,1,0,0:0:0:23:
64,192,95204,1,0,0:0:0:23:
448,192,95320,1,0,0:0:0:46:
320,192,95435,1,0,0:0:0:23:
192,192,95435,1,0,0:0:0:23:
64,192,95551,1,0,0:0:0:46:
192,192,95666,1,0,0:0:0:46:
448,192,95781,1,0,0:0:0:46:
320,192,95897,1,0,0:0:0:23:
192,192,95897,1,0,0:0:0:23:
64,192,96012,1,0,0:0:0:23:
448,192,96012,1,0,0:0:0:23:
320,192,96127,1,0,0:0:0:23:
192,192,96127,1,0,0:0:0:23:
64,192,96243,1,0,0:0:0:46:
448,192,96358,1,0,0:0:0:23:
320,192,96358,1,0,0:0:0:23:
192,192,96474,1,0,0:0:0:46:
64,192,96589,1,0,0:0:0:46:
448,192,96704,1,0,0:0:0:46:
320,192,96820,1,0,0:0:0:23:
192,192,96820,1,0,0:0:0:23:
64,192,96935,1,0,0:0:0:46:
448,192,97051,1,0,0:0:0:46:
320,192,97166,1,0,0:0:0:46:
448,192,97281,1,0,0:0:0:23:
64,192,97281,1,0,0:0:0:23:
192,192,97397,1,0,0:0:0:46:
448,192,97512,1,0,0:0:0:46:
320,192,97570,1,0,0:0:0:46:
192,192,97627,1,0,0:0:0:46:
64,192,97685,1,0,0:0:0:46:
448,192,97743,1,0,0:0:0:46:
320,192,97801,1,0,0:0:0:46:
192,192,97858,1,0,0:0:0:46:
64,192,97916,1,0,0:0:0:46:
448,192,97974,1,0,0:0:0:46:
320,192,98089,1,0,0:0:0:46:
192,192,98204,1,0,0:0:0:23:
448,192,98204,1,0,0:0:0:23:
64,192,98320,1,0,0:0:0:46:
320,192,98435,1,0,0:0:0:46:
192,192,98551,1,0,0:0:0:46:
320,192,98666,1,0,0:0:0:23:
448,192,98666,1,0,0:0:0:23:
64,192,98781,1,0,0:0:0:46:
448,192,98897,1,0,0:0:0:15:
320,192,98897,1,4,0:0:0:15:
192,192,98897,1,4,0:0:0:15:
320,192,99012,1,0,0:0:0:46:
192,192,99127,1,0,0:0:0:23:
64,192,99127,1,0,0:0:0:23:
448,192,99243,1,0,0:0:0:46:
64,192,99358,1,0,0:0:0:46:
192,192,99416,1,0,0:0:0:46:
320,192,99474,1,0,0:0:0:46:
448,192,99531,1,0,0:0:0:46:
64,192,99589,1,0,0:0:0:46:
192,192,99647,1,0,0:0:0:46:
320,192,99704,1,0,0:0:0:46:
448,192,99762,1,0,0:0:0:46:
320,192,99820,1,0,0:0:0:46:
192,192,99935,1,0,0:0:0:46:
64,192,100051,1,0,0:0:0:23:
320,192,100051,1,0,0:0:0:23:
448,192,100166,1,0,0:0:0:46:
192,192,100281,1,0,0:0:0:46:
320,192,100397,1,0,0:0:0:46:
192,192,100512,1,0,0:0:0:23:
448,192,100512,1,0,0:0:0:23:
320,192,100627,1,0,0:0:0:46:
64,192,100743,1,4,0:0:0:15:
192,192,100743,1,4,0:0:0:15:
448,192,100743,1,0,0:0:0:15:
320,192,100858,1,0,0:0:0:46:
448,192,100974,1,0,0:0:0:23:
192,192,100974,1,0,0:0:0:23:
64,192,101089,1,0,0:0:0:46:
448,192,101204,1,0,0:0:0:46:
320,192,101320,1,0,0:0:0:46:
192,192,101435,1,0,0:0:0:23:
448,192,101435,1,0,0:0:0:23:
64,192,101551,1,0,0:0:0:46:
320,192,101666,1,0,0:0:0:23:
448,192,101666,1,0,0:0:0:23:
192,192,101781,1,0,0:0:0:23:
64,192,101781,1,0,0:0:0:23:
320,192,101897,1,0,0:0:0:23:
448,192,101897,1,0,0:0:0:23:
192,192,102012,1,0,0:0:0:46:
448,192,102127,1,0,0:0:0:23:
64,192,102127,1,0,0:0:0:23:
192,192,102243,1,0,0:0:0:23:
64,192,102243,1,0,0:0:0:23:
320,192,102301,1,0,0:0:0:23:
448,192,102301,1,0,0:0:0:23:
192,192,102358,1,0,0:0:0:23:
64,192,102358,1,0,0:0:0:23:
448,192,102474,1,0,0:0:0:46:
64,192,102589,1,0,0:0:0:23:
192,192,102589,1,0,0:0:0:23:
320,192,102704,1,0,0:0:0:23:
448,192,102704,1,0,0:0:0:23:
64,192,102820,1,0,0:0:0:23:
192,192,102820,1,0,0:0:0:23:
320,192,102935,1,0,0:0:0:23:
448,192,102935,1,0,0:0:0:23:
192,192,103051,1,0,0:0:0:46:
64,192,103108,1,0,0:0:0:46:
320,192,103166,1,0,0:0:0:46:
448,192,103224,1,0,0:0:0:46:
192,192,103281,1,0,0:0:0:46:
64,192,103339,1,0,0:0:0:46:
448,192,103397,1,0,0:0:0:46:
320,192,103454,1,0,0:0:0:46:
192,192,103512,1,0,0:0:0:15:
448,192,103512,1,0,0:0:0:15:
64,192,103512,128,0,103974:0:0:0:15:
320,192,103743,1,0,0:0:0:46:
192,192,103974,128,0,104435:0:0:0:46:
64,192,104204,1,0,0:0:0:46:
320,192,104435,128,0,106743:0:0:0:46:
192,192,104666,1,0,0:0:0:46:
448,192,105127,1,0,0:0:0:46:
64,192,105589,1,0,0:0:0:46:
448,192,106051,1,0,0:0:0:46:
64,192,106281,1,4,0:0:0:23:
192,192,106281,1,4,0:0:0:23:
192,192,106512,1,0,0:0:0:46:
448,192,106743,128,0,106974:0:0:0:46:
192,192,106974,128,0,107204:0:0:0:23:
320,192,106974,1,0,0:0:0:23:
64,192,107204,128,0,107666:0:0:0:46:
448,192,107435,1,0,0:0:0:46:
320,192,107666,128,0,108127:0:0:0:46:
192,192,107897,1,0,0:0:0:46:
448,192,108127,128,0,110204:0:0:0:46:
64,192,108127,1,4,0:0:0:0:
192,192,108127,1,4,0:0:0:0:
64,192,108358,1,0,0:0:0:46:
320,192,108820,1,0,0:0:0:46:
192,192,109281,1,0,0:0:0:46:
320,192,109743,1,0,0:0:0:46:
320,192,110204,128,0,110435:0:0:0:23:
64,192,110204,1,0,0:0:0:23:
64,192,110435,128,0,110666:0:0:0:46:
192,192,110666,128,0,110897:0:0:0:23:
448,192,110666,1,0,0:0:0:23:
320,192,110897,128,0,111358:0:0:0:46:
192,192,111127,1,0,0:0:0:46:
64,192,111358,128,0,111820:0:0:0:46:
320,192,111589,1,0,0:0:0:46:
448,192,111820,128,0,113897:0:0:0:46:
192,192,112051,1,0,0:0:0:46:
320,192,112512,1,0,0:0:0:46:
64,192,112974,1,0,0:0:0:46:
320,192,113435,1,0,0:0:0:46:
64,192,113666,1,4,0:0:0:23:
192,192,113666,1,4,0:0:0:23:
192,192,113897,128,0,114127:0:0:0:23:
320,192,113897,1,0,0:0:0:23:
320,192,114127,128,0,114358:0:0:0:46:
64,192,114358,128,0,114589:0:0:0:23:
192,192,114358,1,0,0:0:0:23:
192,192,114589,128,0,115512:0:0:0:23:
448,192,114589,128,0,115512:0:0:0:23:
64,192,114820,1,0,0:0:0:46:
320,192,115281,1,0,0:0:0:46:
64,192,115512,128,0,116435:0:0:0:23:
320,192,115512,1,4,0:0:0:23:
192,192,115974,1,0,0:0:0:46:
320,192,116435,128,0,117358:0:0:0:15:
448,192,116435,128,0,117358:0:0:0:15:
192,192,116435,1,0,0:0:0:15:
64,192,116897,1,0,0:0:0:46:
192,192,117358,128,0,120127:0:0:0:23:
64,192,117358,1,0,0:0:0:23:
64,192,117820,1,0,0:0:0:46:
448,192,118051,1,0,0:0:0:46:
320,192,118281,1,0,0:0:0:46:
448,192,118397,1,0,0:0:0:46:
64,192,118512,1,0,0:0:0:46:
448,192,118743,1,0,0:0:0:46:
320,192,118858,1,0,0:0:0:46:
64,192,118916,1,0,0:0:0:46:
448,192,118974,1,0,0:0:0:46:
64,192,119089,1,0,0:0:0:46:
320,192,119204,1,0,0:0:0:46:
448,192,119435,1,0,0:0:0:46:
64,192,119551,1,0,0:0:0:46:
320,192,119608,1,0,0:0:0:46:
64,192,119666,1,0,0:0:0:46:
448,192,119781,1,0,0:0:0:46:
320,192,119839,1,0,0:0:0:46:
448,192,119897,1,0,0:0:0:46:
64,192,120012,1,0,0:0:0:46:
320,192,120127,1,0,0:0:0:23:
448,192,120127,1,0,0:0:0:23:
64,192,120243,1,0,0:0:0:46:
448,192,120358,1,0,0:0:0:23:
192,192,120358,1,0,0:0:0:23:
320,192,120474,1,0,0:0:0:46:
64,192,120589,1,0,0:0:0:46:
448,192,120704,1,0,0:0:0:46:
320,192,120820,1,0,0:0:0:23:
192,192,120820,1,0,0:0:0:23:
64,192,120935,1,0,0:0:0:46:
448,192,121051,1,0,0:0:0:23:
192,192,121051,1,0,0:0:0:23:
320,192,121166,1,0,0:0:0:23:
64,192,121166,1,0,0:0:0:23:
192,192,121281,1,0,0:0:0:23:
448,192,121281,1,0,0:0:0:23:
64,192,121397,1,0,0:0:0:46:
448,192,121512,1,0,0:0:0:46:
320,192,121627,1,0,0:0:0:46:
192,192,121743,1,0,0:0:0:23:
448,192,121743,1,0,0:0:0:23:
64,192,121858,1,0,0:0:0:46:
448,192,121974,1,0,0:0:0:46:
320,192,122089,1,0,0:0:0:46:
192,192,122204,1,0,0:0:0:23:
448,192,122204,1,0,0:0:0:23:
64,192,122320,1,0,0:0:0:46:
320,192,122435,1,0,0:0:0:46:
192,192,122551,1,0,0:0:0:46:
320,192,122666,1,0,0:0:0:23:
448,192,122666,1,0,0:0:0:23:
192,192,122781,1,0,0:0:0:46:
320,192,122897,1,4,0:0:0:15:
64,192,122897,1,0,0:0:0:15:
448,192,122897,1,4,0:0:0:15:
448,192,123012,1,0,0:0:0:46:
192,192,123127,1,0,0:0:0:23:
64,192,123127,1,0,0:0:0:23:
320,192,123243,1,0,0:0:0:46:
448,192,123358,1,0,0:0:0:46:
192,192,123474,1,0,0:0:0:46:
320,192,123589,1,0,0:0:0:23:
64,192,123589,1,0,0:0:0:23:
448,192,123704,1,0,0:0:0:46:
320,192,123820,1,0,0:0:0:46:
192,192,123935,1,0,0:0:0:46:
320,192,124051,1,0,0:0:0:23:
448,192,124051,1,0,0:0:0:23:
64,192,124166,1,0,0:0:0:46:
320,192,124281,1,0,0:0:0:46:
192,192,124397,1,0,0:0:0:46:
320,192,124512,1,0,0:0:0:23:
448,192,124512,1,0,0:0:0:23:
64,192,124627,1,0,0:0:0:46:
448,192,124743,1,0,0:0:0:46:
320,192,124858,1,0,0:0:0:46:
192,192,124974,1,0,0:0:0:23:
64,192,124974,1,0,0:0:0:23:
320,192,125089,1,0,0:0:0:46:
192,192,125204,1,0,0:0:0:46:
448,192,125320,1,0,0:0:0:46:
192,192,125435,1,0,0:0:0:23:
320,192,125435,1,0,0:0:0:23:
64,192,125551,1,0,0:0:0:46:
192,192,125666,1,0,0:0:0:23:
64,192,125666,1,0,0:0:0:23:
320,192,125781,1,0,0:0:0:23:
448,192,125781,1,0,0:0:0:23:
192,192,125897,1,0,0:0:0:23:
64,192,125897,1,0,0:0:0:23:
320,192,126012,1,0,0:0:0:23:
448,192,126012,1,0,0:0:0:23:
192,192,126127,128,0,126589:0:0:0:15:
64,192,126127,128,0,126589:0:0:0:15:
448,192,126127,1,4,0:0:0:15:
448,192,126589,1,0,0:0:0:23:
320,192,126589,1,0,0:0:0:23:
320,192,126820,128,0,127281:0:0:0:11:
448,192,126820,128,0,127281:0:0:0:11:
192,192,126820,1,0,0:0:0:11:
64,192,126820,1,0,0:0:0:11:
64,192,127281,1,0,0:0:0:46:
192,192,127339,1,0,0:0:0:46:
320,192,127397,1,0,0:0:0:46:
448,192,127454,1,0,0:0:0:46:
320,192,127512,1,0,0:0:0:23:
192,192,127512,1,0,0:0:0:23:
64,192,127627,1,0,0:0:0:46:
320,192,127743,1,0,0:0:0:23:
448,192,127743,1,0,0:0:0:23:
192,192,127858,1,0,0:0:0:46:
448,192,127974,1,0,0:0:0:46:
320,192,128089,1,0,0:0:0:46:
192,192,128204,1,0,0:0:0:23:
64,192,128204,1,0,0:0:0:23:
320,192,128320,1,0,0:0:0:46:
192,192,128435,1,4,0:0:0:15:
64,192,128435,1,4,0:0:0:15:
320,192,128435,1,0,0:0:0:15:
448,192,128551,1,0,0:0:0:46:
192,192,128666,1,0,0:0:0:23:
320,192,128666,1,0,0:0:0:23:
64,192,128781,1,0,0:0:0:46:
448,192,128897,1,0,0:0:0:23:
192,192,128897,1,0,0:0:0:23:
320,192,129012,1,0,0:0:0:23:
64,192,129012,1,0,0:0:0:23:
192,192,129127,1,0,0:0:0:23:
448,192,129127,1,0,0:0:0:23:
64,192,129243,1,0,0:0:0:23:
320,192,129243,1,0,0:0:0:23:
192,192,129358,1,0,0:0:0:23:
448,192,129358,1,0,0:0:0:23:
320,192,129474,1,0,0:0:0:46:
192,192,129589,1,0,0:0:0:23:
64,192,129589,1,0,0:0:0:23:
448,192,129704,1,0,0:0:0:46:
320,192,129820,1,0,0:0:0:46:
64,192,129935,1,0,0:0:0:46:
320,192,130051,1,0,0:0:0:23:
448,192,130051,1,0,0:0:0:23:
192,192,130166,1,0,0:0:0:46:
448,192,130281,1,0,0:0:0:15:
64,192,130281,1,4,0:0:0:15:
192,192,130281,1,4,0:0:0:15:
320,192,130397,1,0,0:0:0:46:
192,192,130512,1,0,0:0:0:23:
448,192,130512,1,0,0:0:0:23:
64,192,130627,1,0,0:0:0:46:
320,192,130743,1,0,0:0:0:23:
448,192,130743,1,0,0:0:0:23:
192,192,130858,1,0,0:0:0:23:
64,192,130858,1,0,0:0:0:23:
448,192,130974,1,0,0:0:0:23:
320,192,130974,1,0,0:0:0:23:
192,192,131089,1,0,0:0:0:23:
64,192,131089,1,0,0:0:0:23:
320,192,131204,1,0,0:0:0:23:
448,192,131204,1,0,0:0:0:23:
192,192,131320,1,0,0:0:0:46:
64,192,131435,1,0,0:0:0:23:
320,192,131435,1,0,0:0:0:23:
448,192,131551,1,0,0:0:0:46:
192,192,131666,1,0,0:0:0:46:
320,192,131781,1,0,0:0:0:46:
192,192,131897,1,0,0:0:0:23:
448,192,131897,1,0,0:0:0:23:
320,192,132012,1,0,0:0:0:46:
192,192,132127,1,0,0:0:0:46:
64,192,132243,1,0,0:0:0:46:
448,192,132358,1,0,0:0:0:23:
320,192,132358,1,0,0:0:0:23:
192,192,132474,1,0,0:0:0:46:
448,192,132589,1,0,0:0:0:46:
320,192,132704,5,0,0:0:0:46:
192,192,132820,1,0,0:0:0:23:
64,192,132820,1,0,0:0:0:23:
448,192,132935,1,0,0:0:0:46:
64,192,133051,5,0,0:0:0:46:
192,192,133108,1,0,0:0:0:46:
320,192,133166,1,0,0:0:0:46:
448,192,133224,1,0,0:0:0:46:
320,192,133281,1,0,0:0:0:46:
192,192,133339,1,0,0:0:0:46:
64,192,133397,1,0,0:0:0:46:
192,192,133454,1,0,0:0:0:46:
448,192,133512,1,4,0:0:0:15:
64,192,133512,128,0,133974:0:0:0:15:
320,192,133512,1,4,0:0:0:15:
192,192,133743,1,0,0:0:0:46:
320,192,133858,1,0,0:0:0:46:
448,192,133974,1,0,0:0:0:46:
320,192,134031,1,0,0:0:0:46:
192,192,134089,1,0,0:0:0:46:
64,192,134147,1,0,0:0:0:46:
192,192,134204,1,4,0:0:0:15:
448,192,134204,128,0,134897:0:0:0:15:
320,192,134204,1,4,0:0:0:15:
64,192,134435,1,0,0:0:0:46:
320,192,134551,1,0,0:0:0:46:
192,192,134666,1,0,0:0:0:46:
320,192,134781,1,0,0:0:0:46:
64,192,134897,1,0,0:0:0:46:
192,192,135012,1,0,0:0:0:46:
64,192,135127,1,0,0:0:0:46:
448,192,135358,1,0,0:0:0:46:
320,192,135474,1,0,0:0:0:46:
448,192,135589,1,0,0:0:0:46:
192,192,135704,1,0,0:0:0:46:
64,192,135820,1,0,0:0:0:46:
192,192,135935,1,0,0:0:0:46:
64,192,136051,1,0,0:0:0:46:
448,192,136281,1,0,0:0:0:46:
320,192,136397,1,0,0:0:0:46:
448,192,136512,1,0,0:0:0:46:
192,192,136627,1,0,0:0:0:46:
64,192,136743,1,0,0:0:0:46:
320,192,136858,1,0,0:0:0:46:
64,192,136974,1,0,0:0:0:46:
320,192,137089,1,0,0:0:0:46:
64,192,137204,1,0,0:0:0:46:
320,192,137320,1,0,0:0:0:46:
64,192,137435,1,0,0:0:0:46:
320,192,137551,1,0,0:0:0:46:
192,192,137666,1,0,0:0:0:46:
448,192,137781,1,0,0:0:0:46:
192,192,137897,1,0,0:0:0:46:
320,192,138127,1,0,0:0:0:46:
64,192,138243,1,0,0:0:0:46:
320,192,138358,1,0,0:0:0:46:
448,192,138474,1,0,0:0:0:46:
64,192,138589,128,0,138935:0:0:0:46:
192,192,138935,128,0,139281:0:0:0:46:
320,192,139281,128,0,139512:0:0:0:46:
448,192,139512,128,0,139858:0:0:0:46:
320,192,139858,128,0,140204:0:0:0:46:
192,192,140204,128,0,140435:0:0:0:46:
64,192,140435,128,0,140666:0:0:0:46:
320,192,140666,1,0,0:0:0:23:
192,192,140666,1,0,0:0:0:23:
448,192,141589,128,0,141820:0:0:0:46:
192,192,141820,128,0,142051:0:0:0:46:
320,192,142051,128,0,142281:0:0:0:46:
64,192,142281,128,0,143435:0:0:0:46:
320,192,143435,128,0,143666:0:0:0:46:
192,192,143666,128,0,143897:0:0:0:46:
320,192,143897,128,0,144127:0:0:0:46:
448,192,144127,128,0,145051:0:0:0:46:
192,192,145051,128,0,145397:0:0:0:46:
320,192,145397,128,0,145743:0:0:0:46:
64,192,145743,128,0,145974:0:0:0:46:
320,192,145974,128,0,146897:0:0:0:46:
192,192,146897,128,0,147820:0:0:0:46:
448,192,147820,128,0,148743:0:0:0:46:
192,192,148397,1,0,0:0:0:46:
320,192,148512,1,0,0:0:0:46:
192,192,148627,1,0,0:0:0:46:
64,192,148743,1,8,0:0:0:46:
320,192,148858,1,0,0:0:0:46:
64,192,148974,1,8,0:0:0:46:
320,192,149089,1,0,0:0:0:46:
192,192,149204,1,8,0:0:0:46:
64,192,149262,1,8,0:0:0:46:
320,192,149320,1,8,0:0:0:46:
448,192,149377,1,8,0:0:0:46:
64,192,149435,1,8,0:0:0:46:
192,192,149493,1,8,0:0:0:46:
448,192,149551,1,8,0:0:0:46:
320,192,149608,1,8,0:0:0:46:
192,192,149666,1,12,0:0:0:46:
192,192,150589,1,4,0:0:0:46:
192,192,151512,1,4,0:0:0:46:
448,192,152320,1,8,0:0:0:46:
320,192,152377,1,8,0:0:0:46:
192,192,152435,1,12,0:0:0:46:
448,192,152551,1,0,0:0:0:46:
192,192,152666,1,0,0:0:0:46:
448,192,152781,1,0,0:0:0:46:
64,192,152897,1,0,0:0:0:46:
320,192,153012,1,0,0:0:0:46:
64,192,153127,1,0,0:0:0:46:
320,192,153358,1,4,0:0:0:46:
320,192,154281,1,4,0:0:0:46:
320,192,155204,1,4,0:0:0:46:
64,192,156012,1,8,0:0:0:46:
192,192,156070,1,8,0:0:0:46:
320,192,156127,1,12,0:0:0:46:
448,192,156243,1,0,0:0:0:46:
192,192,156358,1,0,0:0:0:46:
64,192,156474,1,0,0:0:0:46:
448,192,156589,1,0,0:0:0:46:
192,192,156704,1,0,0:0:0:46:
320,192,156820,1,0,0:0:0:46:
192,192,156935,1,0,0:0:0:46:
64,192,157051,1,4,0:0:0:46:
64,192,157974,1,4,0:0:0:46:
64,192,158897,1,4,0:0:0:46:
320,192,159704,1,8,0:0:0:46:
192,192,159762,1,8,0:0:0:46:
64,192,159820,1,12,0:0:0:46:
320,192,159935,1,0,0:0:0:46:
192,192,160051,1,0,0:0:0:46:
448,192,160166,1,0,0:0:0:46:
192,192,160281,1,0,0:0:0:46:
320,192,160397,1,0,0:0:0:46:
64,192,160512,1,0,0:0:0:46:
320,192,160627,1,0,0:0:0:46:
448,192,160743,1,0,0:0:0:46:
448,192,160974,1,8,0:0:0:46:
64,192,161204,1,0,0:0:0:46:
64,192,161435,1,8,0:0:0:46:
320,192,161666,1,0,0:0:0:46:
320,192,161897,1,8,0:0:0:46:
192,192,162127,1,0,0:0:0:46:
192,192,162358,1,8,0:0:0:46:
448,192,162589,1,0,0:0:0:46:
448,192,162820,1,8,0:0:0:46:
64,192,163051,1,0,0:0:0:46:
64,192,163281,1,8,0:0:0:46:
320,192,163512,1,4,0:0:0:23:
448,192,163512,1,0,0:0:0:23:
320,192,163743,1,4,0:0:0:23:
448,192,163743,1,8,0:0:0:23:
192,192,163974,1,0,0:0:0:46:
192,192,164204,1,8,0:0:0:46:
448,192,164435,1,0,0:0:0:46:
448,192,164666,1,8,0:0:0:46:
64,192,164897,1,0,0:0:0:46:
64,192,165127,1,8,0:0:0:46:
192,192,165243,1,0,0:0:0:46:
320,192,165358,1,8,0:0:0:46:
448,192,165474,1,0,0:0:0:46:
192,192,165589,1,8,0:0:0:46:
448,192,165820,1,8,0:0:0:46:
320,192,165877,1,8,0:0:0:46:
192,192,165935,1,8,0:0:0:46:
64,192,165993,1,8,0:0:0:46:
192,192,166051,1,8,0:0:0:46:
320,192,166108,1,8,0:0:0:46:
448,192,166166,1,8,0:0:0:46:
320,192,166224,1,8,0:0:0:46:
192,192,166281,1,12,0:0:0:23:
64,192,166281,1,12,0:0:0:23:
320,192,166397,1,0,0:0:0:46:
448,192,166512,1,0,0:0:0:23:
192,192,166512,1,0,0:0:0:23:
320,192,166627,1,0,0:0:0:46:
64,192,166743,1,0,0:0:0:46:
320,192,166858,1,0,0:0:0:46:
192,192,166974,1,0,0:0:0:23:
64,192,166974,1,0,0:0:0:23:
448,192,167089,1,0,0:0:0:46:
320,192,167204,1,0,0:0:0:46:
192,192,167320,1,0,0:0:0:46:
320,192,167435,1,0,0:0:0:23:
448,192,167435,1,0,0:0:0:23:
64,192,167551,1,0,0:0:0:46:
192,192,167666,1,0,0:0:0:46:
448,192,167781,1,0,0:0:0:46:
320,192,167897,1,0,0:0:0:23:
192,192,167897,1,0,0:0:0:23:
64,192,168012,1,0,0:0:0:46:
448,192,168127,1,0,0:0:0:46:
320,192,168243,1,0,0:0:0:46:
192,192,168358,1,0,0:0:0:23:
448,192,168358,1,0,0:0:0:23:
64,192,168474,1,0,0:0:0:46:
320,192,168589,1,0,0:0:0:46:
192,192,168704,1,0,0:0:0:46:
320,192,168820,1,0,0:0:0:23:
448,192,168820,1,0,0:0:0:23:
192,192,168935,1,0,0:0:0:46:
448,192,169051,1,0,0:0:0:46:
320,192,169166,1,0,0:0:0:46:
192,192,169281,1,0,0:0:0:23:
64,192,169281,1,0,0:0:0:23:
320,192,169397,1,0,0:0:0:46:
64,192,169512,1,0,0:0:0:46:
192,192,169570,1,0,0:0:0:46:
320,192,169627,1,0,0:0:0:46:
448,192,169685,1,0,0:0:0:46:
64,192,169743,1,0,0:0:0:46:
192,192,169801,1,0,0:0:0:46:
320,192,169858,1,0,0:0:0:46:
448,192,169916,1,0,0:0:0:46:
64,192,169974,1,0,0:0:0:46:
320,192,170089,1,0,0:0:0:46:
192,192,170204,1,0,0:0:0:23:
448,192,170204,1,0,0:0:0:23:
320,192,170320,1,0,0:0:0:46:
64,192,170435,1,0,0:0:0:46:
320,192,170551,1,0,0:0:0:46:
192,192,170666,1,0,0:0:0:23:
64,192,170666,1,0,0:0:0:23:
448,192,170781,1,0,0:0:0:46:
192,192,170897,1,0,0:0:0:46:
320,192,171012,1,0,0:0:0:46:
448,192,171127,1,0,0:0:0:23:
192,192,171127,1,0,0:0:0:23:
64,192,171243,1,0,0:0:0:46:
320,192,171358,1,0,0:0:0:46:
192,192,171474,1,0,0:0:0:46:
320,192,171589,1,0,0:0:0:23:
448,192,171589,1,0,0:0:0:23:
64,192,171704,1,0,0:0:0:46:
320,192,171820,1,0,0:0:0:15:
192,192,171820,1,4,0:0:0:15:
64,192,171820,1,4,0:0:0:15:
448,192,171935,1,0,0:0:0:46:
320,192,172051,1,0,0:0:0:23:
192,192,172051,1,0,0:0:0:23:
64,192,172166,1,0,0:0:0:46:
320,192,172281,1,0,0:0:0:46:
192,192,172397,1,0,0:0:0:46:
448,192,172512,1,0,0:0:0:23:
320,192,172512,1,0,0:0:0:23:
64,192,172627,1,0,0:0:0:46:
448,192,172743,1,0,0:0:0:46:
64,192,172858,1,0,0:0:0:46:
192,192,172974,1,0,0:0:0:23:
320,192,172974,1,0,0:0:0:23:
448,192,173089,1,0,0:0:0:46:
320,192,173204,1,0,0:0:0:23:
64,192,173204,1,0,0:0:0:23:
192,192,173320,1,0,0:0:0:23:
448,192,173320,1,0,0:0:0:23:
320,192,173435,1,0,0:0:0:23:
192,192,173435,1,0,0:0:0:23:
64,192,173551,1,0,0:0:0:23:
448,192,173551,1,0,0:0:0:23:
192,192,173666,1,4,0:0:0:15:
320,192,173666,1,0,0:0:0:15:
64,192,173666,1,4,0:0:0:15:
448,192,173781,1,0,0:0:0:46:
192,192,173897,1,0,0:0:0:23:
320,192,173897,1,0,0:0:0:23:
64,192,174012,1,0,0:0:0:46:
448,192,174127,1,0,0:0:0:46:
320,192,174243,1,0,0:0:0:46:
192,192,174358,1,0,0:0:0:23:
448,192,174358,1,0,0:0:0:23:
64,192,174474,1,0,0:0:0:46:
192,192,174589,1,0,0:0:0:46:
448,192,174704,1,0,0:0:0:46:
192,192,174820,1,0,0:0:0:23:
64,192,174820,1,0,0:0:0:23:
320,192,174935,1,0,0:0:0:46:
64,192,175051,1,0,0:0:0:46:
192,192,175108,1,0,0:0:0:46:
320,192,175166,1,0,0:0:0:46:
448,192,175224,1,0,0:0:0:46:
64,192,175281,1,0,0:0:0:46:
192,192,175339,1,0,0:0:0:46:
320,192,175397,1,0,0:0:0:46:
448,192,175454,1,0,0:0:0:46:
192,192,175512,1,0,0:0:0:46:
320,192,175627,1,0,0:0:0:46:
448,192,175743,1,0,0:0:0:23:
192,192,175743,1,0,0:0:0:23:
320,192,175858,1,0,0:0:0:46:
64,192,175974,1,0,0:0:0:46:
192,192,176089,1,0,0:0:0:46:
320,192,176204,1,0,0:0:0:23:
448,192,176204,1,0,0:0:0:23:
192,192,176320,1,0,0:0:0:46:
448,192,176435,1,0,0:0:0:46:
320,192,176551,1,0,0:0:0:46:
192,192,176666,1,0,0:0:0:23:
64,192,176666,1,0,0:0:0:23:
320,192,176781,1,0,0:0:0:46:
64,192,176897,1,0,0:0:0:46:
192,192,176954,1,0,0:0:0:46:
448,192,177012,1,0,0:0:0:46:
320,192,177070,1,0,0:0:0:46:
64,192,177127,1,0,0:0:0:46:
192,192,177185,1,0,0:0:0:46:
320,192,177243,1,0,0:0:0:46:
448,192,177301,1,0,0:0:0:46:
192,192,177358,1,0,0:0:0:23:
64,192,177358,1,0,0:0:0:23:
320,192,177474,1,0,0:0:0:46:
192,192,177589,1,0,0:0:0:23:
448,192,177589,1,0,0:0:0:23:
64,192,177704,1,0,0:0:0:46:
320,192,177820,1,0,0:0:0:46:
192,192,177935,1,0,0:0:0:46:
320,192,178051,1,0,0:0:0:23:
448,192,178051,1,0,0:0:0:23:
192,192,178166,1,0,0:0:0:46:
448,192,178281,1,0,0:0:0:46:
320,192,178397,1,0,0:0:0:46:
192,192,178512,1,0,0:0:0:23:
64,192,178512,1,0,0:0:0:23:
448,192,178627,1,0,0:0:0:46:
192,192,178743,1,0,0:0:0:23:
320,192,178743,1,0,0:0:0:23:
192,192,178858,1,0,0:0:0:23:
320,192,178858,1,0,0:0:0:23:
448,192,178974,1,0,0:0:0:23:
64,192,178974,1,0,0:0:0:23:
320,192,179089,1,0,0:0:0:46:
64,192,179204,1,0,0:0:0:23:
192,192,179204,1,0,0:0:0:23:
320,192,179320,1,0,0:0:0:23:
448,192,179320,1,0,0:0:0:23:
192,192,179435,1,0,0:0:0:23:
64,192,179435,1,0,0:0:0:23:
448,192,179551,1,0,0:0:0:46:
64,192,179666,1,0,0:0:0:23:
320,192,179666,1,0,0:0:0:23:
192,192,179781,1,0,0:0:0:46:
320,192,179839,1,0,0:0:0:46:
192,192,179897,1,0,0:0:0:23:
448,192,179897,1,0,0:0:0:23:
64,192,180012,1,0,0:0:0:23:
320,192,180012,1,0,0:0:0:23:
192,192,180127,1,0,0:0:0:23:
448,192,180127,1,0,0:0:0:23:
192,192,180243,1,0,0:0:0:23:
448,192,180243,1,0,0:0:0:23:
64,192,180358,1,0,0:0:0:23:
320,192,180358,1,0,0:0:0:23:
448,192,180474,1,0,0:0:0:46:
64,192,180589,1,0,0:0:0:23:
192,192,180589,1,0,0:0:0:23:
192,192,180704,1,0,0:0:0:23:
320,192,180704,1,0,0:0:0:23:
320,192,180820,1,0,0:0:0:23:
448,192,180820,1,0,0:0:0:23:
64,192,180935,1,0,0:0:0:23:
192,192,180935,1,0,0:0:0:23:
320,192,181051,1,0,0:0:0:23:
448,192,181051,128,0,181512:0:0:0:23:
64,192,181281,1,0,0:0:0:46:
192,192,181512,128,0,181974:0:0:0:46:
320,192,181743,1,0,0:0:0:46:
64,192,181974,128,0,184051:0:0:0:46:
192,192,182204,1,0,0:0:0:46:
448,192,182666,1,0,0:0:0:46:
320,192,183127,1,0,0:0:0:46:
192,192,183589,1,0,0:0:0:46:
192,192,184051,128,0,184281:0:0:0:23:
320,192,184051,1,0,0:0:0:23:
448,192,184281,128,0,184512:0:0:0:23:
64,192,184281,1,0,0:0:0:23:
192,192,184397,1,0,0:0:0:46:
320,192,184512,128,0,184743:0:0:0:23:
64,192,184512,1,0,0:0:0:23:
64,192,184743,128,0,185204:0:0:0:23:
192,192,184743,1,4,0:0:0:23:
448,192,184743,1,4,0:0:0:0:
448,192,184974,1,0,0:0:0:46:
192,192,185204,128,0,185666:0:0:0:46:
64,192,185435,1,0,0:0:0:46:
448,192,185666,128,0,187743:0:0:0:46:
320,192,185897,1,0,0:0:0:46:
192,192,186358,1,0,0:0:0:46:
64,192,186589,1,4,0:0:0:46:
192,192,186589,1,4,0:0:0:0:
320,192,186820,1,0,0:0:0:46:
192,192,187281,1,0,0:0:0:46:
192,192,187743,128,0,187974:0:0:0:23:
64,192,187743,1,0,0:0:0:23:
320,192,187974,128,0,188204:0:0:0:23:
448,192,187974,1,0,0:0:0:23:
192,192,188089,1,0,0:0:0:46:
64,192,188204,128,0,188435:0:0:0:23:
448,192,188204,1,0,0:0:0:23:
192,192,188435,128,0,188897:0:0:0:23:
320,192,188435,1,4,0:0:0:23:
448,192,188435,1,4,0:0:0:23:
64,192,188666,1,0,0:0:0:0:
448,192,188897,128,0,189358:0:0:0:46:
320,192,189127,1,0,0:0:0:46:
64,192,189358,128,0,191435:0:0:0:46:
192,192,189589,1,0,0:0:0:46:
448,192,190051,1,0,0:0:0:46:
320,192,190512,1,0,0:0:0:46:
192,192,190974,1,0,0:0:0:46:
320,192,191435,128,0,191666:0:0:0:23:
448,192,191435,1,0,0:0:0:23:
192,192,191666,128,0,191897:0:0:0:46:
448,192,191897,128,0,192127:0:0:0:23:
64,192,191897,1,0,0:0:0:23:
320,192,192127,128,0,193051:0:0:0:23:
192,192,192127,128,0,193051:0:0:0:23:
448,192,192358,1,0,0:0:0:46:
64,192,192820,1,0,0:0:0:46:
64,192,193051,128,0,193974:0:0:0:46:
320,192,193281,1,0,0:0:0:46:
192,192,193512,1,0,0:0:0:46:
320,192,193743,1,0,0:0:0:46:
192,192,193858,1,0,0:0:0:46:
320,192,193974,128,0,194897:0:0:0:15:
448,192,193974,128,0,194897:0:0:0:15:
192,192,193974,1,0,0:0:0:15:
64,192,194204,1,0,0:0:0:46:
64,192,194666,1,0,0:0:0:46:
192,192,194897,128,0,197666:0:0:0:46:
320,192,195127,1,0,0:0:0:46:
448,192,195589,1,0,0:0:0:46:
64,192,195820,1,0,0:0:0:46:
448,192,195935,1,0,0:0:0:46:
64,192,196051,1,0,0:0:0:46:
448,192,196166,1,0,0:0:0:46:
64,192,196281,1,0,0:0:0:46:
320,192,196397,1,0,0:0:0:46:
448,192,196454,1,0,0:0:0:46:
64,192,196512,1,0,0:0:0:46:
448,192,196627,1,0,0:0:0:46:
320,192,196743,1,0,0:0:0:46:
448,192,196858,1,0,0:0:0:46:
320,192,196974,1,0,0:0:0:46:
448,192,197089,1,0,0:0:0:46:
64,192,197204,1,0,0:0:0:46:
320,192,197262,1,0,0:0:0:46:
448,192,197320,1,0,0:0:0:46:
320,192,197377,1,0,0:0:0:46:
64,192,197435,1,0,0:0:0:46:
320,192,197493,1,0,0:0:0:46:
448,192,197551,1,0,0:0:0:46:
320,192,197608,1,0,0:0:0:46:
64,192,197666,1,4,0:0:0:23:
448,192,197666,1,0,0:0:0:23:
320,192,197781,1,0,0:0:0:0:
192,192,197897,1,0,0:0:0:0:
448,192,197897,1,0,0:0:0:0:
64,192,198012,1,0,0:0:0:0:
320,192,198127,1,0,0:0:0:0:
448,192,198243,1,0,0:0:0:0:
320,192,198358,1,0,0:0:0:0:
192,192,198358,1,0,0:0:0:0:
64,192,198474,1,0,0:0:0:0:
448,192,198589,1,0,0:0:0:0:
320,192,198704,1,0,0:0:0:0:
192,192,198820,1,0,0:0:0:0:
448,192,198820,1,0,0:0:0:0:
64,192,198935,1,0,0:0:0:0:
448,192,199051,1,0,0:0:0:0:
320,192,199166,1,0,0:0:0:0:
192,192,199281,1,0,0:0:0:0:
64,192,199281,1,0,0:0:0:0:
320,192,199397,1,0,0:0:0:0:
448,192,199397,1,0,0:0:0:0:
192,192,199512,1,0,0:0:0:0:
64,192,199512,1,0,0:0:0:0:
448,192,199627,1,0,0:0:0:0:
192,192,199743,1,0,0:0:0:0:
320,192,199743,1,0,0:0:0:0:
64,192,199858,1,0,0:0:0:0:
448,192,199974,1,0,0:0:0:0:
320,192,200089,1,0,0:0:0:0:
192,192,200204,1,0,0:0:0:0:
448,192,200204,1,0,0:0:0:0:
64,192,200320,1,0,0:0:0:0:
320,192,200435,1,0,0:0:0:0:
448,192,200551,1,0,0:0:0:0:
320,192,200666,1,0,0:0:0:0:
192,192,200666,1,0,0:0:0:0:
64,192,200781,1,0,0:0:0:0:
448,192,200897,1,0,0:0:0:0:
320,192,201012,1,0,0:0:0:0:
448,192,201127,1,0,0:0:0:0:
192,192,201127,1,0,0:0:0:0:
320,192,201243,1,0,0:0:0:0:
64,192,201358,1,4,0:0:0:0:
448,192,201358,1,0,0:0:0:0:
192,192,201358,1,4,0:0:0:0:
192,192,201474,1,0,0:0:0:0:
320,192,201589,1,0,0:0:0:0:
448,192,201589,1,0,0:0:0:0:
192,192,201704,1,0,0:0:0:0:
448,192,201820,1,0,0:0:0:0:
320,192,201935,1,0,0:0:0:0:
192,192,202051,1,0,0:0:0:0:
64,192,202051,1,0,0:0:0:0:
448,192,202166,1,0,0:0:0:0:
320,192,202281,1,0,0:0:0:0:
64,192,202397,1,0,0:0:0:0:
320,192,202512,1,0,0:0:0:0:
448,192,202512,1,0,0:0:0:0:
192,192,202627,1,0,0:0:0:0:
320,192,202743,1,0,0:0:0:0:
448,192,202858,1,0,0:0:0:0:
320,192,202974,1,0,0:0:0:0:
192,192,202974,1,0,0:0:0:0:
64,192,203089,1,0,0:0:0:0:
448,192,203204,1,0,0:0:0:0:
192,192,203204,1,4,0:0:0:0:
64,192,203204,1,4,0:0:0:0:
320,192,203320,1,0,0:0:0:0:
192,192,203435,1,0,0:0:0:0:
64,192,203435,1,0,0:0:0:0:
320,192,203551,1,0,0:0:0:0:
448,192,203666,1,0,0:0:0:0:
192,192,203781,1,0,0:0:0:0:
320,192,203897,1,0,0:0:0:0:
64,192,203897,1,0,0:0:0:0:
448,192,204012,1,0,0:0:0:0:
320,192,204127,1,0,0:0:0:0:
192,192,204243,1,0,0:0:0:0:
320,192,204358,1,0,0:0:0:0:
448,192,204358,1,0,0:0:0:0:
64,192,204474,1,0,0:0:0:0:
320,192,204589,1,0,0:0:0:0:
192,192,204704,1,0,0:0:0:0:
320,192,204820,1,0,0:0:0:0:
448,192,204820,1,0,0:0:0:0:
315,168,204935,1,0,0:0:0:0:
192,192,204935,1,0,0:0:0:0:
196,215,205051,1,4,0:0:0:0:
77,263,205051,1,4,0:0:0:0:
448,192,205051,1,0,0:0:0:0:
448,192,205166,1,0,0:0:0:0:
320,192,205281,1,0,0:0:0:0:
192,192,205281,1,0,0:0:0:0:
64,192,205397,1,0,0:0:0:0:
320,192,205512,1,0,0:0:0:0:
448,192,205627,1,0,0:0:0:0:
320,192,205743,1,0,0:0:0:0:
192,192,205743,1,0,0:0:0:0:
64,192,205858,1,0,0:0:0:0:
448,192,205974,1,0,0:0:0:0:
320,192,206089,1,0,0:0:0:0:
192,192,206204,1,0,0:0:0:0:
448,192,206204,1,0,0:0:0:0:
64,192,206320,1,0,0:0:0:0:
320,192,206435,1,0,0:0:0:0:
448,192,206551,1,0,0:0:0:0:
192,192,206666,1,0,0:0:0:0:
320,192,206666,1,0,0:0:0:0:
64,192,206781,1,0,0:0:0:0:
448,192,206897,1,0,0:0:0:0:
320,192,207012,1,0,0:0:0:0:
192,192,207127,1,0,0:0:0:0:
448,192,207127,1,0,0:0:0:0:
64,192,207243,1,0,0:0:0:0:
320,192,207358,1,0,0:0:0:0:
192,192,207474,1,0,0:0:0:0:
320,192,207589,1,0,0:0:0:0:
448,192,207589,1,0,0:0:0:0:
64,192,207704,1,0,0:0:0:0:
320,192,207820,1,0,0:0:0:0:
192,192,207935,1,0,0:0:0:0:
64,192,208051,1,0,0:0:0:0:
320,192,208051,1,0,0:0:0:0:
448,192,208166,1,0,0:0:0:0:
320,192,208281,1,0,0:0:0:0:
192,192,208397,1,0,0:0:0:0:
320,192,208512,1,0,0:0:0:0:
448,192,208512,1,0,0:0:0:0:
192,192,208627,1,0,0:0:0:0:
64,192,208743,1,0,0:0:0:0:
320,192,208743,1,4,0:0:0:0:
448,192,208743,1,4,0:0:0:0:
448,192,208858,1,0,0:0:0:0:
320,192,208974,1,0,0:0:0:0:
192,192,208974,1,0,0:0:0:0:
64,192,209089,1,0,0:0:0:0:
448,192,209204,1,0,0:0:0:0:
320,192,209320,1,0,0:0:0:0:
192,192,209435,1,0,0:0:0:0:
64,192,209435,1,0,0:0:0:0:
320,192,209551,1,0,0:0:0:0:
448,192,209666,1,0,0:0:0:0:
320,192,209724,1,0,0:0:0:0:
64,192,209781,1,0,0:0:0:0:
192,192,209839,1,0,0:0:0:0:
448,192,209897,1,0,0:0:0:0:
320,192,209954,1,0,0:0:0:0:
64,192,210012,1,0,0:0:0:0:
192,192,210070,1,0,0:0:0:0:
448,192,210127,1,0,0:0:0:0:
320,192,210185,1,0,0:0:0:0:
192,192,210243,1,0,0:0:0:0:
64,192,210301,1,0,0:0:0:0:
448,192,210358,1,0,0:0:0:0:
320,192,210416,1,0,0:0:0:0:
192,192,210474,1,0,0:0:0:0:
64,192,210531,1,0,0:0:0:0:
320,192,210589,1,0,0:0:0:0:
448,192,210589,1,0,0:0:0:0:
192,192,210704,1,0,0:0:0:0:
64,192,210820,1,0,0:0:0:0:
320,192,210820,1,0,0:0:0:0:
448,192,210935,1,0,0:0:0:0:
192,192,211051,1,0,0:0:0:0:
64,192,211051,1,0,0:0:0:0:
320,192,211166,1,0,0:0:0:0:
448,192,211166,1,0,0:0:0:0:
192,192,211281,1,0,0:0:0:0:
64,192,211281,1,0,0:0:0:0:
320,192,211397,1,0,0:0:0:0:
448,192,211512,1,0,0:0:0:0:
320,192,211627,1,0,0:0:0:0:
192,192,211743,1,0,0:0:0:0:
64,192,211743,1,0,0:0:0:0:
320,192,211858,1,0,0:0:0:0:
64,192,211974,1,0,0:0:0:0:
320,192,212089,1,0,0:0:0:0:
192,192,212204,1,0,0:0:0:0:
448,192,212204,1,0,0:0:0:0:
64,192,212320,1,0,0:0:0:0:
320,192,212320,1,0,0:0:0:0:
192,192,212435,1,0,0:0:0:0:
448,192,212435,1,0,0:0:0:0:
64,192,212551,1,0,0:0:0:0:
320,192,212666,1,0,0:0:0:0:
448,192,212666,1,0,0:0:0:0:
192,192,212781,1,0,0:0:0:0:
448,192,212897,1,0,0:0:0:0:
320,192,213012,1,0,0:0:0:0:
192,192,213127,1,0,0:0:0:0:
64,192,213127,1,0,0:0:0:0:
320,192,213243,1,0,0:0:0:0:
192,192,213358,1,0,0:0:0:0:
448,192,213474,1,0,0:0:0:0:
320,192,213589,1,0,0:0:0:0:
192,192,213589,1,0,0:0:0:0:
64,192,213704,1,0,0:0:0:0:
448,192,213820,1,0,0:0:0:0:
320,192,213935,1,0,0:0:0:0:
192,192,214051,1,0,0:0:0:0:
64,192,214051,1,0,0:0:0:0:
320,192,214166,1,0,0:0:0:0:
448,192,214166,1,0,0:0:0:0:
192,192,214281,1,0,0:0:0:0:
320,192,214281,1,0,0:0:0:0:
64,192,214397,1,0,0:0:0:0:
448,192,214512,1,0,0:0:0:0:
320,192,214512,1,0,0:0:0:0:
192,192,214627,1,0,0:0:0:0:
320,192,214743,1,0,0:0:0:0:
64,192,214858,1,0,0:0:0:0:
192,192,214974,1,0,0:0:0:0:
320,192,214974,1,0,0:0:0:0:
448,192,215089,1,0,0:0:0:0:
192,192,215204,1,0,0:0:0:0:
64,192,215320,1,0,0:0:0:0:
320,192,215435,1,0,0:0:0:0:
448,192,215435,1,0,0:0:0:0:
192,192,215551,1,0,0:0:0:0:
448,192,215666,1,0,0:0:0:0:
320,192,215781,1,0,0:0:0:0:
192,192,215897,1,0,0:0:0:0:
64,192,215897,1,0,0:0:0:0:
320,192,216012,1,0,0:0:0:0:
64,192,216127,1,4,0:0:0:0:
192,192,216127,1,4,0:0:0:0:
448,192,216127,1,0,0:0:0:0:
320,192,216243,1,0,0:0:0:0:
192,192,216358,1,0,0:0:0:0:
448,192,216358,1,0,0:0:0:0:
320,192,216474,1,0,0:0:0:0:
64,192,216589,1,0,0:0:0:0:
192,192,216704,1,0,0:0:0:0:
320,192,216820,1,0,0:0:0:0:
448,192,216820,1,0,0:0:0:0:
192,192,216935,1,0,0:0:0:0:
448,192,217051,1,0,0:0:0:0:
320,192,217166,1,0,0:0:0:0:
192,192,217281,1,0,0:0:0:0:
64,192,217281,1,0,0:0:0:0:
320,192,217397,1,0,0:0:0:0:
64,192,217512,1,0,0:0:0:0:
320,192,217627,1,0,0:0:0:0:
192,192,217743,1,0,0:0:0:0:
448,192,217743,1,0,0:0:0:0:
320,192,217858,1,0,0:0:0:0:
64,192,217974,1,0,0:0:0:0:
320,192,217974,1,4,0:0:0:0:
448,192,217974,1,4,0:0:0:0:
192,192,218089,1,0,0:0:0:0:
64,192,218204,1,0,0:0:0:0:
448,192,218204,1,0,0:0:0:0:
320,192,218320,1,0,0:0:0:0:
448,192,218435,1,0,0:0:0:0:
64,192,218551,1,0,0:0:0:0:
192,192,218666,1,0,0:0:0:0:
320,192,218666,1,0,0:0:0:0:
448,192,218781,1,0,0:0:0:0:
320,192,218897,1,0,0:0:0:0:
192,192,219012,1,0,0:0:0:0:
64,192,219127,1,0,0:0:0:0:
320,192,219127,1,0,0:0:0:0:
448,192,219243,1,0,0:0:0:0:
192,192,219358,1,0,0:0:0:0:
320,192,219474,1,0,0:0:0:0:
192,192,219589,1,0,0:0:0:0:
64,192,219589,1,0,0:0:0:0:
448,192,219704,1,0,0:0:0:0:
320,192,219820,1,0,0:0:0:0:
64,192,219935,1,0,0:0:0:0:
192,192,220051,1,0,0:0:0:0:
320,192,220051,1,0,0:0:0:0:
448,192,220166,1,0,0:0:0:0:
64,192,220281,1,0,0:0:0:0:
192,192,220397,1,0,0:0:0:0:
320,192,220512,1,0,0:0:0:0:
64,192,220512,1,0,0:0:0:0:
448,192,220627,1,0,0:0:0:0:
192,192,220743,1,0,0:0:0:0:
320,192,220858,1,0,0:0:0:0:
192,192,220974,1,0,0:0:0:0:
64,192,220974,1,0,0:0:0:0:
448,192,221089,1,0,0:0:0:0:
192,192,221204,1,0,0:0:0:0:
64,192,221320,1,0,0:0:0:0:
320,192,221435,1,0,0:0:0:0:
448,192,221435,1,0,0:0:0:0:
192,192,221551,1,0,0:0:0:0:
64,192,221551,1,0,0:0:0:0:
320,192,221608,1,0,0:0:0:0:
192,192,221666,1,0,0:0:0:0:
448,192,221666,1,0,0:0:0:0:
64,192,221781,1,0,0:0:0:0:
320,192,221897,1,0,0:0:0:0:
448,192,221897,1,0,0:0:0:0:
192,192,222012,1,0,0:0:0:0:
448,192,222127,1,0,0:0:0:0:
320,192,222243,1,0,0:0:0:0:
192,192,222358,1,0,0:0:0:0:
64,192,222358,1,0,0:0:0:0:
320,192,222474,1,0,0:0:0:0:
64,192,222589,1,0,0:0:0:0:
192,192,222704,1,0,0:0:0:0:
320,192,222820,1,0,0:0:0:0:
448,192,222820,1,0,0:0:0:0:
64,192,222935,1,0,0:0:0:0:
448,192,223051,1,0,0:0:0:0:
320,192,223166,1,0,0:0:0:0:
192,192,223281,1,0,0:0:0:0:
64,192,223281,1,0,0:0:0:0:
448,192,223397,1,0,0:0:0:0:
192,192,223512,1,4,0:0:0:0:
320,192,223512,1,0,0:0:0:0:
64,192,223512,1,4,0:0:0:0:
448,192,223627,1,0,0:0:0:0:
192,192,223743,1,0,0:0:0:0:
320,192,223743,1,0,0:0:0:0:
64,192,223858,1,0,0:0:0:0:
448,192,223974,1,0,0:0:0:0:
320,192,224089,1,0,0:0:0:0:
192,192,224204,1,0,0:0:0:0:
64,192,224204,1,0,0:0:0:0:
448,192,224320,1,0,0:0:0:0:
320,192,224435,1,0,0:0:0:0:
192,192,224551,1,0,0:0:0:0:
320,192,224666,1,0,0:0:0:0:
448,192,224666,1,0,0:0:0:0:
64,192,224781,1,0,0:0:0:0:
320,192,224897,1,0,0:0:0:0:
192,192,225012,1,0,0:0:0:0:
64,192,225127,1,0,0:0:0:0:
448,192,225127,1,0,0:0:0:0:
320,192,225243,1,0,0:0:0:0:
192,192,225358,1,4,0:0:0:0:
64,192,225358,1,4,0:0:0:0:
448,192,225358,1,0,0:0:0:0:
320,192,225474,1,0,0:0:0:0:
448,192,225589,1,0,0:0:0:0:
192,192,225589,1,0,0:0:0:0:
64,192,225704,1,0,0:0:0:0:
448,192,225820,1,0,0:0:0:0:
320,192,225935,1,0,0:0:0:0:
192,192,226051,1,0,0:0:0:0:
448,192,226051,1,0,0:0:0:0:
320,192,226166,1,0,0:0:0:0:
64,192,226281,1,0,0:0:0:0:
192,192,226397,1,0,0:0:0:0:
320,192,226512,1,0,0:0:0:0:
448,192,226512,1,0,0:0:0:0:
192,192,226627,1,0,0:0:0:0:
64,192,226627,1,0,0:0:0:0:
320,192,226743,1,0,0:0:0:0:
448,192,226743,1,0,0:0:0:0:
192,192,226858,5,0,0:0:0:0:
64,192,226858,1,0,0:0:0:0:
320,192,226974,1,0,0:0:0:0:
448,192,226974,1,0,0:0:0:0:
192,192,227089,1,0,0:0:0:0:
320,192,227089,1,0,0:0:0:0:
64,192,227204,5,0,0:0:0:46:
192,192,227434,1,0,0:0:0:46:
64,192,227665,1,0,0:0:0:46:
448,192,227896,1,0,0:0:0:46:
320,192,228127,1,0,0:0:0:46:
448,192,228357,1,0,0:0:0:46:
192,192,228588,1,0,0:0:0:46:
64,192,228819,1,0,0:0:0:46:
192,192,229050,1,0,0:0:0:46:
320,192,229280,1,0,0:0:0:46:
192,192,229511,1,0,0:0:0:46:
320,192,229742,1,0,0:0:0:46:
64,192,229973,1,0,0:0:0:46:
320,192,230204,1,0,0:0:0:46:
192,192,230434,1,0,0:0:0:46:
448,192,230665,1,0,0:0:0:46:
192,192,230896,1,0,0:0:0:46:
64,192,231127,1,0,0:0:0:46:
192,192,231357,1,0,0:0:0:46:
448,192,231588,1,0,0:0:0:46:
320,192,231819,1,0,0:0:0:46:
448,192,232050,1,0,0:0:0:46:
192,192,232280,1,0,0:0:0:46:
320,192,232511,1,0,0:0:0:46:
192,192,232742,1,0,0:0:0:46:
448,192,232973,1,0,0:0:0:46:
320,192,233204,1,0,0:0:0:46:
448,192,233434,1,0,0:0:0:46:
192,192,233665,1,0,0:0:0:46:
320,192,233896,1,0,0:0:0:46:
192,192,234127,1,0,0:0:0:46:
64,192,234357,1,0,0:0:0:46:
448,192,234588,1,0,0:0:0:46:
320,192,234819,1,0,0:0:0:46:
448,192,235050,1,0,0:0:0:46:
192,192,235280,1,0,0:0:0:46:
320,192,235511,1,0,0:0:0:46:
192,192,235742,1,0,0:0:0:46:
448,192,235973,1,0,0:0:0:46:
320,192,236204,1,0,0:0:0:46:
448,192,236434,1,0,0:0:0:46:
64,192,236665,1,0,0:0:0:46:
192,192,236896,1,0,0:0:0:46:
64,192,237127,1,0,0:0:0:46:
320,192,237357,1,0,0:0:0:46:
192,192,237588,1,0,0:0:0:46:
320,192,237819,1,0,0:0:0:46:
448,192,238050,1,0,0:0:0:46:
64,192,238280,1,0,0:0:0:46:
192,192,238511,1,0,0:0:0:46:
448,192,238742,1,0,0:0:0:46:
320,192,238973,1,0,0:0:0:46:
192,192,239204,1,0,0:0:0:46:
448,192,239434,1,0,0:0:0:46:
320,192,239665,1,0,0:0:0:46:
448,192,239896,1,0,0:0:0:46:
64,192,240127,1,0,0:0:0:46:
320,192,240357,1,0,0:0:0:46:
192,192,240588,1,0,0:0:0:46:
448,192,240819,1,0,0:0:0:46:
320,192,241050,1,0,0:0:0:46:
448,192,241280,1,0,0:0:0:46:
192,192,241511,1,0,0:0:0:46:
320,192,241742,1,0,0:0:0:46:
448,192,241973,1,0,0:0:0:46:
192,192,242204,1,0,0:0:0:46:
320,192,242434,1,0,0:0:0:46:
64,192,242665,1,0,0:0:0:46:
320,192,242896,1,0,0:0:0:46:
192,192,243127,1,0,0:0:0:46:
448,192,243357,1,0,0:0:0:46:
448,192,243588,1,0,0:0:0:46:
192,192,243819,1,0,0:0:0:46:
320,192,244050,1,0,0:0:0:46:
64,192,244511,1,0,0:0:0:46:
320,192,244973,1,0,0:0:0:46:
64,192,245204,1,0,0:0:0:46:
192,192,245434,1,0,0:0:0:46:
320,192,245665,1,0,0:0:0:46:
192,192,245896,1,0,0:0:0:46:
448,192,246127,1,0,0:0:0:46:
192,192,246357,1,0,0:0:0:46:
64,192,246588,1,0,0:0:0:46:
192,192,246819,1,0,0:0:0:46:
320,192,247050,1,0,0:0:0:46:
448,192,247280,1,0,0:0:0:46:
192,192,247511,1,0,0:0:0:46:
320,192,247742,1,0,0:0:0:46:
192,192,247973,1,0,0:0:0:46:
64,192,248204,1,0,0:0:0:46:
320,192,248434,1,0,0:0:0:46:
192,192,248665,1,0,0:0:0:46:
320,192,248896,1,0,0:0:0:46:
448,192,249127,1,0,0:0:0:46:
320,192,249357,1,0,0:0:0:46:
192,192,249588,1,0,0:0:0:46:
320,192,249819,1,0,0:0:0:46:
192,192,250050,1,0,0:0:0:46:
64,192,250280,1,0,0:0:0:46:
320,192,250511,1,0,0:0:0:46:
448,192,250742,1,0,0:0:0:46:
320,192,250973,1,0,0:0:0:46:
192,192,251204,1,0,0:0:0:46:
448,192,251549,1,0,0:0:0:46:
192,192,251897,1,0,0:0:0:46:
320,192,252246,1,0,0:0:0:46:
64,192,252595,1,0,0:0:0:23:
192,192,252595,1,0,0:0:0:23:
320,192,253059,1,0,0:0:0:46:
448,192,253416,1,0,0:0:0:46:
192,192,253909,1,0,0:0:0:46:
320,192,254647,1,0,0:0:0:46:
320,192,255586,1,0,0:0:0:46:
192,192,256408,128,0,257675:0:0:0:46:
448,192,257675,128,0,258906:0:0:0:46:
64,192,258906,128,0,263204:0:0:0:46:
448,192,263204,1,0,0:0:0:23:
320,192,263204,1,0,0:0:0:23:
192,192,263319,1,0,0:0:0:46:
448,192,263434,1,0,0:0:0:23:
64,192,263434,1,0,0:0:0:23:
192,192,263550,1,0,0:0:0:46:
320,192,263665,1,0,0:0:0:46:
448,192,263780,1,0,0:0:0:46:
192,192,263896,1,0,0:0:0:23:
64,192,263896,1,0,0:0:0:23:
320,192,264011,1,0,0:0:0:46:
192,192,264127,1,0,0:0:0:46:
320,192,264242,1,0,0:0:0:46:
448,192,264357,1,0,0:0:0:23:
192,192,264357,1,0,0:0:0:23:
64,192,264473,1,0,0:0:0:46:
192,192,264588,1,0,0:0:0:46:
320,192,264704,1,0,0:0:0:46:
448,192,264819,1,0,0:0:0:23:
192,192,264819,1,0,0:0:0:23:
64,192,264934,1,0,0:0:0:46:
192,192,264992,1,0,0:0:0:46:
448,192,265050,1,0,0:0:0:23:
64,192,265050,1,0,0:0:0:23:
320,192,265165,1,0,0:0:0:46:
64,192,265280,1,0,0:0:0:23:
448,192,265280,1,0,0:0:0:23:
192,192,265396,1,0,0:0:0:46:
448,192,265511,1,0,0:0:0:46:
320,192,265627,1,0,0:0:0:46:
192,192,265742,1,0,0:0:0:23:
64,192,265742,1,0,0:0:0:23:
320,192,265857,1,0,0:0:0:46:
448,192,265973,1,0,0:0:0:46:
320,192,266088,1,0,0:0:0:46:
192,192,266204,1,0,0:0:0:23:
448,192,266204,1,0,0:0:0:23:
320,192,266319,1,0,0:0:0:46:
64,192,266434,1,0,0:0:0:23:
448,192,266434,1,0,0:0:0:23:
192,192,266550,1,0,0:0:0:46:
64,192,266665,1,0,0:0:0:23:
448,192,266665,1,0,0:0:0:23:
320,192,266780,1,0,0:0:0:46:
192,192,266838,1,0,0:0:0:46:
64,192,266896,1,0,0:0:0:23:
448,192,266896,1,0,0:0:0:23:
320,192,267011,1,0,0:0:0:46:
64,192,267127,1,0,0:0:0:23:
448,192,267127,1,0,0:0:0:23:
192,192,267242,1,0,0:0:0:46:
320,192,267357,1,0,0:0:0:46:
448,192,267473,1,0,0:0:0:46:
192,192,267588,1,0,0:0:0:23:
64,192,267588,1,0,0:0:0:23:
448,192,267704,1,0,0:0:0:46:
64,192,267819,1,0,0:0:0:46:
448,192,267934,1,0,0:0:0:46:
64,192,268050,1,0,0:0:0:23:
320,192,268050,1,0,0:0:0:23:
448,192,268165,1,0,0:0:0:46:
192,192,268280,1,0,0:0:0:23:
320,192,268280,1,0,0:0:0:23:
448,192,268396,1,0,0:0:0:46:
320,192,268511,1,0,0:0:0:23:
64,192,268511,1,0,0:0:0:23:
320,192,268627,1,0,0:0:0:46:
448,192,268684,1,0,0:0:0:46:
192,192,268742,1,0,0:0:0:23:
64,192,268742,1,0,0:0:0:23:
320,192,268857,1,0,0:0:0:46:
64,192,268973,1,0,0:0:0:23:
448,192,268973,1,0,0:0:0:23:
192,192,269088,1,0,0:0:0:46:
64,192,269204,1,0,0:0:0:46:
320,192,269319,1,0,0:0:0:46:
192,192,269434,1,0,0:0:0:23:
448,192,269434,1,0,0:0:0:23:
320,192,269550,1,0,0:0:0:46:
448,192,269665,1,0,0:0:0:46:
64,192,269780,1,0,0:0:0:46:
192,192,269896,1,0,0:0:0:23:
448,192,269896,1,0,0:0:0:23:
320,192,270011,1,0,0:0:0:46:
448,192,270127,1,0,0:0:0:46:
320,192,270242,1,0,0:0:0:46:
192,192,270357,1,0,0:0:0:46:
320,192,270473,1,0,0:0:0:46:
192,192,270530,1,0,0:0:0:46:
64,192,270588,1,0,0:0:0:23:
320,192,270588,1,0,0:0:0:23:
448,192,270646,1,0,0:0:0:46:
320,192,270704,1,0,0:0:0:46:
192,192,270761,1,0,0:0:0:46:
448,192,270819,1,0,0:0:0:46:
320,192,270877,1,0,0:0:0:46:
192,192,270934,1,0,0:0:0:46:
64,192,270992,1,0,0:0:0:46:
448,192,271050,1,0,0:0:0:46:
320,192,271107,1,0,0:0:0:46:
192,192,271165,1,0,0:0:0:46:
64,192,271223,1,0,0:0:0:46:
320,192,271280,1,0,0:0:0:46:
192,192,271338,1,0,0:0:0:46:
320,192,271396,1,0,0:0:0:46:
448,192,271454,1,0,0:0:0:46:
64,192,271511,1,0,0:0:0:46:
192,192,271569,1,0,0:0:0:46:
320,192,271627,1,0,0:0:0:46:
192,192,271684,1,0,0:0:0:46:
448,192,271742,1,0,0:0:0:46:
320,192,271800,1,0,0:0:0:46:
192,192,271857,1,0,0:0:0:46:
320,192,271915,1,0,0:0:0:46:
64,192,271973,1,0,0:0:0:46:
320,192,272030,1,0,0:0:0:46:
192,192,272088,1,0,0:0:0:46:
448,192,272146,1,0,0:0:0:46:
64,192,272204,1,0,0:0:0:46:
320,192,272261,1,0,0:0:0:46:
192,192,272319,1,0,0:0:0:46:
448,192,272377,1,0,0:0:0:46:
320,192,272434,1,0,0:0:0:46:
192,192,272492,1,0,0:0:0:46:
64,192,272550,1,0,0:0:0:46:
192,192,272607,1,0,0:0:0:46:
448,192,272665,1,0,0:0:0:46:
320,192,272723,1,0,0:0:0:46:
192,192,272780,1,0,0:0:0:46:
64,192,272838,1,0,0:0:0:46:
448,192,272896,1,0,0:0:0:46:
320,192,272954,1,0,0:0:0:46:
192,192,273011,1,0,0:0:0:46:
64,192,273069,1,0,0:0:0:46:
320,192,273127,1,0,0:0:0:46:
192,192,273184,1,0,0:0:0:46:
320,192,273242,1,0,0:0:0:46:
64,192,273300,1,0,0:0:0:46:
192,192,273357,1,0,0:0:0:46:
320,192,273415,1,0,0:0:0:46:
448,192,273473,1,0,0:0:0:46:
320,192,273530,1,0,0:0:0:46:
64,192,273588,1,0,0:0:0:46:
192,192,273646,1,0,0:0:0:46:
320,192,273704,1,0,0:0:0:46:
192,192,273761,1,0,0:0:0:46:
448,192,273819,1,0,0:0:0:46:
320,192,273877,1,0,0:0:0:46:
192,192,273934,1,0,0:0:0:46:
320,192,273992,1,0,0:0:0:46:
64,192,274050,1,0,0:0:0:46:
192,192,274107,1,0,0:0:0:46:
320,192,274165,1,0,0:0:0:46:
448,192,274223,1,0,0:0:0:46:
64,192,274280,128,0,276127:0:0:0:23:
192,192,274280,1,0,0:0:0:23:
448,192,274396,1,0,0:0:0:46:
320,192,274511,1,0,0:0:0:23:
192,192,274511,1,0,0:0:0:23:
448,192,274627,1,0,0:0:0:46:
320,192,274742,1,0,0:0:0:46:
192,192,274857,1,0,0:0:0:46:
320,192,274973,1,0,0:0:0:23:
448,192,274973,1,0,0:0:0:23:
192,192,275088,1,0,0:0:0:46:
320,192,275204,1,0,0:0:0:46:
448,192,275319,1,0,0:0:0:46:
192,192,275434,1,0,0:0:0:23:
320,192,275434,1,0,0:0:0:23:
448,192,275550,1,0,0:0:0:46:
320,192,275665,1,0,0:0:0:46:
192,192,275780,1,0,0:0:0:46:
320,192,275896,1,0,0:0:0:23:
448,192,275896,1,0,0:0:0:23:
192,192,276011,1,0,0:0:0:46:
448,192,276127,128,0,277973:0:0:0:23:
320,192,276127,1,0,0:0:0:23:
64,192,276357,1,0,0:0:0:23:
192,192,276357,1,0,0:0:0:23:
64,192,276473,1,0,0:0:0:23:
192,192,276473,1,0,0:0:0:23:
64,192,276588,1,0,0:0:0:23:
192,192,276588,1,0,0:0:0:23:
192,192,276819,1,0,0:0:0:23:
320,192,276819,1,0,0:0:0:23:
64,192,277050,1,0,0:0:0:46:
320,192,277165,1,0,0:0:0:46:
64,192,277280,1,0,0:0:0:46:
320,192,277396,1,0,0:0:0:46:
192,192,277511,1,0,0:0:0:46:
64,192,277742,1,0,0:0:0:46:
192,192,277800,1,0,0:0:0:46:
320,192,277857,1,0,0:0:0:46:
192,192,277915,1,0,0:0:0:46:
64,192,277973,1,0,0:0:0:23:
320,192,277973,128,0,278204:0:0:0:23:
448,192,278204,128,0,278319:0:0:0:23:
64,192,278204,1,0,0:0:0:23:
192,192,278319,128,0,278550:0:0:0:46:
320,192,278550,128,0,278665:0:0:0:46:
64,192,278665,128,0,278896:0:0:0:23:
448,192,278665,1,0,0:0:0:23:
320,192,278896,128,0,279011:0:0:0:46:
448,192,279011,128,0,279357:0:0:0:46:
64,192,279127,1,0,0:0:0:46:
192,192,279357,128,0,279473:0:0:0:46:
320,192,279473,128,0,279588:0:0:0:46:
64,192,279588,128,0,279704:0:0:0:23:
192,192,279588,1,0,0:0:0:23:
448,192,279704,128,0,279819:0:0:0:46:
192,192,279819,128,0,280050:0:0:0:46:
320,192,280050,128,0,280165:0:0:0:23:
448,192,280050,1,0,0:0:0:23:
64,192,280165,128,0,280396:0:0:0:46:
448,192,280396,128,0,280511:0:0:0:46:
192,192,280511,128,0,280742:0:0:0:23:
64,192,280511,1,0,0:0:0:23:
320,192,280742,128,0,280857:0:0:0:46:
448,192,280857,128,0,281204:0:0:0:46:
192,192,280973,1,0,0:0:0:46:
64,192,281204,128,0,281319:0:0:0:46:
192,192,281319,128,0,281434:0:0:0:46:
320,192,281434,128,0,281665:0:0:0:23:
448,192,281434,1,0,0:0:0:23:
192,192,281665,128,0,281896:0:0:0:46:
448,192,281896,128,0,282011:0:0:0:23:
64,192,281896,1,0,0:0:0:23:
320,192,282011,128,0,282242:0:0:0:46:
64,192,282242,128,0,282357:0:0:0:46:
192,192,282357,128,0,282588:0:0:0:23:
448,192,282357,1,0,0:0:0:23:
320,192,282588,128,0,282704:0:0:0:23:
448,192,282588,1,0,0:0:0:23:
192,192,282704,128,0,283050:0:0:0:23:
64,192,282704,1,0,0:0:0:23:
448,192,283050,128,0,283165:0:0:0:23:
64,192,283050,1,0,0:0:0:23:
320,192,283165,128,0,283280:0:0:0:46:
192,192,283280,128,0,283396:0:0:0:46:
64,192,283396,128,0,283511:0:0:0:46:
320,192,283511,128,0,283742:0:0:0:23:
448,192,283511,1,4,0:0:0:23:
448,192,283742,128,0,283857:0:0:0:23:
64,192,283742,1,0,0:0:0:23:
192,192,283857,128,0,284088:0:0:0:46:
320,192,284088,128,0,284204:0:0:0:46:
64,192,284204,128,0,284434:0:0:0:23:
448,192,284204,1,0,0:0:0:23:
192,192,284434,128,0,284550:0:0:0:46:
448,192,284550,128,0,284896:0:0:0:23:
64,192,284550,1,0,0:0:0:23:
320,192,284665,1,0,0:0:0:46:
192,192,284896,128,0,285127:0:0:0:23:
64,192,284896,1,0,0:0:0:23:
448,192,285011,1,0,0:0:0:46:
320,192,285127,128,0,285357:0:0:0:23:
64,192,285127,1,0,0:0:0:23:
64,192,285357,128,0,285588:0:0:0:23:
448,192,285357,1,4,0:0:0:23:
320,192,285588,128,0,285704:0:0:0:23:
192,192,285588,1,0,0:0:0:23:
192,192,285704,128,0,285934:0:0:0:46:
448,192,285934,128,0,286050:0:0:0:46:
320,192,286050,128,0,286280:0:0:0:23:
64,192,286050,1,0,0:0:0:23:
64,192,286280,128,0,286396:0:0:0:46:
448,192,286396,128,0,286742:0:0:0:46:
320,192,286511,1,0,0:0:0:46:
192,192,286742,128,0,286857:0:0:0:46:
320,192,286857,128,0,286973:0:0:0:46:
448,192,286973,128,0,287088:0:0:0:23:
64,192,286973,1,0,0:0:0:23:
320,192,287088,128,0,287204:0:0:0:46:
192,192,287204,128,0,287434:0:0:0:46:
448,192,287434,128,0,287550:0:0:0:23:
320,192,287434,1,0,0:0:0:23:
64,192,287550,128,0,287780:0:0:0:46:
320,192,287780,128,0,287896:0:0:0:46:
192,192,287896,128,0,288127:0:0:0:23:
448,192,287896,1,0,0:0:0:23:
448,192,288127,128,0,288242:0:0:0:46:
320,192,288242,128,0,288588:0:0:0:46:
192,192,288357,1,0,0:0:0:46:
64,192,288588,128,0,288704:0:0:0:46:
192,192,288704,128,0,288819:0:0:0:46:
320,192,288819,128,0,289050:0:0:0:23:
448,192,288819,1,0,0:0:0:23:
192,192,289050,128,0,289280:0:0:0:46:
448,192,289280,128,0,289396:0:0:0:23:
64,192,289280,1,0,0:0:0:23:
320,192,289396,128,0,289627:0:0:0:46:
64,192,289627,128,0,289742:0:0:0:46:
192,192,289742,128,0,289973:0:0:0:23:
448,192,289742,1,0,0:0:0:23:
448,192,289973,128,0,290088:0:0:0:46:
320,192,290088,128,0,290434:0:0:0:46:
192,192,290204,1,0,0:0:0:46:
64,192,290434,128,0,290550:0:0:0:46:
192,192,290550,128,0,290665:0:0:0:46:
320,192,290665,128,0,290780:0:0:0:23:
64,192,290665,1,0,0:0:0:23:
448,192,290780,128,0,290896:0:0:0:23:
64,192,290780,1,0,0:0:0:23:
192,192,290896,128,0,291127:0:0:0:23:
64,192,290896,1,0,0:0:0:23:
320,192,291127,128,0,291242:0:0:0:23:
448,192,291127,1,0,0:0:0:23:
64,192,291242,128,0,291473:0:0:0:46:
448,192,291473,128,0,291588:0:0:0:46:
320,192,291588,128,0,291819:0:0:0:23:
192,192,291588,1,0,0:0:0:23:
192,192,291819,128,0,291934:0:0:0:46:
448,192,291934,128,0,292280:0:0:0:46:
64,192,292050,1,0,0:0:0:46:
192,192,292280,128,0,292511:0:0:0:23:
320,192,292280,1,4,0:0:0:23:
320,192,292511,128,0,292742:0:0:0:23:
64,192,292511,1,0,0:0:0:23:
64,192,292742,128,0,292973:0:0:0:46:
192,192,292973,128,0,293665:0:0:0:15:
448,192,292973,1,4,0:0:0:15:
320,192,292973,1,0,0:0:0:15:
64,192,293434,1,0,0:0:0:46:
448,192,293665,128,0,294127:0:0:0:23:
320,192,293665,1,0,0:0:0:23:
320,192,293780,1,0,0:0:0:46:
64,192,293896,1,0,0:0:0:46:
192,192,294127,128,0,294588:0:0:0:23:
320,192,294127,1,0,0:0:0:23:
320,192,294242,1,0,0:0:0:46:
448,192,294357,1,0,0:0:0:46:
64,192,294473,1,0,0:0:0:46:
448,192,294530,1,0,0:0:0:46:
320,192,294588,128,0,295050:0:0:0:23:
64,192,294588,1,0,0:0:0:23:
192,192,294704,1,0,0:0:0:46:
448,192,294819,1,0,0:0:0:46:
64,192,295050,128,0,295511:0:0:0:23:
448,192,295050,1,0,0:0:0:23:
320,192,295107,1,0,0:0:0:46:
192,192,295165,1,0,0:0:0:46:
448,192,295223,1,0,0:0:0:46:
320,192,295280,1,0,0:0:0:46:
192,192,295338,1,0,0:0:0:46:
448,192,295396,1,0,0:0:0:46:
320,192,295454,1,0,0:0:0:46:
192,192,295511,128,0,296665:0:0:0:23:
448,192,295511,1,0,0:0:0:23:
64,192,295742,1,0,0:0:0:46:
448,192,296204,1,0,0:0:0:46:
320,192,296665,1,0,0:0:0:23:
64,192,296665,128,0,296896:0:0:0:23:
192,192,296896,128,0,297011:0:0:0:46:
320,192,297011,128,0,297242:0:0:0:46:
64,192,297127,1,0,0:0:0:46:
448,192,297242,128,0,297473:0:0:0:46:
320,192,297473,128,0,297588:0:0:0:46:
192,192,297588,128,0,298050:0:0:0:23:
448,192,297588,1,0,0:0:0:23:
64,192,298050,128,0,298280:0:0:0:23:
320,192,298050,1,0,0:0:0:23:
192,192,298280,128,0,299204:0:0:0:46:
320,192,298511,1,0,0:0:0:46:
448,192,298742,128,0,299204:0:0:0:46:
320,192,298857,1,0,0:0:0:46:
64,192,298973,1,0,0:0:0:46:
320,192,299088,1,0,0:0:0:46:
320,192,299204,128,0,300357:0:0:0:23:
64,192,299204,1,0,0:0:0:23:
448,192,299434,1,0,0:0:0:46:
64,192,299896,1,0,0:0:0:46:
192,192,300357,128,0,300588:0:0:0:23:
448,192,300357,1,0,0:0:0:23:
320,192,300588,128,0,300819:0:0:0:46:
64,192,300819,128,0,301050:0:0:0:23:
192,192,300819,1,0,0:0:0:23:
448,192,301050,128,0,301511:0:0:0:46:
320,192,301280,1,0,0:0:0:46:
192,192,301511,128,0,301973:0:0:0:46:
64,192,301742,1,0,0:0:0:46:
448,192,301973,128,0,302204:0:0:0:46:
320,192,302204,128,0,302434:0:0:0:23:
192,192,302204,1,0,0:0:0:23:
192,192,302434,128,0,302665:0:0:0:46:
64,192,302665,128,0,302896:0:0:0:23:
448,192,302665,1,0,0:0:0:23:
320,192,302896,128,0,304742:0:0:0:46:
64,192,303127,1,0,0:0:0:46:
192,192,303588,1,0,0:0:0:46:
448,192,304050,1,0,0:0:0:46:
192,192,304280,128,0,304742:0:0:0:46:
448,192,304511,1,0,0:0:0:46:
64,192,304742,128,0,305204:0:0:0:46:
320,192,304973,1,0,0:0:0:46:
192,192,305204,128,0,305434:0:0:0:46:
320,192,305434,128,0,306588:0:0:0:23:
64,192,305434,1,0,0:0:0:23:
192,192,305896,1,0,0:0:0:46:
448,192,306127,128,0,306588:0:0:0:46:
64,192,306357,1,0,0:0:0:46:
192,192,306588,128,0,307050:0:0:0:46:
448,192,306819,1,0,0:0:0:46:
320,192,307050,128,0,307511:0:0:0:46:
192,192,307280,1,0,0:0:0:46:
64,192,307511,128,0,307973:0:0:0:46:
320,192,307742,1,0,0:0:0:46:
448,192,307973,128,0,308434:0:0:0:46:
64,192,308204,1,0,0:0:0:46:
192,192,308434,128,0,310280:0:0:0:15:
64,192,308434,1,4,0:0:0:15:
320,192,308434,1,0,0:0:0:15:
448,192,308550,1,0,0:0:0:46:
320,192,308665,1,0,0:0:0:46:
448,192,308896,1,0,0:0:0:46:
448,192,309011,1,0,0:0:0:46:
320,192,309069,1,0,0:0:0:46:
64,192,309127,1,0,0:0:0:46:
448,192,309357,1,0,0:0:0:23:
320,192,309357,1,4,0:0:0:23:
64,192,309473,1,0,0:0:0:46:
448,192,309588,1,0,0:0:0:46:
64,192,309704,1,0,0:0:0:46:
448,192,309819,1,0,0:0:0:46:
320,192,309934,1,0,0:0:0:46:
448,192,310050,1,0,0:0:0:46:
320,192,310165,1,0,0:0:0:46:
64,192,310280,1,0,0:0:0:23:
448,192,310280,1,0,0:0:0:23:
320,192,310396,1,0,0:0:0:46:
192,192,310511,1,0,0:0:0:23:
64,192,310511,1,0,0:0:0:23:
320,192,310627,1,0,0:0:0:46:
448,192,310742,1,0,0:0:0:46:
192,192,310857,1,0,0:0:0:46:
320,192,310973,1,0,0:0:0:23:
64,192,310973,1,0,0:0:0:23:
192,192,311088,1,0,0:0:0:23:
448,192,311088,1,0,0:0:0:23:
320,192,311204,1,0,0:0:0:23:
64,192,311204,1,0,0:0:0:23:
448,192,311319,1,0,0:0:0:46:
64,192,311434,1,0,0:0:0:23:
192,192,311434,1,0,0:0:0:23:
448,192,311550,1,0,0:0:0:46:
320,192,311665,1,0,0:0:0:46:
192,192,311780,1,0,0:0:0:46:
64,192,311896,1,0,0:0:0:23:
320,192,311896,1,0,0:0:0:23:
192,192,312011,1,0,0:0:0:23:
448,192,312011,1,0,0:0:0:23:
320,192,312127,1,0,0:0:0:23:
64,192,312127,1,0,0:0:0:23:
448,192,312242,1,0,0:0:0:46:
192,192,312357,1,0,0:0:0:23:
320,192,312357,1,0,0:0:0:23:
64,192,312473,1,0,0:0:0:46:
448,192,312588,1,0,0:0:0:46:
320,192,312704,1,0,0:0:0:46:
64,192,312819,1,0,0:0:0:23:
192,192,312819,1,0,0:0:0:23:
448,192,312934,1,0,0:0:0:46:
64,192,313050,1,0,0:0:0:46:
320,192,313165,1,0,0:0:0:46:
192,192,313280,1,0,0:0:0:23:
448,192,313280,1,0,0:0:0:23:
320,192,313396,1,0,0:0:0:46:
64,192,313511,1,0,0:0:0:23:
192,192,313511,1,0,0:0:0:23:
448,192,313627,1,0,0:0:0:46:
192,192,313742,1,0,0:0:0:23:
320,192,313742,1,0,0:0:0:23:
64,192,313857,1,0,0:0:0:46:
192,192,313973,1,0,0:0:0:15:
320,192,313973,1,4,0:0:0:15:
448,192,313973,1,4,0:0:0:15:
64,192,314088,1,0,0:0:0:46:
448,192,314204,1,0,0:0:0:23:
320,192,314204,1,0,0:0:0:23:
192,192,314319,1,0,0:0:0:46:
64,192,314434,1,0,0:0:0:46:
448,192,314550,1,0,0:0:0:46:
192,192,314665,1,0,0:0:0:23:
320,192,314665,1,0,0:0:0:23:
64,192,314780,1,0,0:0:0:23:
448,192,314780,1,0,0:0:0:23:
192,192,314896,1,0,0:0:0:23:
320,192,314896,1,0,0:0:0:23:
64,192,315011,1,0,0:0:0:46:
192,192,315127,1,0,0:0:0:23:
448,192,315127,1,0,0:0:0:23:
320,192,315242,1,0,0:0:0:46:
192,192,315357,1,0,0:0:0:46:
448,192,315473,1,0,0:0:0:46:
192,192,315588,1,0,0:0:0:23:
64,192,315588,1,0,0:0:0:23:
320,192,315704,1,0,0:0:0:46:
448,192,315819,1,0,0:0:0:46:
64,192,315934,1,0,0:0:0:46:
320,192,316050,1,0,0:0:0:23:
448,192,316050,1,0,0:0:0:23:
192,192,316165,1,0,0:0:0:46:
320,192,316280,1,0,0:0:0:46:
64,192,316396,1,0,0:0:0:46:
320,192,316511,1,0,0:0:0:23:
192,192,316511,1,0,0:0:0:23:
448,192,316627,1,0,0:0:0:46:
192,192,316742,1,0,0:0:0:46:
320,192,316857,1,0,0:0:0:46:
192,192,316973,1,0,0:0:0:23:
448,192,316973,1,0,0:0:0:23:
64,192,317088,1,0,0:0:0:46:
448,192,317204,1,0,0:0:0:46:
192,192,317319,1,0,0:0:0:46:
64,192,317434,1,0,0:0:0:23:
320,192,317434,1,0,0:0:0:23:
192,192,317550,1,0,0:0:0:23:
448,192,317550,1,0,0:0:0:23:
320,192,317665,1,0,0:0:0:23:
64,192,317665,1,0,0:0:0:23:
448,192,317665,1,0,0:0:0:0:
192,192,317780,1,0,0:0:0:46:
448,192,317896,1,0,0:0:0:23:
320,192,317896,1,0,0:0:0:23:
64,192,318011,1,0,0:0:0:46:
192,192,318127,1,0,0:0:0:46:
448,192,318242,1,0,0:0:0:46:
64,192,318357,1,0,0:0:0:23:
320,192,318357,1,0,0:0:0:23:
192,192,318473,1,0,0:0:0:46:
448,192,318588,1,0,0:0:0:46:
320,192,318704,1,0,0:0:0:46:
192,192,318819,1,0,0:0:0:23:
64,192,318819,1,0,0:0:0:23:
320,192,318934,1,0,0:0:0:46:
448,192,319050,1,0,0:0:0:46:
192,192,319165,1,0,0:0:0:46:
320,192,319280,1,0,0:0:0:23:
448,192,319280,1,0,0:0:0:23:
64,192,319396,1,0,0:0:0:23:
192,192,319396,1,0,0:0:0:23:
320,192,319511,1,0,0:0:0:23:
448,192,319511,1,0,0:0:0:23:
64,192,319511,1,0,0:0:0:0:
192,192,319627,1,0,0:0:0:46:
64,192,319742,1,0,0:0:0:23:
320,192,319742,1,0,0:0:0:23:
448,192,319857,1,0,0:0:0:46:
192,192,319973,1,0,0:0:0:46:
64,192,320088,1,0,0:0:0:46:
192,192,320204,1,0,0:0:0:23:
320,192,320204,1,0,0:0:0:23:
448,192,320319,1,0,0:0:0:46:
320,192,320434,1,0,0:0:0:46:
64,192,320550,1,0,0:0:0:46:
192,192,320665,1,0,0:0:0:23:
320,192,320665,1,0,0:0:0:23:
448,192,320780,1,0,0:0:0:46:
192,192,320896,1,0,0:0:0:46:
64,192,321011,1,0,0:0:0:46:
192,192,321127,1,0,0:0:0:23:
448,192,321127,1,0,0:0:0:23:
320,192,321242,1,0,0:0:0:46:
64,192,321357,1,4,0:0:0:15:
192,192,321357,1,4,0:0:0:15:
448,192,321357,1,0,0:0:0:15:
320,192,321473,1,0,0:0:0:46:
192,192,321588,1,0,0:0:0:23:
448,192,321588,1,0,0:0:0:23:
64,192,321704,1,0,0:0:0:46:
448,192,321819,1,0,0:0:0:46:
320,192,321934,1,0,0:0:0:46:
192,192,322050,1,0,0:0:0:23:
64,192,322050,1,0,0:0:0:23:
320,192,322165,1,0,0:0:0:46:
448,192,322280,1,0,0:0:0:46:
320,192,322338,1,0,0:0:0:46:
192,192,322396,1,0,0:0:0:46:
64,192,322454,1,0,0:0:0:46:
448,192,322511,1,0,0:0:0:46:
320,192,322569,1,0,0:0:0:46:
192,192,322627,1,0,0:0:0:46:
64,192,322684,1,0,0:0:0:46:
448,192,322742,1,0,0:0:0:46:
320,192,322800,1,0,0:0:0:46:
192,192,322857,1,0,0:0:0:46:
64,192,322915,1,0,0:0:0:46:
448,192,322973,1,0,0:0:0:46:
320,192,323030,1,0,0:0:0:46:
192,192,323088,1,0,0:0:0:46:
64,192,323146,1,0,0:0:0:46:
448,192,323204,1,0,0:0:0:23:
320,192,323204,1,0,0:0:0:23:
192,192,323319,1,0,0:0:0:23:
64,192,323319,1,0,0:0:0:23:
320,192,323434,1,0,0:0:0:23:
448,192,323434,1,0,0:0:0:23:
192,192,323550,1,0,0:0:0:46:
64,192,323665,1,0,0:0:0:23:
320,192,323665,1,0,0:0:0:23:
192,192,323780,1,0,0:0:0:23:
448,192,323780,1,0,0:0:0:23:
320,192,323896,1,0,0:0:0:23:
448,192,323896,1,0,0:0:0:23:
192,192,323954,1,0,0:0:0:23:
64,192,323954,1,0,0:0:0:23:
320,192,324011,1,0,0:0:0:23:
448,192,324011,1,0,0:0:0:23:
192,192,324069,1,0,0:0:0:23:
64,192,324069,1,0,0:0:0:23:
320,192,324127,1,0,0:0:0:23:
448,192,324127,1,0,0:0:0:23:
64,192,324242,1,0,0:0:0:23:
192,192,324242,1,0,0:0:0:23:
320,192,324357,1,0,0:0:0:23:
448,192,324357,1,0,0:0:0:23:
320,192,324473,1,0,0:0:0:0:
192,192,324588,1,0,0:0:0:23:
64,192,324588,1,0,0:0:0:23:
320,192,324646,1,0,0:0:0:23:
448,192,324646,1,0,0:0:0:23:
192,192,324704,1,0,0:0:0:23:
64,192,324704,1,0,0:0:0:23:
320,192,324761,1,0,0:0:0:23:
448,192,324761,1,0,0:0:0:23:
192,192,324819,1,0,0:0:0:23:
64,192,324819,1,0,0:0:0:23:
320,192,324877,1,0,0:0:0:23:
448,192,324877,1,0,0:0:0:23:
192,192,324934,1,0,0:0:0:23:
64,192,324934,1,0,0:0:0:23:
320,192,324992,1,0,0:0:0:23:
448,192,324992,1,0,0:0:0:23:
192,192,325050,1,4,0:0:0:23:
64,192,325050,1,4,0:0:0:23:
320,192,325165,1,0,0:0:0:46:
192,192,325280,1,0,0:0:0:23:
64,192,325280,1,0,0:0:0:23:
448,192,325396,1,0,0:0:0:46:
192,192,325511,1,0,0:0:0:46:
320,192,325627,1,0,0:0:0:46:
64,192,325742,1,0,0:0:0:23:
448,192,325742,1,0,0:0:0:23:
192,192,325857,1,0,0:0:0:23:
320,192,325857,1,0,0:0:0:23:
64,192,325973,1,0,0:0:0:23:
448,192,325973,1,0,0:0:0:23:
192,192,326088,1,0,0:0:0:46:
320,192,326204,1,0,0:0:0:23:
448,192,326204,1,0,0:0:0:23:
192,192,326319,1,0,0:0:0:46:
64,192,326434,1,0,0:0:0:46:
448,192,326550,1,0,0:0:0:46:
192,192,326665,1,0,0:0:0:23:
320,192,326665,1,0,0:0:0:23:
64,192,326780,1,0,0:0:0:23:
448,192,326780,1,0,0:0:0:23:
320,192,326896,1,0,0:0:0:23:
192,192,326896,1,0,0:0:0:23:
64,192,327011,1,0,0:0:0:46:
192,192,327127,1,0,0:0:0:23:
448,192,327127,1,0,0:0:0:23:
320,192,327242,1,0,0:0:0:46:
64,192,327357,1,0,0:0:0:46:
320,192,327473,1,0,0:0:0:46:
192,192,327588,1,0,0:0:0:23:
448,192,327588,1,0,0:0:0:23:
320,192,327704,1,0,0:0:0:46:
64,192,327819,1,0,0:0:0:46:
320,192,327934,1,0,0:0:0:46:
192,192,328050,1,0,0:0:0:23:
64,192,328050,1,0,0:0:0:23:
320,192,328165,1,0,0:0:0:46:
448,192,328280,1,0,0:0:0:46:
320,192,328396,1,0,0:0:0:46:
192,192,328511,1,0,0:0:0:23:
448,192,328511,1,0,0:0:0:23:
64,192,328627,1,0,0:0:0:46:
320,192,328742,1,4,0:0:0:15:
448,192,328742,1,4,0:0:0:15:
192,192,328742,1,0,0:0:0:15:
64,192,328857,1,0,0:0:0:46:
192,192,328973,1,0,0:0:0:23:
320,192,328973,1,0,0:0:0:23:
448,192,329088,1,0,0:0:0:46:
64,192,329204,1,0,0:0:0:46:
320,192,329319,1,0,0:0:0:46:
192,192,329434,1,0,0:0:0:23:
448,192,329434,1,0,0:0:0:23:
320,192,329550,1,0,0:0:0:46:
64,192,329665,1,0,0:0:0:46:
320,192,329780,1,0,0:0:0:46:
192,192,329896,1,0,0:0:0:23:
64,192,329896,1,0,0:0:0:23:
448,192,330011,1,0,0:0:0:46:
320,192,330127,1,0,0:0:0:46:
192,192,330242,1,0,0:0:0:46:
320,192,330357,1,0,0:0:0:23:
448,192,330357,1,0,0:0:0:23:
64,192,330473,1,0,0:0:0:23:
192,192,330473,1,0,0:0:0:23:
448,192,330588,1,0,0:0:0:23:
320,192,330588,1,0,0:0:0:23:
64,192,330704,1,0,0:0:0:46:
192,192,330819,1,0,0:0:0:23:
448,192,330819,1,0,0:0:0:23:
320,192,330934,1,0,0:0:0:46:
64,192,331050,1,0,0:0:0:46:
192,192,331165,1,0,0:0:0:46:
320,192,331280,1,0,0:0:0:23:
448,192,331280,1,0,0:0:0:23:
192,192,331396,1,0,0:0:0:46:
64,192,331511,1,0,0:0:0:46:
320,192,331627,1,0,0:0:0:46:
192,192,331742,1,0,0:0:0:23:
448,192,331742,1,0,0:0:0:23:
320,192,331857,1,0,0:0:0:46:
64,192,331973,1,0,0:0:0:23:
448,192,331973,1,0,0:0:0:23:
192,192,332088,1,0,0:0:0:23:
320,192,332088,1,0,0:0:0:23:
320,192,332204,1,0,0:0:0:23:
448,192,332204,1,0,0:0:0:23:
192,192,332261,1,0,0:0:0:23:
64,192,332261,1,0,0:0:0:23:
320,192,332319,1,0,0:0:0:23:
448,192,332319,1,0,0:0:0:23:
192,192,332377,1,0,0:0:0:23:
64,192,332377,1,0,0:0:0:23:
320,192,332434,1,0,0:0:0:23:
448,192,332434,1,0,0:0:0:23:
64,192,332550,1,0,0:0:0:46:
192,192,332665,1,0,0:0:0:23:
448,192,332665,1,0,0:0:0:23:
320,192,332780,1,0,0:0:0:46:
64,192,332896,1,0,0:0:0:46:
320,192,333011,1,0,0:0:0:46:
192,192,333127,1,0,0:0:0:23:
64,192,333127,1,0,0:0:0:23:
448,192,333242,1,0,0:0:0:23:
320,192,333242,1,0,0:0:0:23:
192,192,333357,1,0,0:0:0:23:
64,192,333357,1,0,0:0:0:23:
448,192,333473,1,0,0:0:0:46:
192,192,333588,1,0,0:0:0:23:
320,192,333588,1,0,0:0:0:23:
64,192,333704,1,0,0:0:0:46:
320,192,333819,1,0,0:0:0:23:
448,192,333819,1,0,0:0:0:23:
192,192,333934,1,0,0:0:0:23:
64,192,333934,1,0,0:0:0:23:
320,192,334050,1,0,0:0:0:23:
448,192,334050,1,0,0:0:0:23:
64,192,334165,1,0,0:0:0:23:
192,192,334165,1,0,0:0:0:23:
320,192,334280,1,0,0:0:0:23:
448,192,334280,1,0,0:0:0:23:
192,192,334396,1,0,0:0:0:46:
64,192,334511,1,0,0:0:0:23:
320,192,334511,1,0,0:0:0:23:
192,192,334627,1,0,0:0:0:46:
448,192,334742,1,0,0:0:0:46:
192,192,334857,1,0,0:0:0:46:
64,192,334973,1,0,0:0:0:23:
448,192,334973,1,0,0:0:0:23:
320,192,335088,1,0,0:0:0:46:
192,192,335204,1,0,0:0:0:46:
320,192,335319,1,0,0:0:0:46:
64,192,335434,1,0,0:0:0:23:
192,192,335434,1,0,0:0:0:23:
448,192,335550,1,0,0:0:0:46:
192,192,335665,1,0,0:0:0:46:
320,192,335780,1,0,0:0:0:46:
192,192,335896,1,0,0:0:0:23:
448,192,335896,1,0,0:0:0:23:
320,192,336011,1,0,0:0:0:46:
192,192,336127,1,4,0:0:0:15:
448,192,336127,1,0,0:0:0:15:
64,192,336127,1,4,0:0:0:15:
320,192,336242,1,0,0:0:0:46:
192,192,336357,1,0,0:0:0:23:
448,192,336357,1,0,0:0:0:23:
64,192,336473,1,0,0:0:0:46:
192,192,336588,1,0,0:0:0:46:
448,192,336704,1,0,0:0:0:46:
320,192,336819,1,0,0:0:0:23:
192,192,336819,1,0,0:0:0:23:
448,192,336934,1,0,0:0:0:46:
64,192,337050,1,0,0:0:0:46:
192,192,337107,1,0,0:0:0:46:
320,192,337165,1,0,0:0:0:46:
448,192,337223,1,0,0:0:0:46:
64,192,337280,1,0,0:0:0:46:
192,192,337338,1,0,0:0:0:46:
320,192,337396,1,0,0:0:0:46:
448,192,337454,1,0,0:0:0:46:
64,192,337511,1,0,0:0:0:46:
192,192,337569,1,0,0:0:0:46:
320,192,337627,1,0,0:0:0:46:
448,192,337684,1,0,0:0:0:46:
64,192,337742,1,0,0:0:0:46:
192,192,337800,1,0,0:0:0:46:
320,192,337857,1,0,0:0:0:46:
448,192,337915,1,0,0:0:0:46:
192,192,337973,1,0,0:0:0:23:
64,192,337973,1,0,0:0:0:23:
320,192,338088,1,0,0:0:0:46:
64,192,338204,1,0,0:0:0:23:
448,192,338204,1,0,0:0:0:23:
320,192,338319,1,0,0:0:0:46:
192,192,338434,1,0,0:0:0:46:
320,192,338550,1,0,0:0:0:46:
192,192,338665,1,0,0:0:0:23:
64,192,338665,1,0,0:0:0:23:
320,192,338780,1,0,0:0:0:46:
448,192,338896,1,0,0:0:0:46:
320,192,339011,1,0,0:0:0:46:
64,192,339127,1,0,0:0:0:23:
192,192,339127,1,0,0:0:0:23:
192,192,339242,1,0,0:0:0:23:
64,192,339242,1,0,0:0:0:23:
320,192,339357,1,0,0:0:0:23:
448,192,339357,1,0,0:0:0:23:
320,192,339473,1,0,0:0:0:23:
448,192,339473,1,0,0:0:0:23:
64,192,339588,1,0,0:0:0:46:
448,192,339646,1,0,0:0:0:46:
64,192,339704,1,0,0:0:0:46:
320,192,339819,1,0,0:0:0:23:
448,192,339819,1,0,0:0:0:23:
192,192,339934,1,0,0:0:0:46:
64,192,340050,1,0,0:0:0:23:
320,192,340050,1,0,0:0:0:23:
448,192,340165,1,0,0:0:0:46:
320,192,340280,1,0,0:0:0:46:
192,192,340396,1,0,0:0:0:46:
320,192,340511,1,0,0:0:0:23:
448,192,340511,1,0,0:0:0:23:
64,192,340627,1,0,0:0:0:46:
320,192,340742,1,0,0:0:0:46:
192,192,340857,1,0,0:0:0:46:
320,192,340973,1,0,0:0:0:23:
64,192,340973,1,0,0:0:0:23:
192,192,341088,1,0,0:0:0:46:
448,192,341204,1,0,0:0:0:46:
320,192,341319,1,0,0:0:0:46:
192,192,341434,1,0,0:0:0:23:
448,192,341434,1,0,0:0:0:23:
320,192,341550,1,0,0:0:0:46:
64,192,341665,1,0,0:0:0:46:
192,192,341780,1,0,0:0:0:46:
320,192,341896,1,0,0:0:0:23:
448,192,341896,1,0,0:0:0:23:
192,192,342011,1,0,0:0:0:46:
448,192,342127,1,0,0:0:0:46:
320,192,342242,1,0,0:0:0:46:
64,192,342357,1,0,0:0:0:23:
192,192,342357,1,0,0:0:0:23:
448,192,342473,1,0,0:0:0:46:
320,192,342588,1,0,0:0:0:46:
192,192,342704,1,0,0:0:0:46:
64,192,342819,1,0,0:0:0:23:
320,192,342819,1,0,0:0:0:23:
448,192,342934,1,0,0:0:0:46:
192,192,343050,1,0,0:0:0:46:
320,192,343165,1,0,0:0:0:46:
192,192,343280,1,0,0:0:0:23:
448,192,343280,1,0,0:0:0:23:
64,192,343396,1,0,0:0:0:23:
192,192,343396,1,0,0:0:0:23:
320,192,343454,1,0,0:0:0:23:
448,192,343454,1,0,0:0:0:23:
64,192,343511,1,0,0:0:0:23:
192,192,343511,1,0,0:0:0:23:
448,192,343627,1,0,0:0:0:46:
64,192,343742,1,0,0:0:0:23:
320,192,343742,1,0,0:0:0:23:
192,192,343857,1,0,0:0:0:46:
320,192,343973,1,0,0:0:0:46:
448,192,344088,1,0,0:0:0:46:
192,192,344204,1,0,0:0:0:23:
320,192,344204,1,0,0:0:0:23:
64,192,344319,1,0,0:0:0:46:
448,192,344434,1,0,0:0:0:46:
320,192,344550,1,0,0:0:0:46:
192,192,344665,1,0,0:0:0:23:
64,192,344665,1,0,0:0:0:23:
448,192,344780,1,0,0:0:0:46:
192,192,344896,1,0,0:0:0:46:
320,192,345011,1,0,0:0:0:46:
192,192,345127,1,0,0:0:0:23:
448,192,345127,1,0,0:0:0:23:
320,192,345242,1,0,0:0:0:46:
64,192,345357,1,4,0:0:0:15:
192,192,345357,1,4,0:0:0:15:
448,192,345357,1,0,0:0:0:15:
320,192,345473,1,0,0:0:0:46:
192,192,345588,1,0,0:0:0:23:
448,192,345588,1,0,0:0:0:23:
64,192,345704,1,0,0:0:0:46:
320,192,345819,1,0,0:0:0:46:
448,192,345934,1,0,0:0:0:46:
192,192,346050,1,0,0:0:0:23:
320,192,346050,1,0,0:0:0:23:
64,192,346165,1,0,0:0:0:46:
448,192,346280,128,0,346511:0:0:0:23:
192,192,346280,1,0,0:0:0:23:
320,192,346511,128,0,346742:0:0:0:15:
64,192,346511,1,0,0:0:0:15:
192,192,346511,1,0,0:0:0:15:
192,192,346742,128,0,346973:0:0:0:23:
64,192,346742,1,0,0:0:0:23:
64,192,346973,128,0,347204:0:0:0:15:
448,192,346973,1,0,0:0:0:15:
320,192,346973,1,0,0:0:0:15:
192,192,347204,1,0,0:0:0:23:
320,192,347204,1,0,0:0:0:23:
448,192,347319,1,0,0:0:0:46:
320,192,347434,1,0,0:0:0:23:
64,192,347434,1,0,0:0:0:23:
192,192,347550,1,0,0:0:0:46:
448,192,347665,1,0,0:0:0:46:
320,192,347780,1,0,0:0:0:46:
192,192,347896,1,0,0:0:0:23:
448,192,347896,1,0,0:0:0:23:
64,192,348011,1,0,0:0:0:23:
320,192,348011,1,0,0:0:0:23:
192,192,348127,1,0,0:0:0:23:
448,192,348127,1,0,0:0:0:23:
64,192,348242,1,0,0:0:0:46:
320,192,348357,1,0,0:0:0:23:
192,192,348357,1,0,0:0:0:23:
448,192,348473,1,0,0:0:0:46:
64,192,348588,1,0,0:0:0:23:
320,192,348588,1,0,0:0:0:23:
192,192,348704,1,0,0:0:0:23:
448,192,348704,1,0,0:0:0:23:
64,192,348819,1,0,0:0:0:23:
320,192,348819,1,0,0:0:0:23:
64,192,348934,1,0,0:0:0:23:
192,192,348934,1,0,0:0:0:23:
448,192,348992,1,0,0:0:0:23:
320,192,348992,1,0,0:0:0:23:
64,192,349050,1,0,0:0:0:23:
192,192,349050,1,0,0:0:0:23:
320,192,349165,1,0,0:0:0:46:
448,192,349280,1,0,0:0:0:23:
192,192,349280,1,0,0:0:0:23:
320,192,349396,1,0,0:0:0:46:
64,192,349511,1,0,0:0:0:46:
448,192,349627,1,0,0:0:0:46:
192,192,349742,1,0,0:0:0:23:
320,192,349742,1,0,0:0:0:23:
64,192,349857,1,0,0:0:0:46:
192,192,349973,1,0,0:0:0:46:
448,192,350088,1,0,0:0:0:46:
192,192,350204,1,0,0:0:0:23:
320,192,350204,1,0,0:0:0:23:
64,192,350319,1,0,0:0:0:46:
448,192,350434,1,0,0:0:0:46:
320,192,350550,1,0,0:0:0:46:
192,192,350665,1,0,0:0:0:23:
64,192,350665,1,0,0:0:0:23:
320,192,350780,1,0,0:0:0:46:
192,192,350896,1,4,0:0:0:15:
448,192,350896,1,0,0:0:0:15:
64,192,350896,1,4,0:0:0:15:
320,192,351011,1,0,0:0:0:46:
64,192,351127,1,0,0:0:0:23:
448,192,351127,1,0,0:0:0:23:
320,192,351242,1,0,0:0:0:46:
448,192,351357,1,0,0:0:0:46:
192,192,351473,1,0,0:0:0:46:
320,192,351588,1,0,0:0:0:23:
448,192,351588,1,0,0:0:0:23:
64,192,351704,1,0,0:0:0:46:
192,192,351819,1,0,0:0:0:46:
320,192,351934,1,0,0:0:0:46:
448,192,352050,1,0,0:0:0:23:
192,192,352050,1,0,0:0:0:23:
320,192,352165,1,0,0:0:0:46:
192,192,352280,1,0,0:0:0:46:
448,192,352396,1,0,0:0:0:46:
320,192,352511,1,0,0:0:0:23:
64,192,352511,1,0,0:0:0:23:
192,192,352627,1,0,0:0:0:46:
448,192,352742,1,0,0:0:0:46:
192,192,352857,1,0,0:0:0:46:
320,192,352973,1,0,0:0:0:23:
448,192,352973,1,0,0:0:0:23:
64,192,353088,1,0,0:0:0:46:
448,192,353204,1,0,0:0:0:46:
320,192,353319,1,0,0:0:0:46:
192,192,353434,1,0,0:0:0:23:
448,192,353434,1,0,0:0:0:23:
320,192,353550,1,0,0:0:0:46:
192,192,353665,1,0,0:0:0:46:
448,192,353780,1,0,0:0:0:46:
64,192,353896,1,0,0:0:0:23:
192,192,353896,1,0,0:0:0:23:
448,192,354011,1,0,0:0:0:46:
320,192,354127,1,0,0:0:0:46:
64,192,354242,1,0,0:0:0:46:
192,192,354357,1,0,0:0:0:23:
320,192,354357,1,0,0:0:0:23:
448,192,354473,1,0,0:0:0:46:
320,192,354588,1,0,0:0:0:46:
64,192,354704,1,0,0:0:0:46:
448,192,354819,1,0,0:0:0:23:
320,192,354819,1,0,0:0:0:23:
64,192,354934,1,0,0:0:0:46:
448,192,355050,1,0,0:0:0:46:
320,192,355165,1,0,0:0:0:46:
192,192,355280,1,0,0:0:0:23:
64,192,355280,1,0,0:0:0:23:
448,192,355396,1,0,0:0:0:46:
64,192,355511,1,0,0:0:0:23:
192,192,355511,1,0,0:0:0:23:
192,192,355627,1,0,0:0:0:23:
64,192,355627,1,0,0:0:0:23:
448,192,355742,1,0,0:0:0:23:
320,192,355742,1,0,0:0:0:23:
448,192,355857,1,0,0:0:0:23:
320,192,355857,1,0,0:0:0:23:
192,192,355973,1,0,0:0:0:23:
64,192,355973,1,0,0:0:0:23:
192,192,356088,1,0,0:0:0:23:
64,192,356088,1,0,0:0:0:23:
192,192,356204,1,0,0:0:0:23:
64,192,356204,1,0,0:0:0:23:
192,192,356319,1,0,0:0:0:23:
64,192,356319,1,0,0:0:0:23:
320,192,356434,1,0,0:0:0:15:
448,192,356434,1,0,0:0:0:15:
64,192,356434,128,0,358280:0:0:0:15:
192,192,356665,1,0,0:0:0:46:
448,192,357127,1,0,0:0:0:46:
320,192,357588,1,0,0:0:0:46:
320,192,357819,1,0,0:0:0:46:
320,192,357934,1,0,0:0:0:46:
192,192,358050,1,0,0:0:0:46:
448,192,358280,128,0,360127:0:0:0:46:
320,192,358511,1,0,0:0:0:46:
64,192,358973,1,0,0:0:0:46:
192,192,359434,1,0,0:0:0:46:
320,192,359665,1,0,0:0:0:46:
64,192,359896,1,0,0:0:0:46:
64,192,360011,1,0,0:0:0:46:
320,192,360127,128,0,361973:0:0:0:23:
192,192,360127,1,0,0:0:0:23:
448,192,360357,1,0,0:0:0:46:
64,192,360819,1,0,0:0:0:46:
448,192,361280,1,0,0:0:0:46:
448,192,361511,1,0,0:0:0:46:
64,192,361742,1,0,0:0:0:46:
448,192,361857,1,0,0:0:0:46:
192,192,361973,128,0,362896:0:0:0:23:
64,192,361973,1,0,0:0:0:23:
448,192,362204,1,0,0:0:0:46:
64,192,362434,1,0,0:0:0:46:
320,192,362550,1,0,0:0:0:46:
64,192,362896,128,0,363184:0:0:0:23:
448,192,362896,1,0,0:0:0:23:
64,192,363242,128,0,363588:0:0:0:23:
320,192,363242,1,0,0:0:0:23:
192,192,363588,128,0,363819:0:0:0:23:
448,192,363588,1,0,0:0:0:23:
64,192,363819,1,0,0:0:0:23:
320,192,363819,128,0,364973:0:0:0:23:
448,192,364050,1,0,0:0:0:46:
192,192,364511,1,0,0:0:0:46:
448,192,364973,128,0,365434:0:0:0:23:
64,192,364973,1,0,0:0:0:23:
320,192,365204,1,0,0:0:0:46:
64,192,365319,1,0,0:0:0:46:
192,192,365434,128,0,365665:0:0:0:23:
320,192,365434,1,0,0:0:0:23:
64,192,365665,128,0,367050:0:0:0:15:
320,192,365665,1,0,0:0:0:15:
448,192,365665,1,0,0:0:0:15:
192,192,365896,1,0,0:0:0:46:
448,192,366357,1,0,0:0:0:46:
320,192,366588,1,0,0:0:0:46:
192,192,366704,1,0,0:0:0:46:
192,192,367050,128,0,367511:0:0:0:23:
320,192,367050,1,0,0:0:0:23:
448,192,367396,1,0,0:0:0:46:
320,192,367511,128,0,368204:0:0:0:23:
64,192,367511,1,0,0:0:0:23:
448,192,367742,1,0,0:0:0:46:
448,192,368204,128,0,368434:0:0:0:23:
192,192,368204,1,0,0:0:0:23:
320,192,368434,128,0,368780:0:0:0:46:
64,192,368665,1,0,0:0:0:46:
192,192,368780,128,0,369127:0:0:0:46:
448,192,369127,128,0,369357:0:0:0:23:
320,192,369127,1,0,0:0:0:23:
320,192,369357,128,0,371204:0:0:0:46:
192,192,369588,1,0,0:0:0:46:
448,192,370050,1,0,0:0:0:46:
64,192,370280,1,0,0:0:0:46:
448,192,370396,1,0,0:0:0:46:
64,192,370511,1,0,0:0:0:46:
448,192,370627,1,0,0:0:0:46:
64,192,370684,1,0,0:0:0:46:
192,192,370742,1,0,0:0:0:46:
448,192,370857,1,0,0:0:0:46:
192,192,370973,1,0,0:0:0:46:
448,192,371088,1,0,0:0:0:46:
64,192,371204,128,0,371665:0:0:0:15:
192,192,371204,1,0,0:0:0:15:
448,192,371204,1,0,0:0:0:15:
320,192,371665,128,0,372127:0:0:0:46:
192,192,372127,128,0,372588:0:0:0:46:
320,192,372357,1,0,0:0:0:46:
448,192,372588,128,0,372819:0:0:0:23:
64,192,372588,1,0,0:0:0:23:
320,192,372819,128,0,373050:0:0:0:23:
64,192,372819,1,0,0:0:0:23:
64,192,372934,1,0,0:0:0:46:
192,192,373050,128,0,373511:0:0:0:23:
448,192,373050,1,0,0:0:0:23:
64,192,373280,1,0,0:0:0:46:
448,192,373511,128,0,373973:0:0:0:46:
320,192,373742,1,0,0:0:0:46:
320,192,373857,1,0,0:0:0:46:
64,192,373973,128,0,374434:0:0:0:23:
192,192,373973,1,0,0:0:0:23:
448,192,374204,1,0,0:0:0:46:
320,192,374434,128,0,374665:0:0:0:46:
448,192,374665,128,0,374896:0:0:0:23:
64,192,374665,1,0,0:0:0:23:
320,192,374896,128,0,375357:0:0:0:46:
448,192,375127,1,0,0:0:0:46:
192,192,375357,128,0,375819:0:0:0:23:
448,192,375357,1,0,0:0:0:23:
64,192,375473,1,0,0:0:0:46:
320,192,375588,1,0,0:0:0:46:
64,192,375704,1,0,0:0:0:46:
448,192,375819,128,0,376280:0:0:0:23:
320,192,375819,1,0,0:0:0:23:
192,192,376050,1,0,0:0:0:46:
64,192,376280,128,0,376511:0:0:0:46:
320,192,376511,128,0,376742:0:0:0:23:
448,192,376511,1,0,0:0:0:23:
192,192,376742,128,0,377204:0:0:0:46:
64,192,376973,1,0,0:0:0:46:
448,192,377204,128,0,377665:0:0:0:23:
320,192,377204,1,0,0:0:0:23:
192,192,377319,1,0,0:0:0:46:
320,192,377434,1,0,0:0:0:46:
192,192,377550,1,0,0:0:0:46:
64,192,377665,128,0,378127:0:0:0:23:
320,192,377665,1,0,0:0:0:23:
320,192,378127,128,0,378357:0:0:0:46:
192,192,378357,128,0,378588:0:0:0:23:
448,192,378357,1,0,0:0:0:23:
320,192,378588,128,0,379742:0:0:0:23:
64,192,378588,1,0,0:0:0:23:
448,192,379280,1,0,0:0:0:46:
192,192,379511,1,0,0:0:0:46:
192,192,379742,128,0,380088:0:0:0:46:
448,192,379857,1,0,0:0:0:46:
64,192,380088,128,0,380434:0:0:0:46:
448,192,380204,1,0,0:0:0:46:
320,192,380434,128,0,382280:0:0:0:23:
192,192,380434,1,0,0:0:0:23:
64,192,380550,1,0,0:0:0:46:
192,192,380896,1,0,0:0:0:46:
192,192,381127,1,0,0:0:0:46:
64,192,381357,1,0,0:0:0:46:
192,192,381704,1,0,0:0:0:46:
64,192,381934,1,0,0:0:0:46:
192,192,382280,1,0,0:0:0:46:
320,192,382338,1,0,0:0:0:0:
448,192,382396,1,0,0:0:0:0:
192,192,382454,1,0,0:0:0:0:
320,192,382511,1,0,0:0:0:0:
192,192,382569,1,0,0:0:0:0:
64,192,382627,1,0,0:0:0:46:
320,192,382684,1,0,0:0:0:46:
64,192,382742,1,0,0:0:0:46:
192,192,382800,1,0,0:0:0:46:
320,192,382857,1,0,0:0:0:46:
448,192,382915,1,0,0:0:0:46:
192,192,382973,1,0,0:0:0:46:
320,192,383030,1,0,0:0:0:46:
192,192,383088,1,0,0:0:0:46:
64,192,383146,1,0,0:0:0:46:
448,192,383204,1,0,0:0:0:46:
320,192,383261,1,0,0:0:0:46:
192,192,383319,1,0,0:0:0:46:
64,192,383377,1,0,0:0:0:46:
448,192,383434,1,0,0:0:0:46:
320,192,383492,1,0,0:0:0:46:
192,192,383550,1,0,0:0:0:46:
64,192,383607,1,0,0:0:0:46:
448,192,383665,1,0,0:0:0:46:
320,192,383723,1,0,0:0:0:46:
64,192,383780,1,0,0:0:0:0:
192,192,383838,1,0,0:0:0:0:
320,192,383896,1,0,0:0:0:0:
192,192,383954,1,0,0:0:0:0:
448,192,384011,1,0,0:0:0:0:
320,192,384069,1,0,0:0:0:0:
192,192,384127,128,0,384588:0:0:0:0:
64,192,384127,128,0,384588:0:0:0:0:
