osu file format v9

[General]
AudioFilename: n_.mp3
AudioLeadIn: 0
PreviewTime: 78870
Countdown: 0
SampleSet: Normal
StackLeniency: 0.7
Mode: 0
LetterboxInBreaks: 1

[Editor]
Bookmarks: 43948
DistanceSpacing: 1
BeatDivisor: 2
GridSize: 16

[Metadata]
Title:IMAGE -MATERIAL-
Artist:Tatsh
Creator:ignorethis
Version:BASIC
Source:REFLEC BEAT limelight
Tags:Scorpiour DJPop konami jih7491

[Difficulty]
HPDrainRate:2
CircleSize:3
OverallDifficulty:2
ApproachRate:3
SliderMultiplier:1
SliderTickRate:1

[Events]
//Background and Video events
0,0,"bg.jpg"
//Break Periods
2,22763,28507
//Storyboard Layer 0 (Background)
//Storyboard Layer 1 (Fail)
//Storyboard Layer 2 (Pass)
//Storyboard Layer 3 (Foreground)
//Storyboard Sound Samples
//Background Colour Transformations
3,100,0,0,0

[TimingPoints]
2256,461.538461538462,4,2,1,50,1,0
22563,230.769230769231,4,1,1,50,1,0
29947,-133.333333333333,4,1,1,70,0,0
47486,230.769230769231,4,1,1,70,1,0
47486,-133.333333333333,4,1,1,70,0,0
78870,-133.333333333333,4,1,1,70,0,1
110255,-133.333333333333,4,1,1,70,0,0

[Colours]
Combo1 : 0,128,255
Combo2 : 128,255,128
Combo3 : 128,128,192
Combo4 : 255,128,128

[HitObjects]
256,48,2256,1,4
256,192,4102,1,4
256,336,5948,1,4
256,192,6063,12,4,9640
112,64,13332,6,0,B|52:160|118:264,2,200,4|0|2
336,192,16563,1,0
336,192,17025,1,4
256,192,17140,12,4,22563
48,64,29947,5,0
122,73,30178,2,0,B|196:81|303:92,3,149.999995529652,8|8|8|8
273,166,31793,5,0
199,178,32024,2,0,B|125:186|18:197,3,149.999995529652,8|8|8|8
51,268,33639,5,0
125,280,33870,2,0,B|199:288|306:299,3,149.999995529652,8|8|8|8
322,353,35486,5,0
437,258,35947,1,8
323,162,36409,1,0
439,67,36870,1,8
294,24,37332,6,0,B|228:75|146:33,1,149.999995529652,4|8
55,150,38255,2,0,B|29:300,1,149.999995529652,0|8
166,358,39178,2,0,B|192:208,1,149.999995529652,0|8
330,152,40101,5,0
348,224,40332,1,0
364,297,40563,2,0,B|457:296|481:209,1,149.999995529652,8|0
432,74,41486,5,8
317,170,41947,1,0
201,73,42409,1,8
85,168,42870,6,0,B|44:243|92:334,1,149.999995529652,0|8
217,376,43793,1,0
243,305,44024,1,8
267,234,44255,6,0,B|396:233|482:375,2,224.999993294478,4|8|0
137,310,46101,1,8
40,195,46563,1,0
169,119,47024,1,8
307,62,47486,6,0,B|382:58|464:88,1,149.999995529652,4|8
433,233,48409,2,0,B|422:274|405:323,2,74.9999977648259,0|0|8
380,373,49332,2,0,B|258:348|221:219,2,224.999993294478,0|8|0
483,264,51178,5,4
398,140,51639,1,8
283,237,52101,1,0
198,113,52562,1,8
96,223,53024,6,0,B|117:305|197:344,1,149.999995529652,0|8
334,353,53947,2,0,B|348:322|361:258,1,74.9999977648259,0|8
428,300,54409,2,0,B|486:220|423:141,1,149.999995529652,8|4
336,48,55332,1,8
252,172,55793,1,0
168,47,56255,1,8
83,171,56716,6,0,B|74:259|136:333,1,149.999995529652,0|8
184,353,57409,2,0,B|236:275|332:301,1,149.999995529652
378,332,58101,1,8
476,218,58562,5,4
392,93,59024,1,8
302,213,59486,1,0
215,90,59947,1,8
64,90,60409,5,0
52,163,60639,2,8,B|40:244,1,74.9999977648259
115,228,61101,2,0,B|126:316,1,74.9999977648259,0|8
196,282,61562,2,0,B|248:346,1,74.9999977648259,0|8
301,292,62024,2,0,B|394:327,1,74.9999977648259,8|4
454,193,62716,5,8
366,69,63178,2,0,B|264:9|112:0|0:56|-28:222|22:362,1,599.999982118607,0|0
88,361,65255,1,0
150,319,65486,1,8
214,356,65716,1,0
278,317,65947,6,0,B|362:322|454:342,1,149.999995529652,4|8
498,203,66870,2,0,B|433:188|349:183,1,149.999995529652,0|8
286,46,67793,6,0,B|204:26|108:48|81:161|102:239,1,299.999991059304
43,262,68947,2,0,B|64:298|77:339,1,74.9999977648259,0|8
138,368,69409,1,0
207,340,69639,6,0,B|247:315|311:312|378:335,2,149.999995529652,4|8|0
95,242,71024,1,8
218,156,71486,2,0,B|287:137|313:99|319:37,1,149.999995529652,0|8
449,125,72409,2,0,B|496:204|431:278,1,149.999995529652,0|8
306,331,73332,5,4
157,349,73793,1,8
47,246,74255,2,0,B|35:168|45:72,1,149.999995529652,0|8
183,45,75178,5,4
258,45,75409,1,0
332,45,75639,1,8
472,99,76101,2,0,B|486:186|466:276,1,149.999995529652,0|8
356,344,77024,6,0,B|312:350|255:363,1,74.9999977648259
208,343,77486,2,0,B|156:327|118:304,1,74.9999977648259,8|0
84,262,77947,2,0,B|69:223|62:172,1,74.9999977648259
71,114,78409,2,0,B|115:79|165:52,1,74.9999977648259,8|0
207,58,78870,6,0,B|308:8|397:29|441:49,2,224.999993294478,4|8|0
255,200,80716,2,0,B|154:250|65:229|21:209,2,224.999993294478,0|8|0
395,146,82562,6,0,B|478:187|460:288,1,149.999995529652,4|8
430,336,83255,2,0,B|361:288|283:334,1,149.999995529652,0|0
215,347,83947,2,0,B|56:337,2,149.999995529652,8|0|8
321,241,85332,1,8
256,105,85793,1,8
108,132,86255,6,0,B|85:203|93:293,1,149.999995529652,4|8
166,287,86947,2,0,B|189:216|181:126,1,149.999995529652,0|0
169,64,87639,1,8
317,44,88101,6,0,B|504:76|473:272,1,299.999991059304
352,336,89486,1,8
202,346,89947,6,0,B|198:296|208:208,1,112.499996647239,4|8
274,144,90639,1,0
235,79,90870,2,0,B|143:58|73:74,1,149.999995529652,0|8
25,208,91793,5,4
117,326,92255,1,8
265,348,92716,1,0
411,316,93178,1,8
488,187,93639,6,0,B|511:117|447:43,1,149.999995529652,4|8
376,47,94332,2,0,B|305:92|306:179,1,149.999995529652
266,236,95024,2,0,B|99:228,1,149.999995529652,8|0
212,344,95947,5,8
355,300,96409,1,0
480,214,96870,1,8
355,130,97332,6,0,B|287:89|189:95,1,149.999995529652,4|8
136,86,98024,2,0,B|74:271,1,149.999995529652
76,302,98716,2,0,B|148:341|229:303,2,149.999995529652,8|0|8
197,214,100101,6,0,B|261:220|292:231,1,74.9999977648259,0|8
344,241,100562,2,8,B|343:297|339:347,1,74.9999977648259
403,358,101024,6,0,B|486:305|448:209,1,149.999995529652,4|8
396,182,101716,2,0,B|364:100|447:43,1,149.999995529652
437,50,102409,1,8
489,190,102870,5,0
374,287,103332,1,8
259,188,103793,1,0
146,287,104255,1,8
32,188,104716,6,0,B|49:141|84:100,1,74.9999977648259,4|0
119,67,105178,2,0,B|204:48|278:108,1,149.999995529652,8|0
327,132,105870,1,0
399,111,106101,2,0,B|436:190|393:284,1,149.999995529652,12|0
377,325,106793,5,0
324,376,107024,2,0,B|280:372|240:372,1,74.9999977648259,8|0
173,368,107486,2,0,B|146:335|113:292,1,74.9999977648259
55,286,107947,2,0,B|64:247|80:195,1,74.9999977648259,8|0
52,138,108409,5,8
110,91,108639,1,8
167,139,108870,1,8
225,91,109101,1,8
283,138,109332,2,8,B|352:103|437:114|505:185|478:288,1,299.999991059304,8|4
