osu file format v13

[General]
AudioFilename: 03 IMAGE -MATERIAL-2.mp3
AudioLeadIn: 0
PreviewTime: 310262
Countdown: 0
SampleSet: None
StackLeniency: 0.7
Mode: 0
LetterboxInBreaks: 0
WidescreenStoryboard: 1

[Editor]
DistanceSpacing: 1.3
BeatDivisor: 4
GridSize: 32
TimelineZoom: 1

[Metadata]
Title:IMAGE -MATERIAL
TitleUnicode:IMAGE -MATERIAL
Artist:Tatsh
ArtistUnicode:Tatsh
Creator:Gunsillie
Version:AR9.5 for spectating
Source:
Tags:Not owned by me but by Scorpiour
BeatmapID:483724
BeatmapSetID:204824

[Difficulty]
HPDrainRate:6
CircleSize:4
OverallDifficulty:8
ApproachRate:9.5
SliderMultiplier:1.8
SliderTickRate:1

[Events]
//Background and Video events
0,0,"bg.jpg",0,0
//Break Periods
2,49251,55910
//Storyboard Layer 0 (Background)
//Storyboard Layer 1 (Fail)
//Storyboard Layer 2 (Pass)
//Storyboard Layer 3 (Foreground)
Sprite,Foreground,Centre,"bg.jpg",320,240 C,0,0,6590,0,0,0 S,0,0,384127,0.8 C,0,6590,21359,0,0,0,128,128,128 C,0,21359,55512,128,128,128,255,255,255 C,0,55512,56666,255,255,255,128,128,128 C,0,56666,114589,128,128,128 C,0,114589,115512,128,128,128,64,64,64 C,0,115512,117589,64,64,64,128,128,128 C,0,117589,227204,128,128,128 C,0,227204,227665,128,128,128,192,192,192 C,0,227665,252702,192,192,192 C,0,252702,258942,192,192,192,128,128,128 C,0,258942,261073,128,128,128,0,0,0 C,0,261073,263204,0,0,0 C,0,263204,384127,128,128,128 C,0,384127,388742,0,0,0 C,0,388742,389665,0,0,0,255,255,255
//Storyboard Sound Samples
//Background Colour Transformations
3,100,0,0,0

[TimingPoints]
6590,461.538461538462,4,2,1,6,1,0
8436,-100,4,2,1,30,0,0
8551,-100,4,2,1,6,0,0
10282,-100,4,1,1,30,0,0
10397,-100,4,2,1,10,0,0
10744,-100,4,2,1,15,0,0
11206,-100,4,2,1,20,0,0
11667,-100,4,2,1,25,0,0
12129,-100,4,2,1,30,0,0
13974,-100,4,2,1,30,0,0
14090,-100,4,2,1,6,0,0
15820,-100,4,2,1,30,0,0
15936,-100,4,2,1,6,0,0
17666,-100,4,2,1,30,0,0
17782,-100,4,2,1,10,0,0
18128,-100,4,2,1,15,0,0
18590,-100,4,2,1,20,0,0
19051,-100,4,2,1,25,0,0
19513,-100,4,2,1,30,0,0
20782,-100,4,2,1,6,0,0
21243,-200,4,2,1,30,0,0
43513,-200,4,2,1,15,0,0
43974,-200,4,2,1,20,0,0
44436,-200,4,2,1,25,0,0
44897,-200,4,2,1,30,0,0
45359,-200,4,2,1,35,0,0
45820,-200,4,2,1,40,0,0
46282,-200,4,2,1,45,0,0
46743,-200,4,2,1,50,0,0
49051,230.769230769231,4,2,1,5,1,0
56377,-100,4,1,1,60,0,0
70224,-100,4,1,1,55,0,0
70512,-100,4,1,1,50,0,0
70743,-100,4,1,1,45,0,0
70974,-100,4,1,1,40,0,0
71204,-100,4,1,1,60,0,0
77377,-100,4,1,1,50,0,0
78589,-100,4,1,1,60,0,0
86897,-100,4,1,1,55,0,0
87127,-100,4,1,1,50,0,0
87358,-100,4,1,1,45,0,0
87589,-100,4,1,1,40,0,0
87820,-100,4,1,1,45,0,0
88051,-100,4,1,1,50,0,0
88281,-100,4,1,1,55,0,0
88743,-100,4,1,1,60,0,1
88801,-100,4,1,1,60,0,0
96127,-100,4,1,1,55,0,0
98897,-100,4,1,1,50,0,0
99358,-100,4,1,1,45,0,0
100281,-100,4,1,1,50,0,0
100743,-100,4,1,1,55,0,0
101204,-100,4,1,1,60,0,0
103512,-100,4,1,1,55,0,0
118281,-100,4,1,1,40,0,0
118743,-100,4,1,1,45,0,0
119204,-100,4,1,1,50,0,0
119666,-100,4,1,1,55,0,0
120127,-100,4,1,1,60,0,0
130974,-100,4,1,1,40,0,0
131204,-100,4,1,1,60,0,0
133858,-100,4,1,1,50,0,0
138531,-200,4,1,1,60,0,0
150416,-200,4,1,1,55,0,0
151281,-200,4,1,1,50,0,0
152551,-200,4,1,1,49,0,0
152608,-200,4,1,1,48,0,0
152666,-200,4,1,1,47,0,0
152724,-200,4,1,1,46,0,0
152781,-200,4,1,1,45,0,0
152839,-200,4,1,1,44,0,0
152897,-200,4,1,1,43,0,0
152954,-200,4,1,1,42,0,0
153012,-200,4,1,1,41,0,0
153070,-200,4,1,1,40,0,0
153127,-200,4,1,1,39,0,0
153185,-200,4,1,1,38,0,0
153243,-200,4,1,1,37,0,0
153301,-200,4,1,1,36,0,0
153358,-200,4,1,1,35,0,0
160685,-133.333333333333,4,1,1,40,0,0
166280,-100,4,1,1,60,0,1
166397,-100,4,1,1,60,0,0
168993,-100,4,1,1,50,0,0
169916,-100,4,1,1,60,0,0
180070,-100,4,1,1,55,0,0
180589,-100,4,1,1,50,0,0
195012,-100,4,1,1,45,0,0
195243,-100,4,1,1,40,0,0
195474,-100,4,1,1,35,0,0
196281,-100,4,1,1,40,0,0
196743,-100,4,1,1,45,0,0
197204,-100,4,1,1,50,0,0
197666,-100,4,1,1,60,0,1
209666,-100,4,1,1,40,0,1
209897,-100,4,1,1,45,0,1
210127,-100,4,1,1,50,0,1
210358,-100,4,1,1,55,0,1
210589,-100,4,1,1,60,0,1
226743,-100,4,1,1,50,0,1
226974,-100,4,1,1,40,0,1
227204,461.538461538462,4,2,1,25,1,0
251549,697.674418604651,4,2,1,20,1,0
252702,714.285714285714,4,2,1,20,1,0
253509,800,4,2,1,18,1,0
254081,1132.07547169811,4,2,1,15,1,0
255586,1200,4,2,1,10,1,0
256408,1267.10000000001,4,2,1,8,1,0
258906,2131.45714285714,4,2,2,6,1,0
258906,-200,4,2,2,6,0,0
263204,230.769230769231,4,1,1,60,1,1
263261,-100,4,1,1,60,0,0
270530,-100,4,1,1,40,0,0
277973,-100,4,1,1,60,0,0
294530,-100,4,1,1,40,0,0
294819,-100,4,1,1,45,0,0
295050,-100,4,1,1,50,0,0
295280,-100,4,1,1,55,0,0
295511,-100,4,1,1,55,0,1
295627,-100,4,1,1,55,0,0
302896,-100,4,1,1,50,0,0
306127,-100,4,1,1,45,0,0
307050,-100,4,1,1,50,0,0
307511,-100,4,1,1,55,0,0
308838,-100,4,1,1,35,0,0
309127,-100,4,1,1,40,0,0
309357,-100,4,1,1,45,0,0
309588,-100,4,1,1,50,0,0
309819,-100,4,1,1,55,0,0
310280,-100,4,1,1,60,0,1
322280,-100,4,1,1,40,0,1
322511,-100,4,1,1,45,0,1
322684,-100,4,1,1,50,0,1
322973,-100,4,1,1,55,0,1
323204,-100,4,1,1,60,0,1
337050,-100,4,1,1,40,0,1
337280,-100,4,1,1,45,0,1
337511,-100,4,1,1,50,0,1
337742,-100,4,1,1,55,0,1
337973,-100,4,1,1,60,0,1
356434,-100,4,1,1,60,0,0
370338,-100,4,1,1,50,0,0
371204,-100,4,1,1,60,0,0

[Colours]
Combo1 : 244,151,11
Combo2 : 11,244,11
Combo3 : 11,244,244
Combo4 : 244,11,11

[HitObjects]
256,192,6590,12,0,7974,0:0:0:0:
256,192,8436,5,4,0:1:0:0:
256,192,8551,12,0,9820,0:0:0:0:
256,192,10282,5,4,0:1:0:0:
256,192,10397,12,0,13513,0:0:0:0:
256,192,13974,5,4,0:1:0:0:
256,192,14090,12,0,15359,0:0:0:0:
256,192,15820,5,4,0:1:0:0:
256,192,15936,12,0,17205,0:0:0:0:
256,192,17666,5,4,0:1:0:0:
256,192,17782,12,0,20897,0:0:0:0:
456,228,21359,6,0,P|410:221|367:226,1,90,4|0,0:1|0:0,0:0:0:0:
195,295,22282,2,0,P|237:303|284:296,1,90
349,120,23205,1,0,1:0:0:0:
266,189,23666,1,0,0:0:0:0:
248,82,24128,1,0,0:0:0:0:
164,151,24590,1,0,0:0:0:0:
146,44,25051,6,0,B|98:28|59:52|59:52|25:93|36:135,1,180,4|0,0:1|0:0,0:0:0:0:
102,302,26436,1,0,0:0:0:0:
175,250,26666,1,0,0:0:0:0:
171,160,26897,2,0,P|254:126|332:160,1,180
283,235,28051,1,0,0:0:0:0:
341,304,28282,1,0,0:0:0:0:
424,271,28513,1,0,0:0:0:0:
418,181,28743,6,0,P|414:133|420:76,1,90,4|0,0:1|0:0,0:0:0:0:
332,160,29666,2,0,P|335:205|330:249,1,90
248,178,30590,1,0,1:0:0:0:
158,117,31051,1,0,0:0:0:0:
60,163,31513,1,0,0:0:0:0:
51,270,31974,1,0,0:0:0:0:
139,332,32436,6,0,P|209:316|123:117,1,360,4|0,0:1|0:0,0:0:0:0:
147,113,35205,1,0,0:0:0:0:
147,113,36128,5,4,0:1:0:0:
242,163,36590,2,0,L|242:218,2,45
319,88,37513,5,0,0:0:0:0:
398,45,37743,1,0,0:0:0:0:
474,92,37974,1,0,0:0:0:0:
474,182,38205,1,0,0:0:0:0:
395,225,38436,1,0,0:0:0:0:
317,179,38666,1,0,0:0:0:0:
396,135,38897,5,0,0:0:0:0:
474,182,39128,1,0,0:0:0:0:
472,272,39359,1,0,0:0:0:0:
392,314,39590,2,0,L|391:348,1,22.5
392,316,39820,6,0,P|328:300|262:316,1,135
201,379,40743,2,0,P|138:355|109:297,1,135
116,201,41666,2,0,P|202:173|292:201,1,180
285,196,43051,1,0,0:0:0:0:
256,192,43513,12,0,49051,0:0:0:0:
37,92,56435,6,0,P|124:65|217:99,1,180,0|8,0:0|0:0,0:0:0:0:
268,156,56781,1,0,0:0:0:0:
314,233,56897,2,0,P|270:245|227:235,1,90
358,154,57127,2,0,P|392:186|402:226,1,90,8|0,0:0|0:0,0:0:0:0:
312,77,57358,2,0,P|393:80|467:149,1,180,0|8,0:0|0:0,0:0:0:0:
495,228,57704,1,0,0:0:0:0:
448,304,57820,2,0,P|408:317|354:304,1,90
314,233,58051,2,0,P|268:225|225:233,1,90,8|0,0:0|0:0,0:0:0:0:
162,296,58281,6,0,P|83:297|27:209,1,180,0|8,0:0|0:0,0:0:0:0:
90,156,58627,1,0,0:0:0:0:
173,192,58743,2,0,P|244:178|284:81,1,180,0|8,0:0|0:0,0:0:0:0:
241,7,59089,1,0,0:0:0:0:
153,26,59204,6,0,P|110:30|62:25,1,90
267,94,59435,2,0,P|313:89|360:96,1,90,8|0,0:0|0:0,0:0:0:0:
180,112,59666,2,0,P|139:118|83:112,1,90
295,179,59897,2,0,P|342:175|392:181,1,90,8|0,0:0|0:0,0:0:0:0:
202,204,60127,5,0,0:0:0:0:
114,182,60243,1,0,0:0:0:0:
73,262,60358,1,8,0:0:0:0:
136,326,60474,1,0,0:0:0:0:
219,292,60589,1,0,0:0:0:0:
296,336,60704,1,0,0:0:0:0:
380,303,60820,1,8,0:0:0:0:
465,326,60935,1,0,0:0:0:0:
465,326,60993,1,0,0:0:0:0:
465,326,61051,6,0,L|485:235,1,90
379,216,61281,2,0,L|368:125,1,90,8|0,0:0|0:0,0:0:0:0:
469,166,61512,2,0,L|484:73,1,90
377,52,61743,1,8,0:0:0:0:
367,52,61801,1,0,0:0:0:0:
358,52,61858,1,0,0:0:0:0:
348,52,61916,1,0,0:0:0:0:
338,52,61974,6,0,P|304:127|197:138,1,180,0|8,0:0|0:0,0:0:0:0:
274,235,62320,2,0,P|176:246|116:197,1,180
69,295,62666,2,0,P|8:221|27:137,1,180,8|0,0:0|0:0,0:0:0:0:
215,47,63127,1,8,0:0:0:0:
203,262,63358,1,0,0:0:0:0:
279,310,63474,1,0,0:0:0:0:
368,309,63589,1,8,0:0:0:0:
443,260,63704,1,0,0:0:0:0:
452,170,63820,5,0,0:0:0:0:
443,167,63877,1,0,0:0:0:0:
434,164,63935,1,0,0:0:0:0:
425,161,63993,1,0,0:0:0:0:
416,158,64051,2,0,L|321:190,1,90,8|0,0:0|0:0,0:0:0:0:
249,225,64281,1,0,0:0:0:0:
240,228,64339,1,0,0:0:0:0:
231,231,64397,1,0,0:0:0:0:
223,234,64454,1,0,0:0:0:0:
214,238,64512,2,0,L|114:191,1,90,8|0,0:0|0:0,0:0:0:0:
54,153,64743,5,0,0:0:0:0:
60,146,64801,1,0,0:0:0:0:
66,140,64858,1,0,0:0:0:0:
72,134,64916,1,0,0:0:0:0:
78,127,64974,2,0,L|96:32,1,90,8|0,0:0|0:0,0:0:0:0:
183,28,65204,1,0,0:0:0:0:
189,34,65262,1,0,0:0:0:0:
195,40,65320,1,0,0:0:0:0:
201,46,65377,1,0,0:0:0:0:
207,52,65435,2,0,L|189:154,1,90,8|0,0:0|0:0,0:0:0:0:
175,229,65666,5,0,0:0:0:0:
173,237,65724,1,0,0:0:0:0:
171,245,65781,1,0,0:0:0:0:
169,253,65839,1,0,0:0:0:0:
167,261,65897,2,0,L|254:342,1,90,8|0,0:0|0:0,0:0:0:0:
311,279,66127,1,0,0:0:0:0:
319,276,66185,1,0,0:0:0:0:
327,274,66243,1,0,0:0:0:0:
335,272,66301,1,0,0:0:0:0:
343,270,66358,2,0,L|464:299,1,90,8|0,0:0|0:0,0:0:0:0:
353,197,66589,6,0,B|257:194|182:146|182:146|213:115|213:115|206:71|206:71|243:41|243:41|217:8|217:8|313:-4|390:46,1,540
439,263,67512,6,0,P|356:288|268:264,1,180,0|0,0:0|0:0,0:0:0:0:
304,366,67858,2,0,P|219:338|165:247,1,180
130,184,68204,2,0,P|179:177|217:188,1,90
268,264,68435,5,0,0:0:0:0:
188,307,68551,1,0,0:0:0:0:
101,282,68666,1,8,0:0:0:0:
56,204,68781,1,0,0:0:0:0:
88,119,68897,1,0,0:0:0:0:
168,78,69012,1,0,0:0:0:0:
254,100,69127,1,8,0:0:0:0:
297,179,69243,1,0,0:0:0:0:
268,264,69358,6,0,P|229:240|209:201,1,90,0|0,1:0|3:0,3:0:0:0:
387,166,69589,2,0,P|386:207|356:245,1,90,0|0,1:0|3:0,3:0:0:0:
332,95,69820,2,0,P|374:76|416:79,1,90,0|0,1:0|3:0,3:0:0:0:
297,179,70051,2,0,P|257:152|242:114,1,90,0|0,1:0|3:0,0:0:0:0:
387,166,70281,5,0,3:1:0:0:
389,170,70339,1,0,3:1:0:0:
391,174,70397,1,0,3:1:0:0:
392,177,70454,1,0,3:1:0:0:
394,181,70512,1,0,3:1:0:0:
396,185,70570,1,0,3:1:0:0:
398,188,70627,1,0,3:1:0:0:
400,192,70685,1,0,3:1:0:0:
402,196,70743,2,0,L|376:284,1,90,0|0,3:0|3:0,0:0:0:0:
480,227,70974,2,0,L|506:139,1,90,0|0,3:0|3:0,0:0:0:0:
458,302,71204,6,0,P|406:354|306:332,1,180,4|8,0:0|0:0,0:0:0:0:
134,242,71551,2,0,P|223:217|306:241,1,180
383,315,71897,1,8,0:0:0:0:
473,256,72012,1,0,0:0:0:0:
451,150,72127,1,0,0:0:0:0:
342,139,72243,2,0,P|263:161|170:135,1,180
76,81,72589,1,0,0:0:0:0:
172,32,72704,1,0,0:0:0:0:
247,110,72820,1,8,0:0:0:0:
344,65,72935,1,0,0:0:0:0:
425,136,73051,6,0,P|449:220|425:308,1,180,0|8,0:0|0:0,0:0:0:0:
248,281,73397,2,0,P|224:197|248:109,1,180
344,65,73743,1,8,0:0:0:0:
425,136,73858,1,0,0:0:0:0:
374,232,73974,1,0,0:0:0:0:
267,216,74089,2,0,P|184:194|94:216,1,180
183,279,74435,1,0,0:0:0:0:
290,296,74551,1,0,0:0:0:0:
374,232,74666,2,0,P|420:223|460:234,1,90
413,23,74897,6,0,P|326:3|216:34,1,180,0|8,0:0|0:0,0:0:0:0:
137,93,75243,2,0,P|226:113|313:100,1,180
180,25,75589,2,0,P|136:17|91:24,1,90,8|0,0:0|0:0,0:0:0:0:
21,107,75820,1,0,0:0:0:0:
90,191,75935,2,0,P|176:217|264:201,1,180
471,134,76281,1,0,0:0:0:0:
342,310,76397,1,0,0:0:0:0:
343,91,76512,1,8,0:0:0:0:
471,269,76627,1,0,0:0:0:0:
471,269,76743,6,8,P|381:281|288:225,1,180
259,341,77089,2,0,P|202:277|190:186,1,180
84,162,77435,2,0,P|79:116|94:75,1,90,0|0,0:0|3:0,0:0:0:0:
252,35,77666,6,0,L|365:22,1,90
256,152,77897,2,0,L|143:165,1,90
411,109,78127,1,0,0:0:0:0:
411,109,78243,1,0,0:0:0:0:
389,311,78358,1,0,0:0:0:0:
389,311,78474,1,0,0:0:0:0:
480,235,78589,6,0,P|402:204|311:222,1,180,4|8,0:0|0:0,0:0:0:0:
122,286,78935,2,0,P|200:317|291:299,1,180
397,134,79281,2,0,P|352:125|307:134,1,90
220,196,79512,1,0,0:0:0:0:
112,187,79627,2,0,B|65:170|59:120|59:120|81:72|129:73,1,180
201,216,79974,2,0,P|209:263|200:304,1,90
32,303,80204,2,0,P|24:256|32:214,1,90,8|0,0:0|0:0,0:0:0:0:
203,61,80435,6,0,P|291:83|376:64,1,180,0|8,0:0|0:0,0:0:0:0:
475,196,80781,2,0,P|397:166|305:185,1,180
201,216,81127,1,8,0:0:0:0:
97,247,81243,1,0,0:0:0:0:
122,142,81358,1,0,0:0:0:0:
174,321,81474,2,0,P|260:339|350:327,1,180
448,279,81820,1,0,0:0:0:0:
429,173,81935,1,0,3:1:0:0:
323,147,82051,2,0,P|283:130|260:91,1,90
269,240,82281,6,0,P|186:256|97:226,1,180,4|8,0:0|0:0,0:0:0:0:
219,79,82627,2,0,P|302:63|390:92,1,180,4|0,0:0|0:0,0:0:0:0:
450,284,82974,2,0,P|403:293|361:284,1,90,8|0,0:0|0:0,0:0:0:0:
263,197,83204,1,0,0:0:0:0:
127,228,83320,2,0,P|59:188|33:96,1,180
119,30,83666,1,0,0:0:0:0:
203,96,83781,1,0,0:0:0:0:
261,4,83897,1,8,0:0:0:0:
349,65,84012,1,0,0:0:0:0:
447,20,84127,6,0,P|471:96|443:189,1,180,0|8,0:0|0:0,0:0:0:0:
314,301,84474,2,0,P|290:225|317:131,1,180
384,251,84820,2,0,P|399:295|392:337,1,90
235,337,85051,1,0,0:0:0:0:
128,355,85166,1,0,0:0:0:0:
42,289,85281,1,8,0:0:0:0:
45,180,85397,1,0,0:0:0:0:
137,124,85512,6,0,P|226:133|291:77,1,180,4|0,0:0|0:0,0:0:0:0:
192,32,85858,1,0,0:0:0:0:
105,227,85974,2,0,L|70:314,1,90
211,243,86204,2,0,L|200:348,1,90
319,239,86435,2,0,L|339:341,1,90
412,185,86666,2,0,L|461:271,1,90
431,79,86897,6,0,L|399:35,3,45
334,31,87127,2,0,L|302:85,3,45
237,81,87358,2,0,L|205:33,3,45
138,37,87589,2,0,L|105:87,3,45
37,76,87820,5,0,0:0:0:0:
42,87,87877,1,0,3:1:0:0:
48,99,87935,1,0,3:1:0:0:
54,111,87993,1,0,3:1:0:0:
60,123,88051,1,0,3:1:0:0:
65,134,88108,1,0,3:1:0:0:
71,146,88166,1,0,3:1:0:0:
77,158,88224,1,0,3:1:0:0:
82,169,88281,5,0,3:1:0:0:
117,160,88339,1,0,3:1:0:0:
153,157,88397,1,0,3:1:0:0:
188,159,88454,1,0,3:1:0:0:
223,168,88512,1,0,3:1:0:0:
256,181,88570,1,0,3:1:0:0:
286,198,88627,1,0,3:1:0:0:
308,226,88685,1,0,3:1:0:0:
329,254,88743,6,0,B|393:291|455:258|455:258|473:214,1,180,4|8,0:0|0:0,0:0:0:0:
490,79,89089,1,0,0:0:0:0:
360,43,89204,2,0,B|296:6|234:39|234:39|215:82,1,180,4|8,0:0|0:0,0:0:0:0:
208,219,89551,1,0,0:0:0:0:
344,213,89666,2,0,P|389:206|432:214,1,90
478,315,89897,2,0,P|433:322|390:314,1,90,8|0,0:0|0:0,0:0:0:0:
333,96,90127,2,0,P|379:89|421:97,1,90
288,288,90358,2,0,P|242:295|199:286,1,90,8|0,0:0|0:0,0:0:0:0:
42,73,90589,6,0,P|7:153|23:241,1,180,0|8,0:0|0:0,0:0:0:0:
124,165,90935,2,0,P|169:234|259:255,1,180
362,222,91281,1,8,0:0:0:0:
459,268,91397,2,0,L|508:268,2,45
370,329,91627,1,0,3:1:0:0:
271,282,91743,1,0,3:1:0:0:
173,326,91858,1,0,3:1:0:0:
76,277,91974,1,0,3:1:0:0:
78,169,92089,1,0,3:1:0:0:
170,113,92204,1,8,3:1:0:0:
262,170,92320,1,0,3:1:0:0:
293,274,92435,6,0,P|386:267|454:200,1,180,4|8,0:0|0:0,0:0:0:0:
189,251,92781,1,0,0:0:0:0:
293,274,92897,2,0,P|343:207|338:104,1,180,0|8,0:0|0:0,0:0:0:0:
221,354,93243,1,0,0:0:0:0:
293,274,93358,5,0,0:0:0:0:
261,170,93474,1,0,0:0:0:0:
155,149,93589,2,0,P|157:101|177:65,1,90,8|0,0:0|0:0,0:0:0:0:
82,228,93820,2,0,P|66:275|66:317,1,90
50,125,94051,2,0,P|66:79|65:39,1,90,8|0,0:0|0:0,0:0:0:0:
155,149,94281,6,0,P|181:235|256:275,1,180,0|8,0:0|0:0,0:0:0:0:
392,268,94627,1,0,0:0:0:0:
439,141,94743,2,0,P|413:55|337:14,1,180,0|8,0:0|0:0,0:0:0:0:
203,22,95089,1,0,0:0:0:0:
155,149,95204,6,0,P|168:192|202:219,1,90,0|0,0:0|0:0,0:0:0:0:
384,305,95435,2,0,P|371:262|336:234,1,90,8|0,0:0|0:0,0:0:0:0:
348,112,95666,2,0,P|305:125|277:159,1,90,0|0,0:0|0:0,0:0:0:0:
191,343,95897,2,0,P|234:330|261:295,1,90,8|0,0:0|0:0,0:0:0:0:
431,179,96127,6,0,L|470:93,1,90,4|0,0:0|0:0,0:0:0:0:
326,149,96358,2,0,L|335:52,1,90,8|0,0:0|0:0,0:0:0:0:
218,149,96589,2,0,L|209:52,1,90
113,179,96820,2,0,L|68:88,1,90,8|0,0:0|0:0,0:0:0:0:
164,268,97051,5,0,0:0:0:0:
164,268,97281,1,8,0:0:0:0:
267,299,97397,1,0,0:0:0:0:
334,215,97512,2,0,L|434:245,1,90
343,119,97743,2,0,L|243:89,1,90,8|0,0:0|0:0,0:0:0:0:
233,199,97974,6,0,P|144:222|60:201,1,180,0|8,0:0|0:0,0:0:0:0:
181,119,98320,1,0,0:0:0:0:
105,42,98435,2,0,P|194:19|277:39,1,180,0|8,0:0|0:0,0:0:0:0:
366,101,98781,1,0,0:0:0:0:
470,70,98897,2,0,P|487:111|483:155,1,90
384,256,99127,2,0,P|367:215|370:170,1,90
476,280,99358,5,0,0:1:0:0:
454,309,99416,1,0,0:1:0:0:
423,328,99474,1,0,3:1:0:0:
388,336,99531,1,0,3:1:0:0:
351,334,99589,1,0,3:1:0:0:
318,317,99647,1,0,3:1:0:0:
285,301,99704,1,0,3:1:0:0:
248,303,99762,1,0,3:1:0:0:
213,313,99820,6,0,P|127:324|35:310,1,180,4|8,0:0|0:0,0:0:0:0:
35,147,100166,1,0,0:0:0:0:
126,202,100281,2,0,P|213:214|304:204,1,180,0|8,0:0|0:0,0:0:0:0:
304,41,100627,1,0,0:0:0:0:
192,70,100743,1,0,3:1:0:0:
85,53,100858,1,0,3:1:0:0:
35,148,100974,1,8,3:1:0:0:
112,225,101089,1,0,3:1:0:0:
208,176,101204,1,0,3:1:0:0:
287,249,101320,1,0,3:1:0:0:
380,195,101435,1,8,3:1:0:0:
447,267,101551,1,0,3:1:0:0:
359,329,101666,6,0,P|315:339|270:333,1,90
112,225,101897,2,0,P|156:215|201:221,1,90,8|0,0:0|0:0,0:0:0:0:
161,326,102127,1,0,0:0:0:0:
112,225,102243,1,0,0:0:0:0:
116,212,102301,1,0,0:0:0:0:
120,199,102358,1,8,0:0:0:0:
124,186,102416,1,0,3:1:0:0:
128,173,102474,1,0,3:1:0:0:
132,160,102531,1,0,3:1:0:0:
139,148,102589,5,0,3:1:0:0:
160,165,102647,1,0,3:1:0:0:
185,172,102704,1,0,3:1:0:0:
212,172,102762,1,0,3:1:0:0:
238,166,102820,1,0,3:1:0:0:
262,155,102877,1,0,3:1:0:0:
281,135,102935,1,0,3:1:0:0:
295,112,102993,1,0,3:1:0:0:
307,87,103051,5,0,3:1:0:0:
325,67,103108,1,0,3:1:0:0:
347,51,103166,1,0,3:1:0:0:
373,45,103224,1,0,3:1:0:0:
399,44,103281,1,0,3:1:0:0:
425,49,103339,1,0,3:1:0:0:
449,62,103397,1,0,3:1:0:0:
467,81,103454,1,0,3:1:0:0:
479,105,103512,6,0,P|459:195|480:278,1,180,4|0,0:0|0:0,0:0:0:0:
380,207,103858,1,0,0:0:0:0:
281,135,103974,2,0,P|301:225|279:308,1,180
198,220,104320,1,0,0:0:0:0:
99,283,104435,1,0,0:0:0:0:
33,185,104551,1,0,0:0:0:0:
132,124,104666,2,0,P|222:140|318:121,1,180
198,220,105012,2,0,P|243:214|286:222,2,90
206,337,105358,6,0,P|254:336|291:319,1,90,0|0,0:0|2:0,0:0:0:0:
411,352,105589,2,0,P|410:304|393:266,1,90,0|0,0:0|2:0,0:0:0:0:
428,147,105820,2,0,P|380:148|342:164,1,90,0|0,0:0|2:0,0:0:0:0:
222,134,106051,2,0,P|223:182|239:219,1,90,0|0,0:0|2:0,0:0:0:0:
340,259,106281,5,0,0:0:0:0:
438,214,106397,1,0,0:0:0:0:
418,108,106512,1,0,0:0:0:0:
312,84,106627,1,0,0:0:0:0:
265,182,106743,2,0,P|252:226|252:269,1,90
159,162,106974,2,0,P|172:117|170:74,1,90
103,255,107204,6,0,P|47:203|41:92,1,180,4|0,0:0|0:0,0:0:0:0:
137,42,107551,1,0,0:0:0:0:
232,109,107666,2,0,P|303:155|390:132,1,180
450,31,108012,1,0,0:0:0:0:
333,30,108127,2,0,P|286:24|244:30,1,90
309,135,108358,2,0,P|356:141|397:134,1,90
234,212,108589,2,0,P|187:206|145:212,2,90
297,299,108935,6,0,P|379:324|472:289,1,180
374,223,109281,2,0,P|427:160|435:65,1,180
309,135,109627,2,0,P|313:89|285:44,2,90
303,243,109974,1,0,0:0:0:0:
222,314,110089,1,0,0:0:0:0:
114,307,110204,2,0,P|59:274|35:209,1,135,0|0,0:0|2:0,0:0:0:0:
79,153,110435,2,0,P|149:152|213:112,1,135,0|0,0:0|2:0,0:0:0:0:
240,58,110666,2,0,P|306:42|370:56,1,135,0|0,0:0|2:0,0:0:0:0:
445,10,110897,6,0,P|494:73|493:169,1,180,4|0,0:0|0:0,0:0:0:0:
424,264,111243,1,0,0:0:0:0:
328,196,111358,2,0,P|238:186|164:237,1,180
144,349,111704,1,0,0:0:0:0:
260,362,111820,2,0,P|304:367|348:358,1,90
512,260,112051,2,0,P|468:255|423:263,1,90
260,284,112281,2,0,P|304:289|348:280,1,90
512,182,112512,2,0,P|468:177|423:185,1,90
320,218,112743,5,0,0:0:0:0:
221,261,112858,1,0,0:0:0:0:
114,240,112974,1,0,0:0:0:0:
50,153,113089,1,0,0:0:0:0:
91,53,113204,1,0,0:0:0:0:
198,40,113320,1,0,0:0:0:0:
263,125,113435,1,0,0:0:0:0:
222,225,113551,1,0,0:0:0:0:
114,240,113666,6,0,P|69:233|25:239,1,90
223,225,113897,2,0,P|268:232|324:222,1,90
156,140,114127,2,0,P|109:146|67:140,1,90
263,125,114358,2,0,P|308:117|350:126,1,90
198,40,114589,6,0,B|103:55|72:138|72:138|103:199|186:193|186:193|192:251|192:251|262:246|262:246|253:325|321:354|321:354|399:322|420:227,1,720,0|4,0:0|2:2,2:0:0:0:
394,180,116435,6,0,B|415:94|297:25|233:95|233:95|347:261|347:261|280:364|119:271|176:159,1,720,2|0,2:0|0:0,0:0:0:0:
148,196,117589,1,0,0:0:0:0:
132,204,117820,1,0,0:0:0:0:
116,216,118051,2,0,P|104:260|118:314,1,90
212,263,118281,5,0,0:0:0:0:
231,293,118339,1,0,0:0:0:0:
262,311,118397,1,0,0:0:0:0:
295,323,118454,1,0,3:1:0:0:
330,329,118512,1,0,3:1:0:0:
366,329,118570,1,0,3:1:0:0:
401,325,118627,1,0,3:1:0:0:
434,310,118685,1,0,3:1:0:0:
460,285,118743,5,0,3:1:0:0:
479,254,118801,1,0,3:1:0:0:
486,219,118858,1,0,3:1:0:0:
489,182,118916,1,0,3:1:0:0:
478,147,118974,1,0,3:1:0:0:
458,117,119031,1,0,3:1:0:0:
430,93,119089,1,0,3:1:0:0:
394,86,119147,1,0,3:1:0:0:
358,90,119204,6,0,L|313:105,3,45
246,168,119435,2,0,L|197:146,3,45
125,205,119666,5,0,0:0:0:0:
118,192,119724,1,0,3:1:0:0:
111,180,119781,1,0,3:1:0:0:
104,167,119839,1,0,3:1:0:0:
97,154,119897,1,0,3:1:0:0:
90,142,119954,1,0,3:1:0:0:
83,129,120012,1,0,3:1:0:0:
76,116,120070,1,0,3:1:0:0:
70,104,120127,6,0,P|129:57|241:48,1,180,4|8,0:0|0:0,0:0:0:0:
396,223,120474,2,0,P|337:270|225:279,1,180
353,136,120820,2,0,P|398:126|439:137,1,90,8|0,0:0|0:0,0:0:0:0:
475,239,121051,1,0,0:0:0:0:
393,308,121166,2,0,P|305:328|218:309,1,180
136,237,121512,1,0,0:0:0:0:
212,160,121627,1,0,0:0:0:0:
293,232,121743,1,8,0:0:0:0:
218,309,121858,1,0,0:0:0:0:
58,311,121974,6,0,P|20:237|30:143,1,180,0|8,0:0|0:0,0:0:0:0:
265,64,122320,2,0,P|303:138|293:232,1,180
151,133,122666,2,0,P|147:90|154:44,1,90,8|0,0:0|0:0,0:0:0:0:
265,64,122897,1,0,0:0:0:0:
344,136,123012,2,0,P|419:183|508:166,1,180
474,63,123358,1,0,0:0:0:0:
369,34,123474,1,0,0:0:0:0:
265,64,123589,1,8,0:0:0:0:
342,278,123820,6,0,P|250:291|164:276,1,180,0|8,0:0|0:0,0:0:0:0:
88,63,124166,2,0,P|179:49|265:64,1,180
433,137,124512,2,0,P|386:142|343:136,1,90,8|0,0:0|0:0,0:0:0:0:
241,171,124743,1,0,0:0:0:0:
251,299,124858,2,0,P|341:317|429:304,1,180
428,195,125204,1,0,0:0:0:0:
329,138,125320,1,0,0:0:0:0:
285,241,125435,1,8,0:0:0:0:
209,86,125551,1,0,0:0:0:0:
144,287,125666,6,0,P|103:311|61:317,1,90,0|0,0:0|3:1,0:0:0:0:
150,215,125897,2,0,P|126:174|119:132,1,90,0|0,0:0|3:1,0:0:0:0:
222,218,126127,2,0,P|263:194|304:187,1,90,0|0,0:0|3:1,0:0:0:0:
216,290,126358,2,0,P|240:331|246:372,2,90,8|0|0,0:0|3:1|0:0,0:0:0:0:
265,11,126820,2,0,P|274:84|305:136,1,135,8|0,0:0|0:0,0:0:0:0:
305,136,127051,1,0,0:0:0:0:
409,109,127166,1,0,0:0:0:0:
469,197,127281,1,8,0:0:0:0:
403,283,127397,1,0,0:0:0:0:
403,283,127454,1,0,0:0:0:0:
403,283,127512,6,0,P|313:266|226:280,1,180,4|8,0:0|0:0,0:0:0:0:
0,332,127858,2,0,P|90:349|176:334,1,180
274,288,128204,1,8,0:0:0:0:
343,204,128320,1,0,0:0:0:0:
330,97,128435,1,0,0:0:0:0:
236,42,128551,2,0,P|143:31|65:63,1,180
12,158,128897,1,0,0:0:0:0:
70,248,129012,1,0,0:0:0:0:
177,250,129127,1,8,0:0:0:0:
240,161,129243,1,0,0:0:0:0:
330,97,129358,6,0,B|381:55|445:75|445:75|475:130,1,180,0|8,0:0|0:0,0:0:0:0:
431,289,129704,2,0,B|380:331|316:311|316:311|286:256,1,180
240,161,130051,1,8,0:0:0:0:
139,198,130166,1,0,0:0:0:0:
103,96,130281,1,0,0:0:0:0:
205,59,130397,2,0,P|295:70|342:139,1,180
309,242,130743,1,0,0:0:0:0:
263,339,130858,1,0,0:0:0:0:
154,342,130974,1,0,1:0:0:0:
138,333,131031,1,0,3:1:0:0:
122,342,131089,1,0,3:1:0:0:
106,333,131147,1,0,3:1:0:0:
90,342,131204,6,0,B|56:328|56:328|-2:265|30:197,1,180,4|8,0:0|0:0,0:0:0:0:
205,59,131551,2,0,P|268:112|264:211,1,180
126,214,131897,1,8,0:0:0:0:
108,107,132012,1,0,0:0:0:0:
205,59,132127,1,0,0:0:0:0:
284,132,132243,2,0,P|369:155|457:118,1,180
291,56,132589,2,0,P|251:47|205:59,1,90
205,250,132820,2,0,P|245:259|291:247,1,90,8|0,0:0|0:0,0:0:0:0:
358,161,133051,6,0,L|412:151,3,30
440,92,133224,2,0,L|484:84,2,45
379,41,133397,2,0,L|291:56,1,90,0|0,0:0|0:0,0:0:0:0:
84,93,133858,5,0,0:0:0:0:
76,104,133915,1,0,0:0:0:0:
69,116,133973,1,0,0:0:0:0:
63,128,134031,1,0,0:0:0:0:
58,140,134089,1,0,3:0:0:0:
53,153,134146,1,0,3:0:0:0:
49,166,134204,1,0,3:0:0:0:
46,179,134261,1,0,3:0:0:0:
43,193,134319,1,0,3:0:0:0:
41,207,134377,1,0,3:0:0:0:
38,220,134435,6,0,B|28:308|75:336|75:336|136:314|136:314|185:353|185:353|233:343|258:284,1,360
266,289,135012,1,0,0:0:0:0:
273,293,135127,1,0,0:0:0:0:
237,33,135358,5,0,0:0:0:0:
239,41,135474,1,0,0:0:0:0:
241,49,135589,1,0,0:0:0:0:
464,140,135820,5,0,0:0:0:0:
460,148,135935,1,0,0:0:0:0:
456,156,136051,1,0,0:0:0:0:
259,285,136281,5,0,0:0:0:0:
260,293,136397,1,0,0:0:0:0:
264,300,136512,1,0,0:0:0:0:
321,155,136743,5,0,0:0:0:0:
312,158,136858,1,0,0:0:0:0:
303,160,136974,1,0,0:0:0:0:
294,161,137089,1,0,0:0:0:0:
285,162,137204,1,0,0:0:0:0:
275,162,137320,1,0,0:0:0:0:
266,162,137435,1,0,0:0:0:0:
256,161,137551,1,0,0:0:0:0:
247,160,137666,1,0,0:0:0:0:
238,158,137781,1,0,0:0:0:0:
229,155,137897,1,0,0:0:0:0:
220,154,138012,1,0,0:0:0:0:
211,153,138127,1,0,0:0:0:0:
201,153,138243,1,0,0:0:0:0:
192,154,138358,1,0,0:0:0:0:
183,155,138474,1,0,0:0:0:0:
174,156,138589,6,0,L|129:170,2,45,0|0|0,0:0|0:0|0:0,0:0:0:0:
408,87,139051,2,0,L|453:73,2,45,0|0|0,0:0|0:0|0:0,0:0:0:0:
197,286,139512,2,0,L|152:300,2,45,0|0|0,0:0|0:0|0:0,0:0:0:0:
431,217,139974,2,0,L|476:203,2,45,0|0|0,0:0|0:0|0:0,0:0:0:0:
296,186,140435,5,0,0:0:0:0:
288,181,140551,1,0,0:0:0:0:
280,176,140666,1,0,0:0:0:0:
272,171,140781,1,0,0:0:0:0:
264,166,140897,1,0,0:0:0:0:
256,161,141012,1,0,0:0:0:0:
248,156,141127,1,0,0:0:0:0:
240,151,141243,1,0,0:0:0:0:
232,146,141358,1,0,0:0:0:0:
223,141,141474,1,0,0:0:0:0:
215,136,141589,1,0,0:0:0:0:
207,131,141704,1,0,0:0:0:0:
198,126,141820,1,0,0:0:0:0:
190,121,141935,1,0,0:0:0:0:
181,116,142051,1,0,0:0:0:0:
172,111,142166,1,0,0:0:0:0:
164,106,142281,6,0,L|108:145,1,45
12,123,142512,2,0,L|37:159,1,45
28,275,142743,2,0,L|64:249,1,45
180,257,142974,2,0,L|154:220,1,45
164,106,143204,6,0,L|222:88,1,45
261,0,143435,2,0,L|279:58,1,45
375,91,143666,2,0,L|317:109,1,45
278,197,143897,2,0,L|260:139,1,45
343,252,144127,6,0,L|363:313,1,45
395,174,144358,2,0,L|456:154,1,45
315,127,144589,2,0,L|295:66,1,45
263,205,144820,2,0,L|202:225,1,45
103,287,145051,6,0,L|48:270,1,45
23,168,145281,2,0,L|40:113,1,45,0|0,0:0|0:0,0:0:0:0:
134,66,145512,2,0,L|189:83,1,45
214,185,145743,2,0,L|197:240,1,45,0|0,0:0|0:0,0:0:0:0:
201,342,145974,5,0,0:0:0:0:
209,340,146089,1,0,0:0:0:0:
217,338,146204,1,0,0:0:0:0:
225,336,146320,1,0,0:0:0:0:
233,334,146435,1,0,0:0:0:0:
241,332,146551,1,0,0:0:0:0:
249,331,146666,1,0,0:0:0:0:
257,330,146781,1,0,0:0:0:0:
431,278,146897,5,0,0:0:0:0:
413,274,147012,1,0,0:0:0:0:
395,270,147127,1,0,0:0:0:0:
377,267,147243,1,0,0:0:0:0:
359,264,147358,1,0,0:0:0:0:
340,262,147474,1,0,0:0:0:0:
322,260,147589,1,0,0:0:0:0:
304,259,147704,1,0,0:0:0:0:
58,220,147820,5,0,0:0:0:0:
82,207,147935,1,0,0:0:0:0:
106,195,148051,1,0,0:0:0:0:
131,185,148166,1,0,0:0:0:0:
156,176,148281,1,0,0:0:0:0:
182,168,148397,1,0,0:0:0:0:
208,163,148512,1,0,0:0:0:0:
234,161,148627,1,0,0:0:0:0:
274,180,148743,5,0,0:0:0:0:
356,214,148858,1,0,0:0:0:0:
427,158,148974,1,0,0:0:0:0:
415,69,149089,1,0,0:0:0:0:
332,34,149204,1,0,0:0:0:0:
333,45,149262,1,0,0:0:0:0:
334,56,149320,1,0,3:3:0:0:
336,67,149377,1,0,3:3:0:0:
337,78,149435,1,0,3:3:0:0:
339,89,149493,1,0,3:3:0:0:
340,100,149551,1,0,3:3:0:0:
341,112,149608,1,0,3:3:0:0:
343,123,149666,5,4,0:0:0:0:
344,124,150589,5,0,0:0:0:0:
344,124,151512,5,0,0:0:0:0:
344,124,152320,5,0,0:0:0:0:
345,137,152377,1,0,0:0:0:0:
344,150,152435,2,0,L|372:204,1,45
263,124,152666,2,0,L|235:70,1,45
238,206,152897,2,0,L|266:260,1,45
169,156,153127,2,0,L|141:102,1,45
132,223,153358,5,0,0:0:0:0:
132,223,154281,5,0,0:0:0:0:
132,223,155204,5,0,0:0:0:0:
132,223,156012,5,0,0:0:0:0:
144,230,156070,1,0,0:0:0:0:
155,237,156127,2,0,L|220:238,1,45
305,189,156358,2,0,L|240:188,1,45
144,149,156589,2,0,L|209:150,1,45
279,85,156820,2,0,L|214:84,1,45
343,124,157051,5,0,0:0:0:0:
343,125,157974,5,0,0:0:0:0:
343,125,158897,5,0,0:0:0:0:
343,125,159704,5,0,0:0:0:0:
356,126,159762,1,0,0:0:0:0:
369,125,159820,2,0,L|425:97,1,45
438,171,160051,2,0,L|493:162,1,45
453,247,160281,2,0,L|508:256,1,45
430,319,160512,2,0,L|486:347,1,45
356,315,160743,6,0,L|288:310,1,67.5000025749208
214,242,160974,2,0,L|146:237,1,67.5000025749208,0|0,0:0|0:0,0:0:0:0:
209,318,161204,2,0,L|141:313,1,67.5000025749208
67,245,161435,2,0,L|0:240,1,67.5000025749208,0|0,0:0|0:0,0:0:0:0:
71,107,161666,6,0,L|157:103,1,67.5000025749208
223,47,161897,2,0,L|309:43,1,67.5000025749208
227,122,162127,2,0,L|313:118,1,67.5000025749208
379,62,162358,2,0,L|465:58,1,67.5000025749208
397,197,162589,6,0,L|405:282,1,67.5000025749208
306,223,162820,2,0,L|316:134,1,67.5000025749208
231,164,163051,2,0,L|223:247,1,67.5000025749208
143,200,163281,2,0,L|133:117,1,67.5000025749208
53,173,163512,5,0,0:0:0:0:
52,179,163627,1,0,0:0:0:0:
51,185,163743,1,0,0:0:0:0:
50,191,163858,1,0,0:0:0:0:
49,197,163974,1,0,0:0:0:0:
48,203,164089,1,0,0:0:0:0:
47,209,164204,1,0,0:0:0:0:
46,215,164320,1,0,0:0:0:0:
143,200,164435,5,0,0:0:0:0:
144,206,164551,1,0,0:0:0:0:
145,212,164666,1,0,0:0:0:0:
146,218,164781,1,0,0:0:0:0:
147,224,164897,1,0,0:0:0:0:
148,230,165012,1,0,0:0:0:0:
149,236,165127,1,0,0:0:0:0:
150,242,165243,5,0,0:0:0:0:
168,262,165301,1,0,0:0:0:0:
192,271,165358,1,0,0:0:0:0:
218,274,165416,1,0,3:1:0:0:
244,269,165474,1,0,3:1:0:0:
268,259,165531,1,0,3:1:0:0:
289,242,165589,1,0,3:1:0:0:
306,220,165647,1,0,3:1:0:0:
318,196,165704,1,0,3:1:0:0:
324,169,165762,1,0,3:1:0:0:
320,142,165820,1,0,3:1:0:0:
314,116,165877,1,0,3:1:0:0:
315,88,165935,1,0,3:1:0:0:
324,62,165993,1,0,3:1:0:0:
342,41,166051,1,0,3:1:0:0:
366,29,166108,1,0,3:1:0:0:
392,26,166166,1,0,3:1:0:0:
418,30,166224,1,0,3:1:0:0:
448,48,166281,6,0,P|474:130|453:219,1,180,4|8,0:0|0:0,0:0:0:0:
376,308,166627,1,0,0:0:0:0:
304,216,166743,2,0,P|208:201|114:224,1,180,0|8,0:0|0:0,0:0:0:0:
16,256,167089,1,0,0:0:0:0:
7,139,167204,2,0,L|26:46,1,90
196,28,167435,2,0,L|177:121,1,90,8|0,0:0|0:0,0:0:0:0:
75,255,167666,2,0,L|94:162,1,90
264,144,167897,2,0,L|245:237,1,90,8|0,0:0|0:0,0:0:0:0:
155,331,168127,6,0,P|235:357|326:335,1,180,0|8,0:0|0:0,0:0:0:0:
448,199,168474,2,0,P|368:173|276:194,1,180
199,269,168820,1,8,0:0:0:0:
99,311,168935,1,0,0:0:0:0:
25,231,169051,1,0,0:0:0:0:
83,140,169166,1,0,0:0:0:0:
187,168,169281,1,0,0:0:0:0:
271,99,169397,1,0,0:0:0:0:
366,147,169512,2,0,P|411:155|454:148,1,90
315,31,169743,2,0,P|270:23|226:29,1,90
161,150,169974,6,0,P|186:229|157:318,1,180,4|8,0:0|0:0,0:0:0:0:
263,234,170320,1,0,0:0:0:0:
366,147,170435,2,0,P|341:226|369:315,1,180,0|8,0:0|0:0,0:0:0:0:
455,227,170781,1,0,0:0:0:0:
481,115,170897,6,0,L|399:75,1,90
220,128,171127,2,0,L|301:167,1,90,8|0,0:0|0:0,0:0:0:0:
301,66,171358,2,0,L|219:26,1,90
40,79,171589,2,0,L|121:118,1,90,8|0,0:0|0:0,0:0:0:0:
307,236,171820,2,0,P|216:253|131:235,1,180,0|8,0:0|0:0,0:0:0:0:
42,158,172166,1,0,0:0:0:0:
209,42,172281,2,0,P|300:25|384:42,1,180,0|8,0:0|0:0,0:0:0:0:
479,112,172627,1,0,0:0:0:0:
396,236,172743,6,0,B|354:248|307:236,1,90
143,164,172974,2,0,B|185:152|232:164,1,90,8|0,0:0|0:0,0:0:0:0:
306,74,173204,2,0,B|317:116|305:163,1,90
233,327,173435,2,0,B|221:284|233:237,1,90,8|0,0:0|0:0,0:0:0:0:
396,147,173666,6,0,B|408:190|396:237,1,90,4|0,0:0|0:0,0:0:0:0:
348,343,173897,1,8,0:0:0:0:
233,327,174012,1,0,0:0:0:0:
118,346,174127,1,0,0:0:0:0:
43,122,174358,2,0,L|67:13,2,90,8|0|0,0:0|0:0|0:0,0:0:0:0:
189,207,174820,2,0,L|165:316,2,90,8|0|0,0:0|0:0|0:0,0:0:0:0:
259,128,175166,1,0,0:0:0:0:
305,233,175281,1,8,0:0:0:0:
337,58,175397,1,0,0:0:0:0:
424,262,175512,6,0,P|349:298|256:281,1,180,0|8,0:0|0:0,0:0:0:0:
256,281,175858,1,0,0:0:0:0:
92,147,175974,2,0,P|167:111|260:128,1,180,0|8,0:0|0:0,0:0:0:0:
259,127,176320,1,0,0:0:0:0:
388,186,176435,2,0,P|414:147|415:105,1,90,0|0,0:0|3:1,0:0:0:0:
287,46,176666,2,0,P|261:85|259:126,1,90,8|0,0:0|3:1,0:0:0:0:
305,233,176897,1,0,0:0:0:0:
316,239,176954,1,0,0:0:0:0:
328,245,177012,1,0,3:1:0:0:
340,251,177070,1,0,3:1:0:0:
351,257,177127,1,0,3:1:0:0:
363,263,177185,1,0,3:1:0:0:
375,269,177243,1,0,3:1:0:0:
387,275,177301,1,0,3:1:0:0:
398,281,177358,6,0,L|389:370,1,90
482,273,177589,2,0,L|491:184,1,90,8|0,0:0|0:0,0:0:0:0:
381,115,177820,2,0,L|372:204,1,90
465,107,178051,2,0,L|474:18,1,90,8|0,0:0|0:0,0:0:0:0:
296,122,178281,1,0,0:0:0:0:
214,128,178397,1,0,0:0:0:0:
133,134,178512,1,8,0:0:0:0:
52,140,178627,1,0,0:0:0:0:
14,241,178743,5,0,3:1:0:0:
64,315,178858,1,0,3:1:0:0:
140,265,178974,1,8,3:1:0:0:
187,341,179089,1,0,3:1:0:0:
258,287,179204,2,0,L|362:311,1,90,0|0,3:1|0:0,0:0:0:0:
498,249,179435,2,0,L|394:225,1,90,8|0,3:1|0:0,0:0:0:0:
237,206,179666,2,0,L|341:230,1,90,0|0,3:1|0:0,0:0:0:0:
477,168,179897,2,0,L|373:144,1,90,8|0,3:1|0:0,0:0:0:0:
214,128,180127,5,0,0:0:0:0:
208,140,180185,1,0,0:0:0:0:
202,152,180243,1,0,0:0:0:0:
196,164,180301,1,0,3:1:0:0:
190,176,180358,1,0,3:1:0:0:
184,188,180416,1,0,3:1:0:0:
179,200,180474,1,0,3:1:0:0:
174,212,180531,1,0,3:1:0:0:
169,224,180589,5,0,3:1:0:0:
176,259,180647,1,0,3:1:0:0:
198,286,180704,1,0,3:1:0:0:
229,304,180762,1,0,3:1:0:0:
264,310,180820,1,0,3:1:0:0:
299,307,180877,1,0,3:1:0:0:
333,295,180935,1,0,3:1:0:0:
364,277,180993,1,0,3:1:0:0:
383,246,181051,6,0,P|368:153|399:73,1,180,4|0,0:0|0:0,0:0:0:0:
477,168,181397,1,0,0:0:0:0:
497,288,181512,2,0,P|427:356|343:362,1,180
234,334,181858,1,0,0:0:0:0:
136,268,181974,2,0,P|91:263|47:270,1,90
242,218,182204,2,0,P|286:225|330:219,1,90
375,111,182435,2,0,P|425:105|464:109,2,90
260,138,182781,5,0,0:0:0:0:
260,138,182839,1,0,0:0:0:0:
260,138,182897,2,0,B|215:156|171:139,1,90
147,284,183127,2,0,B|129:239|146:195,1,90
0,172,183358,2,0,B|45:154|89:171,2,90
181,197,183704,1,0,0:0:0:0:
202,214,183762,1,0,0:0:0:0:
226,224,183820,2,0,P|268:213|312:223,1,90
456,313,184051,6,0,P|400:333|311:304,1,135,0|0,0:0|2:0,0:0:0:0:
263,367,184281,2,0,P|217:328|198:236,1,135,0|0,0:0|2:0,0:0:0:0:
118,231,184512,2,0,P|128:172|198:109,1,135,0|0,0:0|2:0,0:0:0:0:
426,205,184743,6,0,P|476:135|466:45,1,180,0|0,0:0|0:0,3:1:0:0:
351,20,185089,1,0,0:0:0:0:
253,84,185204,2,0,P|170:119|85:99,1,180
163,10,185551,1,0,0:0:0:0:
177,207,185666,2,0,L|185:310,2,90
329,178,186012,1,0,0:0:0:0:
329,178,186127,2,0,L|344:76,2,90
435,254,186474,6,0,P|353:233|260:250,1,180
4,298,186820,2,0,P|86:319|178:301,1,180
217,190,187166,1,0,0:0:0:0:
185,77,187281,1,0,0:0:0:0:
258,313,187512,5,0,0:0:0:0:
339,33,187743,2,0,L|437:48,1,90
399,258,187974,2,0,L|304:242,1,90,0|0,0:0|0:0,0:0:0:0:
216,115,188204,2,0,L|315:132,1,90,0|0,0:0|0:0,0:0:0:0:
448,123,188435,6,0,P|427:210|453:294,1,180,4|0,0:0|0:0,0:0:0:0:
334,205,188781,1,0,0:0:0:0:
216,115,188897,2,0,P|237:202|210:286,1,180
97,196,189243,1,0,0:0:0:0:
103,79,189358,2,0,L|213:42,1,90
354,123,189589,2,0,L|244:160,1,90
135,274,189820,2,0,L|245:237,1,90
386,318,190051,2,0,L|276:355,1,90
122,358,190281,2,0,B|36:342|36:342|-19:259|44:154,2,270,0|0|0,0:0|0:0|0:0,2:0:0:0:
399,350,191204,6,0,L|512:337,1,90
284,322,191435,2,0,L|183:336,1,90
364,238,191666,2,0,L|477:225,1,90
249,210,191897,2,0,L|148:224,1,90
332,126,192127,6,0,B|420:153|420:153|476:128|436:-21|354:-65|139:-10|159:121|206:268|329:278|419:202,1,720
408,288,193974,6,0,B|332:360|256:316|256:316|188:344|188:344|136:316|136:316|36:328|16:212|16:212|124:148|276:196,1,720
256,192,195127,1,0,0:0:0:0:
264,194,195358,1,0,0:0:0:0:
272,196,195589,2,0,L|374:184,1,90
477,274,195820,5,0,0:0:0:0:
463,276,195877,1,0,0:0:0:0:
449,278,195935,1,0,0:0:0:0:
435,280,195993,1,0,3:1:0:0:
421,282,196051,1,0,3:1:0:0:
407,284,196108,1,0,3:1:0:0:
393,286,196166,1,0,3:1:0:0:
379,289,196224,1,0,3:1:0:0:
365,291,196281,1,0,3:1:0:0:
351,294,196339,1,0,3:1:0:0:
337,297,196397,1,0,3:1:0:0:
324,300,196454,1,0,3:1:0:0:
310,303,196512,1,0,3:1:0:0:
296,306,196570,1,0,3:1:0:0:
283,309,196627,1,0,3:1:0:0:
269,312,196685,1,0,3:1:0:0:
255,315,196743,5,0,3:1:0:0:
220,325,196801,1,0,3:1:0:0:
184,327,196858,1,0,3:1:0:0:
149,321,196916,1,0,3:1:0:0:
116,307,196974,1,0,3:1:0:0:
88,285,197031,1,0,3:1:0:0:
65,257,197089,1,0,3:1:0:0:
50,224,197147,1,0,3:1:0:0:
43,189,197204,1,0,3:1:0:0:
45,153,197262,1,0,3:1:0:0:
55,118,197320,1,0,3:1:0:0:
72,87,197377,1,0,3:1:0:0:
97,61,197435,1,0,3:1:0:0:
127,42,197493,1,0,3:1:0:0:
161,30,197551,1,0,3:1:0:0:
197,27,197608,1,0,3:1:0:0:
233,32,197666,6,0,P|332:67|369:127,1,180,4|8,0:0|0:0,0:0:0:0:
371,263,198012,1,0,0:0:0:0:
263,344,198127,2,0,P|183:350|97:303,1,180,0|8,0:0|0:0,0:0:0:0:
64,170,198474,1,0,0:0:0:0:
185,112,198589,2,0,L|294:144,1,90
458,288,198820,2,0,L|349:256,1,90,0|0,0:0|0:0,0:0:0:0:
77,193,199051,2,0,L|186:225,1,90
350,369,199281,2,0,L|241:337,1,90,0|0,0:0|0:0,0:0:0:0:
195,227,199512,5,0,0:0:0:0:
292,98,199627,1,0,0:0:0:0:
356,247,199743,1,0,0:0:0:0:
244,162,199858,5,0,0:0:0:0:
341,33,199974,1,0,0:0:0:0:
405,182,200089,1,0,0:0:0:0:
275,241,200204,5,0,0:0:0:0:
372,112,200320,1,0,0:0:0:0:
436,261,200435,1,0,0:0:0:0:
346,323,200551,6,0,B|248:307|249:307,2,90,0|0|0,0:0|0:0|0:0,0:0:0:0:
168,300,200897,2,0,B|70:284|71:284,1,90
155,147,201127,2,0,B|253:163|252:163,1,90,0|0,0:0|0:0,0:0:0:0:
264,315,201358,6,0,B|331:341|392:323|392:323|415:279,1,180,4|8,0:0|0:0,0:0:0:0:
460,151,201704,1,0,0:0:0:0:
386,36,201820,2,0,B|319:10|258:28|258:28|234:71,1,180,0|8,0:0|0:0,0:0:0:0:
190,200,202166,1,0,0:0:0:0:
128,319,202281,2,0,P|82:311|39:316,1,90
213,284,202512,2,0,P|259:292|301:286,1,90,8|0,0:0|0:0,0:0:0:0:
190,200,202743,2,0,P|144:192|101:197,1,90
275,165,202974,2,0,P|321:173|363:167,1,90,8|0,0:0|0:0,0:0:0:0:
465,79,203204,5,0,0:0:0:0:
367,30,203320,1,0,0:0:0:0:
281,95,203435,1,0,0:0:0:0:
183,47,203551,1,0,0:0:0:0:
108,125,203666,1,0,0:0:0:0:
160,219,203781,1,0,0:0:0:0:
267,203,203897,1,0,0:0:0:0:
281,95,204012,1,0,0:0:0:0:
387,77,204127,5,0,0:0:0:0:
441,170,204243,1,0,0:0:0:0:
367,248,204358,1,0,0:0:0:0:
267,203,204474,1,0,0:0:0:0:
160,219,204589,1,0,0:0:0:0:
80,291,204704,1,0,0:0:0:0:
156,367,204820,1,0,0:0:0:0:
237,296,204935,1,0,0:0:0:0:
331,349,205051,6,0,B|398:320|405:254|405:254|365:217,1,180,4|8,0:0|0:0,0:0:0:0:
239,166,205397,1,0,0:0:0:0:
115,218,205512,2,0,B|46:203|36:141|36:141|69:89,1,180,0|8,0:0|0:0,0:0:0:0:
195,38,205858,1,0,0:0:0:0:
239,166,205974,6,0,L|341:186,1,90
494,119,206204,2,0,L|392:99,1,90,8|0,0:0|0:0,0:0:0:0:
243,273,206435,2,0,L|345:293,1,90
498,226,206666,2,0,L|396:206,1,90,8|0,0:0|0:0,0:0:0:0:
239,166,206897,1,0,0:0:0:0:
148,223,207012,1,0,0:0:0:0:
51,174,207127,1,0,0:0:0:0:
48,65,207243,1,0,0:0:0:0:
138,7,207358,5,0,0:0:0:0:
233,58,207474,1,0,0:0:0:0:
328,107,207589,1,0,0:0:0:0:
425,152,207704,1,0,0:0:0:0:
498,232,207820,2,0,P|501:276|497:336,1,90,0|0,0:0|0:0,0:0:0:0:
338,303,208051,2,0,P|335:259|339:199,1,90,0|0,0:0|0:0,0:0:0:0:
424,63,208281,2,0,P|427:107|423:167,1,90,0|0,0:0|0:0,0:0:0:0:
264,134,208512,2,0,P|261:90|265:30,1,90,0|0,0:0|0:0,0:0:0:0:
337,213,208743,5,4,0:0:0:0:
337,213,208858,1,0,0:0:0:0:
337,213,208974,2,0,L|248:244,1,90,8|0,0:0|0:0,0:0:0:0:
349,104,209204,1,0,0:0:0:0:
349,104,209320,1,0,0:0:0:0:
349,104,209435,2,0,L|259:134,1,90,8|0,0:0|0:0,0:0:0:0:
166,87,209666,5,0,0:0:0:0:
139,91,209724,1,0,0:0:0:0:
115,104,209781,1,0,0:0:0:0:
96,123,209839,1,0,0:0:0:0:
80,145,209897,1,0,0:0:0:0:
70,169,209954,1,0,0:0:0:0:
64,195,210012,1,0,0:0:0:0:
63,222,210070,1,0,0:0:0:0:
68,248,210127,1,0,0:0:0:0:
79,272,210185,1,0,0:0:0:0:
95,293,210243,1,0,0:0:0:0:
116,309,210301,1,0,0:0:0:0:
139,321,210358,1,0,0:0:0:0:
165,328,210416,1,0,0:0:0:0:
191,330,210474,1,0,0:0:0:0:
217,328,210531,1,0,0:0:0:0:
243,321,210589,6,0,L|326:266,1,90
438,191,210820,1,0,0:0:0:0:
438,191,210935,1,0,0:0:0:0:
451,18,211051,2,0,L|368:73,1,90
256,148,211281,1,0,0:0:0:0:
256,148,211397,1,0,0:0:0:0:
201,240,211512,2,0,L|220:342,1,90
109,187,211743,2,0,L|7:206,1,90
164,95,211974,2,0,L|145:-7,1,90,0|0,0:0|0:0,0:0:0:0:
256,148,212204,2,0,L|358:129,1,90
504,217,212435,6,0,P|411:232|328:276,1,180,4|8,0:0|0:0,0:0:0:0:
227,353,212781,1,0,0:0:0:0:
91,360,212897,2,0,B|37:355|37:355|2:294|41:226,1,180,0|8,0:0|0:0,0:0:0:0:
106,118,213243,1,0,0:0:0:0:
214,198,213358,2,0,P|298:219|392:199,1,180,0|8,0:0|0:0,0:0:0:0:
496,118,213704,1,0,0:0:0:0:
387,36,213820,2,0,P|300:15|212:32,1,180,0|8,0:0|0:0,0:0:0:0:
106,118,214166,1,0,0:0:0:0:
113,252,214281,6,0,B|137:360|137:359,1,90
214,198,214512,2,0,B|190:90|190:91,1,90
188,273,214743,2,0,B|212:381|212:380,1,90
289,219,214974,2,0,B|265:111|265:112,1,90
262,292,215204,1,0,0:0:0:0:
362,331,215320,1,0,0:0:0:0:
448,266,215435,1,0,0:0:0:0:
432,158,215551,1,0,0:0:0:0:
332,117,215666,1,0,0:0:0:0:
246,182,215781,1,0,0:0:0:0:
146,138,215897,1,0,0:0:0:0:
59,201,216012,1,0,0:0:0:0:
82,312,216127,6,0,P|167:334|254:313,1,180,4|8,0:0|0:0,0:0:0:0:
216,181,216474,1,0,0:0:0:0:
166,55,216589,2,0,P|253:34|338:56,1,180,0|8,0:0|0:0,0:0:0:0:
446,139,216935,1,0,0:0:0:0:
461,273,217051,2,0,L|360:308,1,90
204,252,217281,2,0,L|305:217,1,90
446,139,217512,2,0,L|345:174,1,90
189,118,217743,2,0,L|290:83,1,90
432,2,217974,5,4,0:0:0:0:
432,2,218204,2,0,L|404:97,2,90
229,165,218666,2,0,L|203:251,1,90
74,293,218897,2,0,P|133:328|222:318,1,135,0|0,0:0|2:0,0:0:0:0:
259,276,219127,2,0,P|315:245|390:262,1,135,0|0,0:0|2:0,0:0:0:0:
439,314,219358,2,0,P|483:258|477:181,1,135,0|0,0:0|2:0,0:0:0:0:
415,151,219589,2,0,P|403:84|429:24,1,135,0|0,0:0|2:0,0:0:0:0:
428,24,219820,5,4,0:0:0:0:
428,24,220051,2,0,L|332:67,1,90
152,59,220281,2,0,L|235:24,1,90
137,177,220512,2,0,L|40:219,1,90
123,308,220743,1,0,0:0:0:0:
223,345,220858,1,0,0:0:0:0:
294,263,220974,1,0,0:0:0:0:
381,325,221089,1,0,0:0:0:0:
439,234,221204,6,0,P|424:193|392:160,1,90
480,45,221435,2,0,P|439:60|406:91,1,90,0|0,0:0|0:0,0:0:0:0:
291,3,221666,2,0,P|306:44|337:76,1,90,4|0,0:0|0:0,0:0:0:0:
250,192,221897,2,0,P|291:177|323:145,1,90,0|0,0:0|0:0,0:0:0:0:
174,137,222127,2,0,P|133:152|100:183,1,90,0|0,0:0|0:0,0:0:0:0:
202,322,222358,2,0,P|243:307|275:275,1,90,0|0,0:0|0:0,0:0:0:0:
335,123,222589,5,0,0:0:0:0:
430,73,222704,1,0,0:0:0:0:
488,164,222820,1,0,0:0:0:0:
394,217,222935,1,0,0:0:0:0:
285,218,223051,1,0,0:0:0:0:
227,126,223166,1,0,0:0:0:0:
125,88,223281,1,0,0:0:0:0:
23,125,223397,1,0,0:0:0:0:
11,232,223512,6,0,L|-9:327,1,90,4|0,0:0|0:0,0:0:0:0:
133,260,223743,2,0,L|125:357,1,90
259,266,223974,2,0,L|266:371,1,90
380,235,224204,2,0,L|412:353,1,90
421,141,224435,2,0,L|539:109,1,90
329,87,224666,2,0,L|297:-31,1,90
288,181,224897,2,0,L|170:213,1,90
24,173,225127,2,0,L|142:141,1,90
210,106,225358,5,4,0:0:0:0:
349,69,225474,1,0,0:0:0:0:
232,146,225589,5,4,0:0:0:0:
371,109,225705,1,0,0:0:0:0:
253,183,225820,5,4,0:0:0:0:
392,146,225936,1,0,0:0:0:0:
275,223,226051,5,4,0:0:0:0:
414,186,226167,1,0,0:0:0:0:
294,258,226281,5,4,0:0:0:0:
433,221,226397,1,0,0:0:0:0:
316,298,226512,5,4,0:0:0:0:
455,261,226628,1,0,0:0:0:0:
482,126,226743,5,0,0:0:0:0:
468,122,226801,1,0,0:0:0:0:
455,118,226858,1,0,3:1:0:0:
441,114,226916,1,0,3:1:0:0:
427,110,226974,1,0,3:1:0:0:
414,106,227031,1,0,3:1:0:0:
400,102,227089,1,0,3:1:0:0:
386,98,227147,1,0,3:1:0:0:
374,94,227204,6,0,P|329:104|277:109,2,90,2|0|0,0:0|0:0|0:0,0:0:0:0:
199,137,227896,2,0,P|156:126|110:121,2,90,0|0|0,0:0|0:0|0:0,0:0:0:0:
311,194,228588,2,0,P|357:203|399:205,2,90
194,242,229280,2,0,P|151:251|108:268,2,90
293,285,229973,2,0,P|339:279|381:285,1,90
456,206,230434,2,0,P|410:212|367:205,1,90
258,109,230896,6,0,P|210:102|169:107,2,90
51,63,231588,2,0,P|68:108|94:140,2,90
115,265,232280,2,0,P|145:226|160:188,2,90
258,109,232973,2,0,P|306:102|346:107,2,90
258,275,233665,2,0,P|306:282|346:277,1,90
443,195,234127,2,0,P|395:188|355:193,1,90
195,228,234588,6,0,P|149:234|105:228,2,90
298,196,235280,2,0,P|326:232|342:272,2,90
218,122,235973,2,0,P|235:79|262:44,2,90
195,228,236665,2,0,P|177:270|150:305,1,90
56,228,237127,2,0,P|73:185|100:150,2,90
195,228,237819,2,0,P|221:193|239:150,1,90
198,50,238280,6,0,P|156:41|104:54,2,90
305,68,238973,2,0,P|347:77|399:64,2,90
240,155,239665,2,0,P|231:197|244:249,2,90
338,199,240357,2,0,P|351:239|388:278,2,90
333,90,241050,2,0,L|380:10,1,90
338,199,241511,2,0,L|291:279,1,90
235,56,241973,6,0,L|188:136,1,90,0|0,0:0|0:0,0:0:0:0:
115,212,242434,2,0,L|207:212,1,90,0|0,0:0|0:0,0:0:0:0:
310,238,242896,2,0,L|264:157,1,90,0|0,0:0|0:0,0:0:0:0:
341,37,243357,2,0,L|386:117,1,90,0|0,0:0|0:0,0:0:0:0:
482,91,243819,2,0,L|434:170,1,90,0|0,0:0|0:0,0:0:0:0:
504,240,244280,2,0,L|411:239,1,90,0|0,0:0|0:0,0:0:0:0:
386,335,244742,2,0,L|340:254,2,90
216,219,245434,6,0,L|261:299,2,90
133,182,246127,2,0,L|40:181,2,90
210,135,246819,2,0,P|295:106|386:142,1,180
457,207,247511,2,0,P|417:215|368:207,1,90
286,243,247973,2,0,P|241:235|198:243,2,90
147,322,248665,2,0,P|101:329|58:321,1,90
232,326,249127,6,0,P|278:315|322:324,2,90
392,354,249819,2,0,P|435:342|464:309,1,90
401,197,250280,2,0,P|358:209|328:241,1,90
484,181,250742,6,0,P|464:138|428:116,2,90
258,280,251549,6,0,P|212:288|169:281,2,90
69,88,252702,6,0,P|114:80|185:97,1,90
157,87,253509,1,0,0:0:0:0:
115,236,254081,6,0,P|162:243|227:230,1,90
380,224,255586,1,0,0:0:0:0:
502,107,256408,6,0,P|438:92|366:107,1,135,0|0,2:0|0:0,0:0:0:0:
294,246,257675,6,0,P|358:261|430:246,1,135
328,157,258906,22,0,P|257:131|176:166,1,157.5,0|0,2:2|0:0,0:0:0:0:
219,280,263204,38,0,L|103:268,1,90,4|0,0:0|0:0,0:0:0:0:
307,251,263434,2,0,L|423:263,1,90,8|0,0:0|0:0,0:0:0:0:
240,189,263665,1,0,0:0:0:0:
138,224,263780,1,0,0:0:0:0:
75,134,263896,1,8,0:0:0:0:
137,46,264011,1,0,0:0:0:0:
239,82,264127,6,0,L|352:64,1,90
468,112,264357,2,0,L|355:130,1,90,8|0,0:0|0:0,0:0:0:0:
239,82,264588,1,0,0:0:0:0:
133,108,264704,1,0,0:0:0:0:
82,203,264819,1,8,0:0:0:0:
115,305,264934,1,0,0:0:0:0:
219,333,265050,6,0,P|259:299|269:264,1,90
240,82,265280,2,0,P|200:116|189:150,1,90,8|0,0:0|0:0,0:0:0:0:
104,197,265511,2,0,P|138:237|172:247,1,90
355,218,265742,2,0,P|321:178|286:167,1,90,8|0,0:0|0:0,0:0:0:0:
345,297,265973,6,0,P|393:285|421:257,1,90
477,164,266204,1,8,0:0:0:0:
434,65,266319,1,0,0:0:0:0:
327,82,266434,2,0,P|284:92|239:82,1,90
147,24,266665,1,8,0:0:0:0:
96,118,266780,1,0,0:0:0:0:
187,176,266896,6,0,P|208:267|167:365,1,180,4|8,0:0|0:0,0:0:0:0:
103,258,267242,1,0,0:0:0:0:
187,176,267357,2,0,L|279:198,1,90
408,316,267588,2,0,L|316:294,1,90,8|0,0:0|0:0,0:0:0:0:
274,196,267819,1,0,0:0:0:0:
363,136,267934,1,0,0:0:0:0:
326,33,268050,1,8,0:0:0:0:
218,30,268165,1,0,0:0:0:0:
187,133,268280,1,0,0:0:0:0:
274,196,268396,1,0,0:0:0:0:
235,297,268511,1,8,0:0:0:0:
126,291,268627,1,0,0:0:0:0:
92,188,268742,6,0,B|53:123|98:64|98:64|143:50,1,180
249,31,269088,1,0,0:0:0:0:
350,70,269204,2,0,L|456:52,1,90
270,131,269434,2,0,L|164:149,1,90
364,168,269665,1,0,0:0:0:0:
467,198,269780,1,0,0:0:0:0:
490,304,269896,1,0,0:0:0:0:
409,375,270011,1,0,0:0:0:0:
319,316,270127,1,0,0:0:0:0:
233,372,270242,1,0,0:0:0:0:
161,260,270357,1,0,0:0:0:0:
74,374,270473,1,0,0:0:0:0:
26,209,270588,6,0,L|90:196,3,45,0|0|0|0,3:0|3:0|3:0|3:0,0:0:0:0:
161,260,270819,2,0,L|217:263,3,45,0|0|0|0,3:0|3:0|3:0|3:0,0:0:0:0:
244,344,271050,1,0,3:1:0:0:
278,351,271107,1,0,3:1:0:0:
314,351,271165,1,0,3:1:0:0:
349,345,271223,1,0,3:1:0:0:
382,332,271280,1,0,3:1:0:0:
413,314,271338,1,0,3:1:0:0:
441,291,271396,1,0,3:1:0:0:
466,265,271454,1,0,3:1:0:0:
480,232,271511,6,0,L|457:178,3,45
465,89,271742,2,0,L|438:33,3,45
323,65,271973,1,0,3:1:0:0:
323,101,272030,1,0,3:1:0:0:
315,136,272088,1,0,3:1:0:0:
298,168,272146,1,0,3:1:0:0:
273,194,272204,1,0,3:1:0:0:
242,211,272261,1,0,3:1:0:0:
206,218,272319,1,0,3:1:0:0:
169,219,272377,1,0,3:1:0:0:
134,212,272434,6,0,L|82:202,1,45,0|0,3:0|3:0,0:0:0:0:
41,125,272550,2,0,L|93:135,1,45,0|0,3:0|3:0,0:0:0:0:
199,130,272665,2,0,L|147:120,1,45,0|0,0:0|3:0,0:0:0:0:
106,43,272781,2,0,L|158:53,1,45,0|0,3:0|3:0,0:0:0:0:
238,31,272896,2,0,L|278:65,1,45,0|0,3:0|3:0,0:0:0:0:
362,67,273011,2,0,L|379:117,1,45,0|0,3:0|3:0,0:0:0:0:
439,174,273126,2,0,L|429:226,1,45,0|0,3:0|3:0,0:0:0:0:
437,309,273242,2,0,L|402:349,1,45,0|0,3:0|3:0,0:0:0:0:
316,351,273357,5,0,0:0:0:0:
303,349,273414,1,0,0:0:0:0:
290,347,273472,1,0,0:0:0:0:
277,346,273530,1,0,0:0:0:0:
264,345,273587,1,0,0:0:0:0:
251,344,273645,1,0,0:0:0:0:
238,343,273703,1,0,0:0:0:0:
225,342,273760,1,0,0:0:0:0:
212,341,273818,1,0,0:0:0:0:
199,340,273876,1,0,0:0:0:0:
186,339,273933,1,0,0:0:0:0:
173,338,273991,1,0,0:0:0:0:
160,337,274049,1,0,0:0:0:0:
147,336,274107,1,0,0:0:0:0:
134,335,274164,1,0,0:0:0:0:
121,334,274222,1,0,0:0:0:0:
108,333,274280,5,0,0:0:0:0:
59,219,274396,2,0,L|42:167,2,45
164,188,274627,1,0,0:0:0:0:
172,190,274684,1,0,3:1:0:0:
180,192,274742,1,0,3:1:0:0:
188,194,274800,1,0,3:1:0:0:
196,196,274857,1,0,3:1:0:0:
204,198,274915,1,0,3:1:0:0:
212,200,274973,1,0,3:1:0:0:
220,202,275030,1,0,3:1:0:0:
228,205,275088,1,0,3:1:0:0:
236,207,275146,1,0,3:1:0:0:
244,209,275204,6,0,L|224:267,1,45,0|0,0:0|3:0,0:0:0:0:
308,240,275319,2,0,L|305:287,1,45,0|0,0:0|3:0,0:0:0:0:
379,238,275434,2,0,L|400:291,1,45,0|0,0:0|3:0,0:0:0:0:
434,191,275550,2,0,L|489:230,1,45,0|0,0:0|3:0,0:0:0:0:
435,119,275665,2,0,L|503:115,1,45,0|0,0:0|3:0,0:0:0:0:
391,61,275780,2,0,L|439:17,1,45,0|0,0:0|3:0,0:0:0:0:
319,50,275896,2,0,L|317:0,1,45,0|0,0:0|3:0,0:0:0:0:
253,80,276011,2,0,L|212:33,1,45,0|0,0:0|3:0,0:0:0:0:
329,149,276127,6,0,L|294:182,3,45
223,150,276357,2,0,L|184:101,3,45
130,73,276588,1,0,0:0:0:0:
108,80,276646,1,0,3:1:0:0:
89,92,276704,1,0,3:1:0:0:
74,108,276761,1,0,3:1:0:0:
61,126,276819,1,0,3:1:0:0:
53,147,276877,1,0,3:1:0:0:
48,168,276934,1,0,3:1:0:0:
49,190,276992,1,0,3:1:0:0:
54,225,277050,5,0,3:1:0:0:
77,251,277107,1,0,3:1:0:0:
108,269,277165,1,0,3:1:0:0:
143,273,277223,1,0,3:1:0:0:
177,264,277280,1,0,3:1:0:0:
205,242,277338,1,0,3:1:0:0:
224,211,277396,1,0,3:1:0:0:
240,178,277454,1,0,3:1:0:0:
261,149,277511,1,0,3:1:0:0:
291,130,277569,1,0,3:1:0:0:
326,121,277627,1,0,3:1:0:0:
361,124,277684,1,0,3:1:0:0:
395,135,277742,1,0,3:1:0:0:
424,156,277800,1,0,3:1:0:0:
445,184,277857,1,0,3:1:0:0:
458,217,277915,1,0,3:1:0:0:
458,253,277973,6,0,P|424:308|317:336,1,180,4|8,0:0|0:0,0:0:0:0:
121,231,278319,2,0,P|155:176|261:147,1,180
331,230,278665,1,8,0:0:0:0:
413,161,278780,1,0,0:0:0:0:
343,78,278896,1,0,0:0:0:0:
261,149,279011,2,0,P|176:172|88:149,1,180
167,74,279357,2,0,P|215:66|255:71,1,90
257,227,279588,2,0,P|209:235|169:230,1,90,8|0,0:0|0:0,0:0:0:0:
8,115,279819,6,0,B|77:87|133:118|133:118|135:168,1,180,0|8,0:0|0:0,0:0:0:0:
152,341,280165,2,0,B|83:369|27:338|27:338|25:288,1,180
249,291,280511,1,8,0:0:0:0:
347,337,280627,1,0,0:0:0:0:
448,300,280742,1,0,0:0:0:0:
467,194,280857,2,0,P|468:103|407:44,1,180
309,126,281204,2,0,P|261:135|221:126,1,90
56,56,281434,2,0,P|104:47|143:55,1,90,8|0,0:0|0:0,0:0:0:0:
167,228,281665,6,0,P|256:244|342:227,1,180,4|8,0:0|0:0,0:0:0:0:
431,32,282011,2,0,P|342:16|256:33,1,180
193,122,282357,1,8,0:0:0:0:
251,213,282473,1,0,0:0:0:0:
162,273,282588,1,0,0:0:0:0:
229,358,282704,2,0,P|320:340|404:356,1,180
508,241,283050,2,0,P|463:249|419:240,1,90
347,161,283280,1,8,0:0:0:0:
251,213,283396,1,0,0:0:0:0:
162,273,283511,6,0,B|123:293|123:293|43:273|49:194,1,180,0|8,0:0|0:0,0:0:0:0:
170,30,283857,2,0,P|204:111|173:193,1,180
72,235,284204,1,8,0:0:0:0:
28,136,284319,1,0,0:0:0:0:
127,96,284434,1,0,0:0:0:0:
173,193,284550,1,0,0:0:0:0:
274,233,284665,1,8,0:0:0:0:
382,247,284780,1,0,0:0:0:0:
489,229,284896,2,0,L|477:139,1,90
327,61,285127,2,0,L|338:150,1,90,8|0,0:0|0:0,0:0:0:0:
448,303,285357,6,0,P|386:339|282:322,1,180,4|8,0:0|0:0,0:0:0:0:
128,96,285704,2,0,P|190:60|294:77,1,180
357,164,286050,1,8,0:0:0:0:
274,233,286165,1,0,0:0:0:0:
198,156,286280,1,0,0:0:0:0:
100,204,286396,2,0,B|44:251|54:318|54:318|106:356,1,180
193,301,286742,1,0,0:0:0:0:
274,371,286857,1,0,0:0:0:0:
335,281,286973,1,8,0:0:0:0:
413,355,287088,1,0,0:0:0:0:
467,261,287204,6,0,P|490:168|472:87,1,180,0|8,0:0|0:0,0:0:0:0:
192,40,287550,2,0,P|169:133|186:213,1,180
269,283,287896,1,8,0:0:0:0:
337,200,288011,1,0,0:0:0:0:
254,129,288127,1,0,0:0:0:0:
324,46,288242,2,0,B|381:30|381:30|442:50|438:124,1,180
361,282,288588,2,0,P|339:247|337:200,1,90
488,33,288819,2,0,P|510:68|512:115,1,90,8|0,0:0|0:0,0:0:0:0:
460,265,289050,6,0,P|391:306|292:308,1,180,4|8,0:0|0:0,0:0:0:0:
59,216,289396,2,0,P|154:211|230:244,1,180
123,323,289742,2,0,P|74:330|35:321,1,90,8|0,0:0|0:0,0:0:0:0:
59,216,289973,1,0,0:0:0:0:
40,110,290088,2,0,B|49:61|94:42|94:42|146:33|177:64,1,180
208,168,290434,1,0,0:0:0:0:
217,276,290550,1,0,0:0:0:0:
314,321,290665,1,8,0:0:0:0:
415,284,290780,1,0,0:0:0:0:
448,180,290896,6,0,P|441:87|500:15,1,180,0|8,0:0|0:0,0:0:0:0:
357,161,291242,2,0,P|364:254|305:326,1,180
207,339,291588,1,8,0:0:0:0:
51,291,291704,1,0,0:0:0:0:
207,251,291819,1,0,0:0:0:0:
52,204,291934,1,0,0:0:0:0:
210,166,292050,1,8,0:0:0:0:
55,118,292165,1,0,0:0:0:0:
211,77,292280,6,0,B|216:72|216:72|220:80|220:80|224:72|224:72|228:80|228:80|232:72|232:72|236:80|236:80|240:72|240:72|244:80|244:80|248:72|248:72|252:80|252:80|272:76|272:76|300:60|348:72,1,180
457,100,292627,1,0,0:0:0:0:
463,216,292742,2,0,B|455:268|407:301|407:301|390:265|354:248,1,180
355,248,293204,5,0,0:0:0:0:
309,141,293319,1,0,0:0:0:0:
211,77,293434,1,0,0:0:0:0:
94,91,293550,1,0,0:0:0:0:
22,182,293665,2,0,L|1:274,1,90
160,345,293896,2,0,L|181:253,1,90
309,141,294127,2,0,L|330:49,1,90
483,18,294357,2,0,L|462:110,1,90
438,211,294588,5,0,0:0:0:0:
434,224,294646,1,0,0:0:0:0:
431,237,294704,1,0,3:1:0:0:
428,250,294761,1,0,3:1:0:0:
425,263,294819,1,0,3:1:0:0:
422,276,294877,1,0,3:1:0:0:
419,289,294934,1,0,3:1:0:0:
416,302,294992,1,0,3:1:0:0:
411,314,295050,5,0,3:1:0:0:
379,330,295107,1,0,3:1:0:0:
344,341,295165,1,0,3:1:0:0:
308,345,295223,1,0,3:1:0:0:
272,346,295280,1,0,3:1:0:0:
235,342,295338,1,0,3:1:0:0:
199,335,295396,1,0,3:1:0:0:
166,318,295454,1,0,3:1:0:0:
130,320,295511,6,0,P|40:305|4:231,1,180,4|8,0:0|0:0,0:0:0:0:
16,68,295857,1,0,0:0:0:0:
152,156,295973,2,0,P|241:179|324:157,1,180,0|8,0:0|0:0,0:0:0:0:
442,45,296319,1,0,0:0:0:0:
280,45,296434,2,0,L|164:44,1,90
62,155,296665,2,0,L|151:155,1,90,8|0,0:0|0:0,0:0:0:0:
320,139,296896,2,0,L|204:138,1,90
102,249,297127,2,0,L|191:249,1,90,8|0,0:0|0:0,0:0:0:0:
324,347,297357,6,0,P|417:354|490:312,1,180,0|8,0:0|0:0,0:0:0:0:
442,45,297704,2,0,P|349:38|275:79,1,180,0|0,0:0|0:0,0:0:0:0:
210,177,298050,1,8,0:0:0:0:
320,139,298165,1,0,0:0:0:0:
185,173,298280,6,0,L|99:200,1,90
179,350,298511,2,0,L|264:322,1,90,8|0,0:0|0:0,0:0:0:0:
371,191,298742,2,0,L|285:218,1,90
365,368,298973,2,0,L|450:340,1,90,8|0,0:0|0:0,0:0:0:0:
469,99,299204,6,0,P|387:113|292:97,1,180,4|8,0:0|0:0,0:0:0:0:
165,27,299550,1,0,0:0:0:0:
35,208,299665,2,0,P|124:193|211:208,1,180,0|8,0:0|0:0,0:0:0:0:
333,286,300011,1,0,0:0:0:0:
421,171,300127,2,0,L|531:155,1,90
271,154,300357,2,0,L|161:170,1,90,8|0,0:0|0:0,0:0:0:0:
356,89,300588,2,0,L|340:-21,1,90
339,239,300819,2,0,L|355:349,1,90,8|0,0:0|0:0,0:0:0:0:
351,328,300992,1,0,0:0:0:0:
351,328,301050,6,0,P|274:353|180:331,1,180,0|8,0:0|0:0,0:0:0:0:
67,241,301396,1,0,0:0:0:0:
28,61,301511,2,0,P|105:36|199:57,1,180,0|8,0:0|0:0,0:0:0:0:
276,180,301857,1,0,0:0:0:0:
418,154,301973,2,0,L|436:43,1,90
339,239,302204,2,0,L|321:350,1,90,8|0,0:0|0:0,0:0:0:0:
356,95,302434,2,0,L|374:-16,1,90
277,180,302665,2,0,L|259:291,1,90,8|0,0:0|0:0,0:0:0:0:
155,289,302896,5,4,0:0:0:0:
276,180,303011,1,0,0:0:0:0:
429,231,303127,2,0,L|470:337,2,90,8|0|0,0:0|0:0|0:0,0:0:0:0:
197,102,303588,2,0,L|156:-4,2,90,8|0|0,0:0|0:0|0:0,0:0:0:0:
155,289,304050,2,0,L|196:395,2,90,8|0|0,0:0|0:0|0:0,0:0:0:0:
85,205,304396,1,0,0:0:0:0:
143,114,304511,1,8,0:0:0:0:
247,142,304627,1,0,0:0:0:0:
255,249,304742,2,0,P|349:270|429:252,2,180,0|8|0,0:0|0:0|0:0,0:0:0:0:
240,33,305434,5,8,0:0:0:0:
336,82,305550,1,0,0:0:0:0:
247,142,305665,2,0,L|137:162,1,90
345,189,305896,2,0,L|455:169,1,90,8|0,0:0|0:0,0:0:0:0:
255,249,306127,1,0,0:0:0:0:
241,251,306184,1,0,0:0:0:0:
227,253,306242,1,0,3:1:0:0:
213,255,306300,1,0,3:1:0:0:
199,257,306357,1,0,3:1:0:0:
185,260,306415,1,0,3:1:0:0:
171,263,306473,1,0,3:1:0:0:
158,266,306530,1,0,3:1:0:0:
144,269,306588,6,0,P|81:213|71:121,1,180,0|8,0:0|0:0,0:0:0:0:
179,25,306934,1,0,0:0:0:0:
323,15,307050,2,0,P|386:71|395:162,1,180,0|8,0:0|0:0,0:0:0:0:
333,292,307396,1,0,0:0:0:0:
193,258,307511,6,0,L|164:172,1,90,0|0,0:0|3:1,0:0:0:0:
323,15,307742,2,0,L|351:100,1,90,0|0,0:0|3:1,0:0:0:0:
333,292,307973,2,0,L|304:206,1,90,0|0,0:0|3:1,0:0:0:0:
463,49,308204,2,0,L|491:134,1,90,0|0,0:0|3:1,0:0:0:0:
481,325,308434,5,0,3:1:0:0:
414,228,308550,1,0,3:1:0:0:
507,158,308665,1,0,3:1:0:0:
463,49,308780,1,0,3:1:0:0:
382,82,308896,5,0,3:1:0:0:
379,95,308954,1,0,3:1:0:0:
376,108,309011,1,0,3:1:0:0:
373,121,309069,1,0,3:1:0:0:
370,134,309127,1,0,3:1:0:0:
367,147,309184,1,0,3:1:0:0:
364,160,309242,1,0,3:1:0:0:
361,173,309300,1,0,3:1:0:0:
358,186,309357,5,0,3:1:0:0:
339,216,309415,1,0,3:1:0:0:
304,228,309473,1,0,3:1:0:0:
268,227,309530,1,0,3:1:0:0:
236,209,309588,1,0,3:1:0:0:
218,177,309646,1,0,3:1:0:0:
210,141,309704,1,0,3:1:0:0:
200,106,309761,1,0,3:1:0:0:
180,75,309819,1,0,3:1:0:0:
150,53,309877,1,0,3:1:0:0:
114,49,309934,1,0,3:1:0:0:
78,56,309992,1,0,3:1:0:0:
46,73,310050,1,0,3:1:0:0:
25,102,310107,1,0,3:1:0:0:
18,137,310165,1,0,3:1:0:0:
18,173,310223,1,0,3:1:0:0:
31,205,310280,6,0,P|23:302|71:363,1,180,4|8,0:0|0:0,0:0:0:0:
256,305,310627,1,0,0:0:0:0:
439,360,310742,2,0,P|487:298|479:201,1,180,0|8,0:0|0:0,0:0:0:0:
400,58,311088,1,0,0:0:0:0:
261,143,311204,6,0,L|161:130,1,90
25,272,311434,2,0,L|125:285,1,90,8|0,0:0|0:0,0:0:0:0:
314,232,311665,2,0,L|214:219,1,90
78,361,311896,2,0,L|178:374,1,90,8|0,0:0|0:0,0:0:0:0:
282,343,312127,5,0,0:0:0:0:
397,360,312242,1,0,0:0:0:0:
480,278,312357,2,0,L|498:172,1,90
486,71,312588,1,0,0:0:0:0:
377,25,312704,1,0,0:0:0:0:
266,60,312819,2,0,L|248:166,1,90
347,300,313050,6,0,L|365:194,1,90,0|0,0:0|0:0,0:0:0:0:
377,25,313280,2,0,L|359:131,1,90
284,202,313511,1,0,0:0:0:0:
172,238,313627,1,0,0:0:0:0:
103,143,313742,1,0,0:0:0:0:
173,50,313857,1,0,0:0:0:0:
284,86,313973,6,0,L|398:75,1,90,4|0,0:0|0:0,0:0:0:0:
262,229,314204,2,0,L|148:240,1,90,8|0,0:0|0:0,0:0:0:0:
369,156,314434,2,0,L|483:145,1,90
347,299,314665,2,0,L|233:310,1,90,8|0,0:0|0:0,0:0:0:0:
96,292,314896,1,0,0:0:0:0:
66,179,315011,1,0,0:0:0:0:
180,152,315127,1,8,0:0:0:0:
210,266,315242,1,0,0:0:0:0:
96,293,315357,2,0,L|-8:267,1,90
180,152,315588,2,0,L|284:178,1,90,8|0,0:0|0:0,0:0:0:0:
370,231,315819,5,0,0:0:0:0:
469,169,315934,1,0,0:0:0:0:
454,52,316050,2,0,L|348:12,1,90
256,47,316280,1,0,0:0:0:0:
141,20,316396,1,0,0:0:0:0:
42,82,316511,2,0,L|23:193,1,90
81,381,316742,2,0,L|100:270,1,90
150,80,316973,2,0,L|131:191,1,90
189,379,317204,2,0,L|208:268,1,90
230,176,317434,1,0,0:0:0:0:
224,140,317492,1,0,3:1:0:0:
251,116,317550,1,0,3:1:0:0:
243,81,317607,1,0,3:1:0:0:
256,47,317665,6,0,P|346:27|430:46,1,180,4|8,0:0|0:0,0:0:0:0:
503,192,318011,1,0,0:0:0:0:
426,336,318127,2,0,P|336:356|251:336,1,180,0|8,0:0|0:0,0:0:0:0:
109,257,318473,1,0,0:0:0:0:
23,120,318588,2,0,P|109:92|191:117,1,180,0|8,0:0|0:0,0:0:0:0:
288,249,318934,1,0,0:0:0:0:
426,336,319050,2,0,P|484:295|503:192,1,180,0|8,0:0|0:0,0:0:0:0:
456,36,319396,1,0,0:0:0:0:
294,37,319511,6,0,L|195:49,1,90
1,136,319742,2,0,L|100:124,1,90
312,113,319973,2,0,L|213:125,1,90
19,212,320204,2,0,L|118:200,1,90
217,241,320434,1,0,0:0:0:0:
301,323,320550,1,0,0:0:0:0:
417,316,320665,1,0,0:0:0:0:
487,223,320780,1,0,0:0:0:0:
469,106,320896,2,0,P|452:64|419:34,1,90
371,211,321127,2,0,P|388:253|420:282,1,90
389,86,321357,6,0,P|302:66|215:88,1,180,4|8,0:0|0:0,0:0:0:0:
116,219,321704,1,0,0:0:0:0:
223,339,321819,2,0,P|310:359|396:336,1,180,0|8,0:0|0:0,0:0:0:0:
482,198,322165,1,0,0:0:0:0:
459,59,322280,5,0,0:0:0:0:
437,75,322338,1,0,0:0:0:0:
414,89,322396,1,0,3:1:0:0:
388,99,322454,1,0,3:1:0:0:
361,103,322511,1,0,3:1:0:0:
333,102,322569,1,0,3:1:0:0:
306,96,322627,1,0,3:1:0:0:
282,83,322684,1,0,3:1:0:0:
261,64,322742,1,0,3:1:0:0:
241,45,322800,1,0,3:1:0:0:
216,33,322857,1,0,3:1:0:0:
189,28,322915,1,0,3:1:0:0:
161,28,322973,1,0,3:1:0:0:
135,35,323030,1,0,3:1:0:0:
112,50,323088,1,0,3:1:0:0:
92,68,323146,1,0,3:1:0:0:
77,90,323204,6,0,L|60:178,1,90
215,262,323434,2,0,L|231:173,1,90
332,69,323665,1,0,0:0:0:0:
339,73,323723,1,0,3:1:0:0:
346,77,323780,1,0,3:1:0:0:
353,82,323838,1,0,3:1:0:0:
360,87,323896,1,0,3:1:0:0:
367,92,323954,1,0,3:1:0:0:
374,96,324011,1,0,3:1:0:0:
381,101,324069,1,0,3:1:0:0:
388,106,324127,6,0,L|504:95,1,90
338,210,324357,2,0,L|222:221,1,90,0|0,0:0|0:0,0:0:0:0:
154,328,324588,1,0,0:0:0:0:
118,319,324646,1,0,0:0:0:0:
87,299,324704,1,0,3:1:0:0:
67,269,324761,1,0,3:1:0:0:
55,234,324819,1,0,3:1:0:0:
53,197,324877,1,0,3:1:0:0:
61,162,324934,1,0,3:1:0:0:
77,130,324992,1,0,3:1:0:0:
105,107,325050,6,0,P|199:122|281:107,1,180,4|8,0:0|0:0,0:0:0:0:
430,41,325396,1,0,0:0:0:0:
503,185,325511,2,0,P|508:269|434:350,1,180,0|8,0:0|0:0,0:0:0:0:
288,346,325857,1,0,0:0:0:0:
151,257,325973,2,0,L|36:251,1,90
264,234,326204,2,0,L|379:240,1,90,8|0,0:0|0:0,0:0:0:0:
120,172,326434,2,0,L|5:166,1,90
233,149,326665,2,0,L|348:155,1,90,8|0,0:0|0:0,0:0:0:0:
379,10,326896,6,0,L|373:125,1,90
511,168,327127,2,0,L|396:162,1,90
365,307,327357,2,0,L|371:192,1,90
309,39,327588,2,0,L|303:154,1,90
278,243,327819,1,0,0:0:0:0:
201,331,327934,1,0,0:0:0:0:
93,282,328050,1,0,0:0:0:0:
102,165,328165,1,0,0:0:0:0:
216,143,328280,1,0,0:0:0:0:
278,243,328396,1,0,0:0:0:0:
391,217,328511,1,0,0:0:0:0:
399,99,328627,1,0,0:0:0:0:
291,53,328742,6,0,P|203:70|116:47,2,180,4|8|0,0:0|0:0|0:0,0:0:0:0:
278,243,329434,1,8,0:0:0:0:
278,243,329550,1,0,0:0:0:0:
278,243,329665,2,0,P|366:226|452:248,2,180,0|8|0,0:0|0:0|0:0,0:0:0:0:
79,311,330357,1,8,0:0:0:0:
20,208,330473,1,0,0:0:0:0:
89,114,330588,2,0,L|93:13,1,90
183,187,330819,2,0,L|179:288,1,90
253,95,331050,6,0,P|330:57|416:81,1,180
506,217,331396,1,0,0:0:0:0:
355,275,331511,2,0,P|261:281|185:243,1,180
89,114,331857,1,0,0:0:0:0:
160,20,331973,1,0,0:0:0:0:
165,32,332030,1,0,0:0:0:0:
170,44,332088,1,0,3:1:0:0:
175,56,332146,1,0,3:1:0:0:
180,68,332204,1,0,3:1:0:0:
185,80,332261,1,0,3:1:0:0:
190,92,332319,1,0,3:1:0:0:
195,104,332377,1,0,3:1:0:0:
200,116,332434,6,0,P|292:132|372:104,1,180,4|8,0:0|0:0,0:0:0:0:
479,16,332780,1,0,0:0:0:0:
332,36,332896,2,0,P|278:82|255:185,1,180,0|8,0:0|0:0,0:0:0:0:
297,342,333242,1,0,0:0:0:0:
457,327,333357,2,0,L|526:254,1,90
467,88,333588,2,0,L|398:161,1,90,8|0,0:0|0:0,0:0:0:0:
339,321,333819,2,0,L|408:248,1,90
349,82,334050,2,0,L|280:155,1,90,8|0,0:0|0:0,0:0:0:0:
212,236,334280,5,0,0:0:0:0:
54,194,334396,1,0,0:0:0:0:
212,162,334511,1,0,0:0:0:0:
54,119,334627,1,0,0:0:0:0:
212,86,334742,1,0,0:0:0:0:
56,44,334857,1,0,0:0:0:0:
215,11,334973,2,0,L|314:11,1,90
458,64,335204,6,0,B|503:112|475:178|475:178|420:193,1,180
257,200,335550,1,0,0:0:0:0:
98,166,335665,2,0,B|43:181|43:181|15:247|60:295,1,180
213,350,336011,1,0,0:0:0:0:
372,315,336127,1,4,0:0:0:0:
367,32,336357,2,0,L|398:134,2,90,8|0|0,0:0|0:0|0:0,0:0:0:0:
125,80,336819,2,0,L|94:182,1,90,8|0,0:0|0:0,0:0:0:0:
114,281,337050,5,0,0:0:0:0:
138,290,337107,1,0,0:0:0:0:
165,289,337165,1,0,3:1:0:0:
190,279,337223,1,0,3:1:0:0:
210,261,337280,1,0,3:1:0:0:
222,236,337338,1,0,3:1:0:0:
230,210,337396,1,0,3:1:0:0:
241,185,337454,1,0,3:1:0:0:
258,164,337511,1,0,3:1:0:0:
277,145,337569,1,0,3:1:0:0:
300,132,337627,1,0,3:1:0:0:
325,124,337684,1,0,3:1:0:0:
352,124,337742,1,0,3:1:0:0:
378,129,337800,1,0,3:1:0:0:
402,139,337857,1,0,3:1:0:0:
423,155,337915,1,0,3:1:0:0:
438,177,337973,6,0,L|450:275,1,90,4|0,0:0|0:0,0:0:0:0:
74,200,338204,2,0,L|62:102,1,90
266,363,338434,2,0,L|168:375,1,90,0|0,0:0|0:0,0:0:0:0:
246,14,338665,2,0,L|344:2,1,90
438,177,338896,2,0,L|340:163,1,90
116,166,339127,2,0,L|213:179,1,90
321,225,339357,1,0,0:0:0:0:
329,229,339415,1,0,0:0:0:0:
337,233,339473,1,0,3:1:0:0:
344,237,339530,1,0,3:1:0:0:
352,241,339588,1,0,3:1:0:0:
360,245,339646,1,0,3:1:0:0:
368,249,339704,1,0,3:1:0:0:
375,253,339761,1,0,3:1:0:0:
382,257,339819,6,0,P|467:222|484:131,1,180,4|8,0:0|0:0,0:0:0:0:
389,12,340165,1,0,0:0:0:0:
280,131,340280,2,0,P|208:175|115:165,1,180,0|8,0:0|0:0,0:0:0:0:
32,24,340627,1,0,0:0:0:0:
185,75,340742,6,0,L|199:181,1,90
289,320,340973,2,0,L|275:214,1,90,8|0,0:0|0:0,0:0:0:0:
110,137,341204,2,0,L|124:243,1,90
214,382,341434,2,0,L|200:276,1,90,8|0,0:0|0:0,0:0:0:0:
202,176,341665,6,0,P|225:136|261:113,1,90
439,152,341896,2,0,P|416:192|379:214,1,90,0|0,0:0|0:0,0:0:0:0:
262,114,342127,2,0,P|261:67|281:29,1,90
459,68,342357,2,0,P|460:114|439:152,1,90,0|0,0:0|0:0,0:0:0:0:
339,191,342588,5,0,0:0:0:0:
262,114,342704,1,0,0:0:0:0:
168,166,342819,1,0,0:0:0:0:
186,272,342934,1,0,0:0:0:0:
293,287,343050,1,0,0:0:0:0:
339,191,343165,1,0,0:0:0:0:
335,83,343280,1,0,0:0:0:0:
250,14,343396,1,0,0:0:0:0:
124,24,343511,6,0,B|58:31|58:31|16:69|34:136,1,180,4|8,0:0|0:0,0:0:0:0:
82,292,343857,1,0,0:0:0:0:
235,347,343973,2,0,B|288:367|288:367|359:359|370:290,1,180,0|8,0:0|0:0,0:0:0:0:
322,134,344319,1,0,0:0:0:0:
441,25,344434,2,0,P|482:97|470:191,1,180,0|8,0:0|0:0,0:0:0:0:
345,295,344780,1,0,0:0:0:0:
185,328,344896,2,0,P|104:322|42:244,1,180,0|8,0:0|0:0,0:0:0:0:
50,87,345242,1,0,0:0:0:0:
192,16,345357,6,0,L|295:22,1,90
412,139,345588,2,0,L|309:133,1,90,0|0,0:0|0:0,0:0:0:0:
147,143,345819,2,0,L|250:149,1,90
367,266,346050,2,0,L|264:260,1,90,0|0,0:0|0:0,0:0:0:0:
107,283,346280,6,0,P|157:316|230:321,1,135,0|0,0:0|2:0,0:0:0:0:
277,260,346511,2,0,P|330:222|396:226,1,135,0|0,0:0|2:0,0:0:0:0:
467,257,346742,2,0,P|507:201|504:137,1,135,0|0,0:0|2:0,0:0:0:0:
463,72,346973,2,0,P|411:34|341:32,1,135,0|0,0:0|2:0,0:0:0:0:
342,32,347204,5,4,0:0:0:0:
109,77,347434,2,0,L|1:65,2,90,8|0|0,0:0|0:0|0:0,0:0:0:0:
340,156,347896,2,0,L|448:168,1,90,8|0,0:0|0:0,0:0:0:0:
496,262,348127,1,0,0:0:0:0:
427,356,348242,1,0,0:0:0:0:
311,342,348357,2,0,L|203:330,1,90,8|0,0:0|0:0,0:0:0:0:
123,267,348588,2,0,L|9:283,2,90,0|0|8,0:0|0:0|0:0,0:0:0:0:
228,214,348934,1,0,0:0:0:0:
228,214,348992,1,0,0:0:0:0:
228,214,349050,6,0,P|272:222|316:216,1,90
371,349,349280,2,0,P|379:305|373:260,1,90,0|0,0:0|0:0,0:0:0:0:
506,205,349511,2,0,P|462:197|417:202,1,90
363,67,349742,2,0,P|355:111|360:155,1,90,0|0,0:0|0:0,0:0:0:0:
444,278,349973,2,0,P|401:285|355:276,1,90
228,214,350204,2,0,P|271:207|316:215,1,90
254,344,350434,2,0,P|211:351|165:342,1,90
41,280,350665,2,0,P|84:273|129:281,1,90
254,344,350896,5,4,0:0:0:0:
369,358,351011,1,0,0:0:0:0:
385,241,351127,1,8,0:0:0:0:
269,228,351242,1,0,0:0:0:0:
159,267,351357,1,0,0:0:0:0:
80,179,351473,1,0,0:0:0:0:
142,80,351588,1,8,0:0:0:0:
255,111,351704,1,0,0:0:0:0:
369,88,351819,6,0,L|458:78,1,90
474,231,352050,2,0,L|384:240,1,90,8|0,0:0|0:0,0:0:0:0:
244,180,352280,2,0,L|333:170,1,90
349,323,352511,2,0,L|259:332,1,90,8|0,0:0|0:0,0:0:0:0:
159,268,352742,6,0,P|112:274|70:265,1,90
54,78,352973,2,0,P|101:72|142:80,1,90,8|0,0:0|0:0,0:0:0:0:
332,182,353204,2,0,P|285:188|243:179,1,90
395,126,353434,2,0,P|423:163|437:203,1,90,8|0,0:0|0:0,0:0:0:0:
313,97,353665,6,0,P|331:53|359:21,1,90
332,182,353896,2,0,P|313:225|285:257,1,90,8|0,0:0|0:0,0:0:0:0:
267,373,354127,2,0,P|238:335|224:295,1,90
133,222,354357,2,0,P|180:215|221:224,1,90,8|0,0:0|0:0,0:0:0:0:
332,182,354588,6,0,P|379:191|420:184,1,90
420,30,354819,2,0,P|373:21|331:27,1,90,8|0,0:0|0:0,0:0:0:0:
380,263,355050,2,0,P|427:272|468:265,1,90
468,111,355280,2,0,P|421:102|379:108,1,90,8|0,0:0|0:0,0:0:0:0:
292,261,355511,5,0,0:0:0:0:
184,308,355627,1,0,0:0:0:0:
78,258,355742,1,8,0:0:0:0:
59,142,355857,1,0,0:0:0:0:
136,53,355973,1,0,0:0:0:0:
166,45,356030,1,0,3:1:0:0:
197,47,356088,1,0,3:1:0:0:
226,58,356146,1,0,3:1:0:0:
248,80,356204,1,0,3:1:0:0:
267,104,356261,1,0,3:1:0:0:
294,119,356319,1,0,3:1:0:0:
325,123,356377,1,0,3:1:0:0:
355,115,356434,6,0,B|408:99|408:99|475:114|475:191,1,180,4|0,0:0|0:0,0:0:0:0:
447,295,356780,1,0,0:0:0:0:
345,334,356896,2,0,L|234:345,1,90
95,317,357127,2,0,L|206:306,1,90
370,254,357357,2,0,P|410:211|391:99,1,180
299,39,357704,1,0,0:0:0:0:
192,50,357819,2,0,L|80:75,1,90
14,205,358050,2,0,L|126:180,1,90
332,135,358280,6,0,P|249:112|160:135,1,180
117,236,358627,1,0,0:0:0:0:
39,310,358742,2,0,P|117:335|202:295,1,180
241,194,359088,1,0,0:0:0:0:
237,85,359204,2,0,L|331:20,1,90
420,116,359434,2,0,L|332:135,1,90
337,242,359665,2,0,L|441:259,1,90
322,350,359896,2,0,L|247:302,1,90
102,319,360127,6,0,B|56:328|56:328|-1:277|26:208,2,180,4|0|0,0:0|0:0|0:0,0:0:0:0:
203,281,360704,1,0,0:0:0:0:
227,176,360819,1,0,0:0:0:0:
331,149,360934,1,0,0:0:0:0:
425,202,361050,2,0,B|482:157|471:93|471:93|431:55,2,180
353,283,361627,1,0,0:0:0:0:
246,264,361742,1,0,0:0:0:0:
206,163,361857,1,0,0:0:0:0:
234,58,361973,6,0,P|172:34|53:66,1,180
18,156,362319,1,0,0:0:0:0:
67,251,362434,2,0,B|61:287|61:287|69:305|69:305|62:346,1,90
142,273,362665,2,0,B|148:237|148:237|140:219|140:219|147:178,1,90
140,348,362896,6,0,P|239:327|289:270,1,180
512,312,363242,2,0,P|444:236|370:221,1,180,0|0,0:0|0:0,0:0:0:0:
294,8,363588,2,0,P|274:48|276:93,1,90,0|0,0:0|0:0,0:0:0:0:
315,222,363819,6,0,P|234:240|139:223,1,180,4|0,0:0|0:0,0:0:0:0:
43,172,364165,1,0,0:0:0:0:
99,80,364280,1,0,0:0:0:0:
195,130,364396,1,0,0:0:0:0:
139,223,364511,2,0,P|140:269|154:310,1,90
330,309,364742,6,0,P|329:263|315:221,2,90,0|0|0,0:0|0:0|0:0,0:0:0:0:
230,216,365088,1,0,0:0:0:0:
230,216,365146,1,0,0:0:0:0:
230,216,365204,2,0,P|266:155|366:153,1,180
435,237,365550,1,0,0:0:0:0:
485,141,365665,6,0,L|496:30,1,90
367,154,365896,2,0,L|356:265,1,90
272,310,366127,1,0,0:0:0:0:
165,327,366242,1,0,0:0:0:0:
75,267,366357,1,0,0:0:0:0:
57,159,366473,1,0,0:0:0:0:
94,58,366588,6,0,L|183:41,1,90
200,148,366819,2,0,L|289:165,1,90
312,270,367050,2,0,L|401:253,1,90,0|0,0:0|0:0,0:0:0:0:
490,193,367280,1,0,0:0:0:0:
478,85,367396,1,0,0:0:0:0:
380,40,367511,6,0,B|376:36|376:36|372:44|372:44|368:36|368:36|364:44|364:44|360:36|360:36|356:44|356:44|352:36|352:36|348:44|348:44|344:36|344:36|340:44|340:44|336:36|336:36|332:44|332:44|328:36|328:36|324:44|324:44|320:36|320:36|316:44|316:44|312:36|312:36|308:44|308:44|304:36|304:36|300:44|300:44|288:28|288:28|252:52|252:52|200:24|134:51,1,360,0|0,0:0|3:0,2:0:0:0:
47,115,368088,1,0,3:0:0:0:
134,179,368204,1,0,0:0:0:0:
72,267,368319,1,0,0:0:0:0:
147,343,368434,6,0,P|237:360|323:345,1,180
457,256,368780,2,0,P|367:239|280:253,1,180
134,179,369127,2,0,P|179:185|222:179,1,90
311,55,369357,5,0,0:0:0:0:
295,264,369588,2,0,L|283:353,2,90
209,113,370050,2,0,L|220:23,2,90
205,221,370396,1,0,0:0:0:0:
203,234,370454,1,0,0:0:0:0:
202,247,370511,1,0,3:1:0:0:
200,260,370569,1,0,3:1:0:0:
199,273,370627,1,0,3:1:0:0:
198,286,370684,1,0,3:1:0:0:
205,321,370742,5,0,3:1:0:0:
229,347,370800,1,0,3:1:0:0:
261,362,370857,1,0,3:1:0:0:
297,364,370915,1,0,3:1:0:0:
332,360,370973,1,0,3:1:0:0:
366,350,371030,1,0,3:1:0:0:
396,330,371088,1,0,3:1:0:0:
415,299,371146,1,0,3:1:0:0:
422,263,371204,6,0,P|404:178|424:88,1,180
90,121,371665,2,0,P|108:206|87:295,1,180
327,26,372127,2,0,P|242:44|152:23,1,180
185,358,372588,2,0,P|270:340|359:360,1,180
464,306,372934,1,0,0:0:0:0:
495,193,373050,6,0,P|407:174|319:190,1,180,4|0,0:0|0:0,0:0:0:0:
20,242,373511,2,0,P|108:261|196:245,1,180
276,159,373857,1,0,0:0:0:0:
256,44,373973,1,0,0:0:0:0:
256,353,374204,1,0,0:0:0:0:
168,290,374319,1,0,0:0:0:0:
211,191,374434,2,0,P|293:171|384:191,1,180
168,290,374896,6,0,B|99:317|53:269|53:269|42:215,2,180,4|0|0,0:0|0:0|0:0,0:0:0:0:
211,191,375473,1,0,0:0:0:0:
222,83,375588,1,0,0:0:0:0:
322,41,375704,1,0,0:0:0:0:
420,88,375819,6,0,P|451:162|426:255,1,180
90,253,376280,2,0,P|59:179|83:85,1,180
366,144,376742,6,0,P|347:186|311:210,1,90,4|0,0:0|0:0,0:0:0:0:
353,329,376973,2,0,P|311:310|286:274,1,90
167,318,377204,2,0,P|186:276|221:251,1,90
180,133,377434,2,0,P|222:152|246:187,1,90
167,318,377665,6,0,B|108:355|48:321|48:321|35:268,1,180
30,150,378011,1,0,0:0:0:0:
121,75,378127,2,0,B|180:38|240:72|240:72|252:124,1,180
265,241,378473,1,0,0:0:0:0:
312,360,378588,6,0,B|520:312|500:-20|312:-40|156:-40|60:80|84:212|84:212|256:192,1,990
256,192,380204,5,0,0:0:0:0:
256,192,380434,2,0,L|247:286,2,90,0|0|0,0:0|3:1|3:1,0:0:0:0:
389,121,380896,2,0,L|398:27,2,90,0|0|0,0:0|3:1|3:1,0:0:0:0:
445,257,381357,2,0,L|436:351,1,90,0|0,0:0|3:1,0:0:0:0:
348,211,381588,2,0,L|352:316,1,90,0|0,0:0|3:1,0:0:0:0:
249,211,381819,2,0,L|245:316,1,90,0|0,0:0|3:1,0:0:0:0:
152,257,382050,2,0,L|161:351,1,90,0|0,0:0|3:1,0:0:0:0:
46,240,382280,6,0,P|36:192|42:152,1,90,0|0,0:0|3:0,0:0:0:0:
173,93,382511,2,0,P|183:141|176:180,1,90,0|0,0:0|3:0,0:0:0:0:
146,334,382742,2,0,P|190:341|233:329,1,90,0|0,0:0|3:0,0:0:0:0:
335,223,382973,2,0,P|296:209|249:211,1,90,0|0,0:0|3:0,0:0:0:0:
402,284,383204,6,0,L|459:270,3,45,0|0|0|0,3:1|3:1|3:1|3:1,0:0:0:0:
483,184,383434,2,0,L|431:174,3,45,0|0|0|0,3:1|3:1|3:1|3:1,0:0:0:0:
388,109,383665,5,0,0:0:0:0:
361,112,383723,1,0,0:0:0:0:
334,116,383780,1,0,3:1:0:0:
308,126,383838,1,0,3:1:0:0:
284,138,383896,1,0,3:1:0:0:
261,152,383954,1,0,3:1:0:0:
241,170,384011,1,0,3:1:0:0:
226,193,384069,1,0,3:1:0:0:
215,217,384127,5,12,0:0:0:0:
